  0
SECTION
  2
HEADER
  9
$ACADVER
  1
AC1027
  9
$ACADMAINTVER
 70
     8
  9
$DWGCODEPAGE
  3
ANSI_1252
  9
$REQUIREDVERSIONS
160
                 0
  9
$INSBASE
 10
0.0
 20
0.0
 30
0.0
  9
$EXTMIN
 10
1.000000000000000E+20
 20
1.000000000000000E+20
 30
1.000000000000000E+20
  9
$EXTMAX
 10
-1.000000000000000E+20
 20
-1.000000000000000E+20
 30
-1.000000000000000E+20
  9
$LIMMIN
 10
0.0
 20
0.0
  9
$LIMMAX
 10
12.0
 20
9.0
  9
$ORTHOMODE
 70
     0
  9
$REGENMODE
 70
     1
  9
$FILLMODE
 70
     1
  9
$QTEXTMODE
 70
     0
  9
$MIRRTEXT
 70
     1
  9
$LTSCALE
 40
1.0
  9
$ATTMODE
 70
     1
  9
$TEXTSIZE
 40
0.2
  9
$TRACEWID
 40
0.05
  9
$TEXTSTYLE
  7
Standard
  9
$CLAYER
  8
0
  9
$CELTYPE
  6
ByLayer
  9
$CECOLOR
 62
    18
  9
$CELTSCALE
 40
1.0
  9
$DISPSILH
 70
     0
  9
$DIMSCALE
 40
1.0
  9
$DIMASZ
 40
2.5
  9
$DIMEXO
 40
0.625
  9
$DIMDLI
 40
0.38
  9
$DIMRND
 40
0.0
  9
$DIMDLE
 40
0.0
  9
$DIMEXE
 40
1.25
  9
$DIMTP
 40
0.0
  9
$DIMTM
 40
0.0
  9
$DIMTXT
 40
4.0
  9
$DIMCEN
 40
0.09
  9
$DIMTSZ
 40
0.0
  9
$DIMTOL
 70
     0
  9
$DIMLIM
 70
     0
  9
$DIMTIH
 70
     1
  9
$DIMTOH
 70
     1
  9
$DIMSE1
 70
     0
  9
$DIMSE2
 70
     0
  9
$DIMTAD
 70
     0
  9
$DIMZIN
 70
     8
  9
$DIMBLK
  1

  9
$DIMASO
 70
     1
  9
$DIMSHO
 70
     1
  9
$DIMPOST
  1

  9
$DIMAPOST
  1

  9
$DIMALT
 70
     0
  9
$DIMALTD
 70
     2
  9
$DIMALTF
 40
25.4
  9
$DIMLFAC
 40
1.0
  9
$DIMTOFL
 70
     0
  9
$DIMTVP
 40
0.0
  9
$DIMTIX
 70
     0
  9
$DIMSOXD
 70
     0
  9
$DIMSAH
 70
     0
  9
$DIMBLK1
  1

  9
$DIMBLK2
  1

  9
$DIMSTYLE
  2
Standard
  9
$DIMCLRD
 70
    18
  9
$DIMCLRE
 70
    18
  9
$DIMCLRT
 70
    18
  9
$DIMTFAC
 40
1.0
  9
$DIMGAP
 40
0.625
  9
$DIMJUST
 70
     0
  9
$DIMSD1
 70
     0
  9
$DIMSD2
 70
     0
  9
$DIMTOLJ
 70
     1
  9
$DIMTZIN
 70
     0
  9
$DIMALTZ
 70
     0
  9
$DIMALTTZ
 70
     0
  9
$DIMUPT
 70
     0
  9
$DIMDEC
 70
     4
  9
$DIMTDEC
 70
     4
  9
$DIMALTU
 70
     2
  9
$DIMALTTD
 70
     2
  9
$DIMTXSTY
  7
Standard
  9
$DIMAUNIT
 70
     0
  9
$DIMADEC
 70
     0
  9
$DIMALTRND
 40
0.0
  9
$DIMAZIN
 70
     2
  9
$DIMDSEP
 70
    46
  9
$DIMATFIT
 70
     3
  9
$DIMFRAC
 70
     0
  9
$DIMLDRBLK
  1

  9
$DIMLUNIT
 70
     2
  9
$DIMLWD
 70
    -2
  9
$DIMLWE
 70
    -2
  9
$DIMTMOVE
 70
     0
  9
$DIMFXL
 40
1.0
  9
$DIMFXLON
 70
     0
  9
$DIMJOGANG
 40
0.7853981633974483
  9
$DIMTFILL
 70
     0
  9
$DIMTFILLCLR
 70
     0
  9
$DIMARCSYM
 70
     0
  9
$DIMLTYPE
  6

  9
$DIMLTEX1
  6

  9
$DIMLTEX2
  6

  9
$DIMTXTDIRECTION
 70
     0
  9
$LUNITS
 70
     2
  9
$LUPREC
 70
     4
  9
$SKETCHINC
 40
0.1
  9
$FILLETRAD
 40
0.5
  9
$AUNITS
 70
     0
  9
$AUPREC
 70
     0
  9
$MENU
  1
.
  9
$ELEVATION
 40
0.0
  9
$PELEVATION
 40
0.0
  9
$THICKNESS
 40
0.0
  9
$LIMCHECK
 70
     0
  9
$CHAMFERA
 40
0.5
  9
$CHAMFERB
 40
0.5
  9
$CHAMFERC
 40
1.0
  9
$CHAMFERD
 40
0.0
  9
$SKPOLY
 70
     0
  9
$TDCREATE
 40
2456621.024088333
  9
$TDUCREATE
 40
2456620.982421667
  9
$TDUPDATE
 40
2456621.024088657
  9
$TDUUPDATE
 40
2456620.982421991
  9
$TDINDWG
 40
0.0000000116
  9
$TDUSRTIMER
 40
0.0000000116
  9
$USRTIMER
 70
     1
  9
$ANGBASE
 50
0.0
  9
$ANGDIR
 70
     0
  9
$PDMODE
 70
     0
  9
$PDSIZE
 40
0.0
  9
$PLINEWID
 40
0.0
  9
$SPLFRAME
 70
     0
  9
$SPLINETYPE
 70
     6
  9
$SPLINESEGS
 70
     8
  9
$HANDSEED
  5
3E7
  9
$SURFTAB1
 70
     6
  9
$SURFTAB2
 70
     6
  9
$SURFTYPE
 70
     6
  9
$SURFU
 70
     6
  9
$SURFV
 70
     6
  9
$UCSBASE
  2

  9
$UCSNAME
  2

  9
$UCSORG
 10
0.0
 20
0.0
 30
0.0
  9
$UCSXDIR
 10
1.0
 20
0.0
 30
0.0
  9
$UCSYDIR
 10
0.0
 20
1.0
 30
0.0
  9
$UCSORTHOREF
  2

  9
$UCSORTHOVIEW
 70
     0
  9
$UCSORGTOP
 10
0.0
 20
0.0
 30
0.0
  9
$UCSORGBOTTOM
 10
0.0
 20
0.0
 30
0.0
  9
$UCSORGLEFT
 10
0.0
 20
0.0
 30
0.0
  9
$UCSORGRIGHT
 10
0.0
 20
0.0
 30
0.0
  9
$UCSORGFRONT
 10
0.0
 20
0.0
 30
0.0
  9
$UCSORGBACK
 10
0.0
 20
0.0
 30
0.0
  9
$PUCSBASE
  2

  9
$PUCSNAME
  2

  9
$PUCSORG
 10
0.0
 20
0.0
 30
0.0
  9
$PUCSXDIR
 10
1.0
 20
0.0
 30
0.0
  9
$PUCSYDIR
 10
0.0
 20
1.0
 30
0.0
  9
$PUCSORTHOREF
  2

  9
$PUCSORTHOVIEW
 70
     0
  9
$PUCSORGTOP
 10
0.0
 20
0.0
 30
0.0
  9
$PUCSORGBOTTOM
 10
0.0
 20
0.0
 30
0.0
  9
$PUCSORGLEFT
 10
0.0
 20
0.0
 30
0.0
  9
$PUCSORGRIGHT
 10
0.0
 20
0.0
 30
0.0
  9
$PUCSORGFRONT
 10
0.0
 20
0.0
 30
0.0
  9
$PUCSORGBACK
 10
0.0
 20
0.0
 30
0.0
  9
$USERI1
 70
     0
  9
$USERI2
 70
     0
  9
$USERI3
 70
     0
  9
$USERI4
 70
     0
  9
$USERI5
 70
     0
  9
$USERR1
 40
0.0
  9
$USERR2
 40
0.0
  9
$USERR3
 40
0.0
  9
$USERR4
 40
0.0
  9
$USERR5
 40
0.0
  9
$WORLDVIEW
 70
     1
  9
$SHADEDGE
 70
     3
  9
$SHADEDIF
 70
    70
  9
$TILEMODE
 70
     1
  9
$MAXACTVP
 70
    64
  9
$PINSBASE
 10
0.0
 20
0.0
 30
0.0
  9
$PLIMCHECK
 70
     0
  9
$PEXTMIN
 10
1.000000000000000E+20
 20
1.000000000000000E+20
 30
1.000000000000000E+20
  9
$PEXTMAX
 10
-1.000000000000000E+20
 20
-1.000000000000000E+20
 30
-1.000000000000000E+20
  9
$PLIMMIN
 10
0.0
 20
0.0
  9
$PLIMMAX
 10
12.0
 20
9.0
  9
$UNITMODE
 70
     0
  9
$VISRETAIN
 70
     1
  9
$PLINEGEN
 70
     0
  9
$PSLTSCALE
 70
     1
  9
$TREEDEPTH
 70
  3020
  9
$CMLSTYLE
  2
Standard
  9
$CMLJUST
 70
     0
  9
$CMLSCALE
 40
1.0
  9
$PROXYGRAPHICS
 70
     1
  9
$MEASUREMENT
 70
     1
  9
$CELWEIGHT
370
    -1
  9
$ENDCAPS
280
     0
  9
$JOINSTYLE
280
     0
  9
$LWDISPLAY
290
     0
  9
$INSUNITS
 70
     4
  9
$HYPERLINKBASE
  1

  9
$STYLESHEET
  1

  9
$XEDIT
290
     1
  9
$CEPSNTYPE
380
     0
  9
$PSTYLEMODE
290
     1
  9
$FINGERPRINTGUID
  2
{E5B7961A-444B-4179-A81E-7BC9339EB64E}
  9
$VERSIONGUID
  2
{FAEB1C32-E019-11D5-929B-00C0DF256EC4}
  9
$EXTNAMES
290
     1
  9
$PSVPSCALE
 40
0.0
  9
$OLESTARTUP
290
     0
  9
$SORTENTS
280
   127
  9
$INDEXCTL
280
     0
  9
$HIDETEXT
280
     1
  9
$XCLIPFRAME
280
     2
  9
$HALOGAP
280
     0
  9
$OBSCOLOR
 70
   257
  9
$OBSLTYPE
280
     0
  9
$INTERSECTIONDISPLAY
280
     0
  9
$INTERSECTIONCOLOR
 70
   257
  9
$DIMASSOC
280
     2
  9
$PROJECTNAME
  1

  9
$CAMERADISPLAY
290
     0
  9
$LENSLENGTH
 40
50.0
  9
$CAMERAHEIGHT
 40
0.0
  9
$STEPSPERSEC
 40
2.0
  9
$STEPSIZE
 40
6.0
  9
$3DDWFPREC
 40
2.0
  9
$PSOLWIDTH
 40
0.25
  9
$PSOLHEIGHT
 40
4.0
  9
$LOFTANG1
 40
1.570796326794897
  9
$LOFTANG2
 40
1.570796326794897
  9
$LOFTMAG1
 40
0.0
  9
$LOFTMAG2
 40
0.0
  9
$LOFTPARAM
 70
     7
  9
$LOFTNORMALS
280
     1
  9
$LATITUDE
 40
37.795
  9
$LONGITUDE
 40
-122.394
  9
$NORTHDIRECTION
 40
0.0
  9
$TIMEZONE
 70
 -8000
  9
$LIGHTGLYPHDISPLAY
280
     1
  9
$TILEMODELIGHTSYNCH
280
     1
  9
$CMATERIAL
347
26B
  9
$SOLIDHIST
280
     1
  9
$SHOWHIST
280
     1
  9
$DWFFRAME
280
     2
  9
$DGNFRAME
280
     2
  9
$REALWORLDSCALE
290
     1
  9
$INTERFERECOLOR
 62
   256
  9
$CSHADOW
280
     0
  9
$SHADOWPLANELOCATION
 40
0.0
  0
ENDSEC
  0
SECTION
  2
CLASSES
  0
CLASS
  1
ACDBDICTIONARYWDFLT
  2
AcDbDictionaryWithDefault
  3
ObjectDBX Classes
 90
        0
 91
        4
280
     0
281
     0
  0
CLASS
  1
VISUALSTYLE
  2
AcDbVisualStyle
  3
ObjectDBX Classes
 90
     4095
 91
        4
280
     0
281
     0
  0
CLASS
  1
MATERIAL
  2
AcDbMaterial
  3
ObjectDBX Classes
 90
     1153
 91
        4
280
     0
281
     0
  0
CLASS
  1
SCALE
  2
AcDbScale
  3
ObjectDBX Classes
 90
     1153
 91
        4
280
     0
281
     0
  0
CLASS
  1
SUN
  2
AcDbSun
  3
SCENEOE
 90
     1153
 91
        4
280
     0
281
     0
  0
CLASS
  1
DICTIONARYVAR
  2
AcDbDictionaryVar
  3
ObjectDBX Classes
 90
        0
 91
        4
280
     0
281
     0
  0
ENDSEC
  0
SECTION
  2
TABLES
  0
TABLE
  2
VPORT
  5
230
330
0
100
AcDbSymbolTable
 70
     1
  0
VPORT
  5
250
330
230
100
AcDbSymbolTableRecord
100
AcDbViewportTableRecord
  2
*Active
 70
     0
 10
0.0
 20
0.0
 11
1.0
 21
1.0
 12
10.42990654205607
 22
4.5
 13
0.0
 23
0.0
 14
0.5
 24
0.5
 15
0.5
 25
0.5
 16
0.0
 26
0.0
 36
1.0
 17
0.0
 27
0.0
 37
0.0
 40
9.0
 41
1.972972972850329
 42
50.0
 43
0.0
 44
0.0
 50
0.0
 51
0.0
 71
     0
 72
   100
 73
     1
 74
     3
 75
     0
 76
     0
 77
     0
 78
     0
281
     0
 65
     1
110
0.0
120
0.0
130
0.0
111
1.0
121
0.0
131
0.0
112
0.0
122
1.0
132
0.0
 79
     0
146
0.0
 60
     3
 61
     5
292
     1
282
     1
141
0.0
142
0.0
 63
   250
361
290
  0
ENDTAB
  0
TABLE
  2
LTYPE
  5
22D
330
0
100
AcDbSymbolTable
 70
    19
  0
LTYPE
  5
23B
330
22D
100
AcDbSymbolTableRecord
100
AcDbLinetypeTableRecord
  2
ByBlock
 70
     0
  3

 72
    65
 73
     0
 40
0.0
  0
LTYPE
  5
23C
330
22D
100
AcDbSymbolTableRecord
100
AcDbLinetypeTableRecord
  2
ByLayer
 70
     0
  3

 72
    65
 73
     0
 40
0.0
  0
LTYPE
  5
23D
330
22D
100
AcDbSymbolTableRecord
100
AcDbLinetypeTableRecord
  2
Continuous
 70
     0
  3
Solid line
 72
    65
 73
     0
 40
0.0
  0
LTYPE
  5
2CD
330
22D
100
AcDbSymbolTableRecord
100
AcDbLinetypeTableRecord
  2
BORDER
 70
     0
  3

 72
    65
 73
     6
 40
42.00000000000001
 49
12.0
 74
     0
 49
-6.0
 74
     0
 49
12.0
 74
     0
 49
-5.95
 74
     0
 49
0.1
 74
     0
 49
-5.95
 74
     0
  0
LTYPE
  5
2CE
330
22D
100
AcDbSymbolTableRecord
100
AcDbLinetypeTableRecord
  2
BORDER2
 70
     0
  3

 72
    65
 73
     6
 40
21.0
 49
6.0
 74
     0
 49
-3.0
 74
     0
 49
6.0
 74
     0
 49
-2.95
 74
     0
 49
0.1
 74
     0
 49
-2.95
 74
     0
  0
LTYPE
  5
2CF
330
22D
100
AcDbSymbolTableRecord
100
AcDbLinetypeTableRecord
  2
BORDERX2
 70
     0
  3

 72
    65
 73
     6
 40
84.0
 49
24.0
 74
     0
 49
-12.0
 74
     0
 49
24.0
 74
     0
 49
-11.95
 74
     0
 49
0.1
 74
     0
 49
-11.95
 74
     0
  0
LTYPE
  5
2D0
330
22D
100
AcDbSymbolTableRecord
100
AcDbLinetypeTableRecord
  2
CENTER
 70
     0
  3

 72
    65
 73
     4
 40
50.0
 49
32.0
 74
     0
 49
-6.0
 74
     0
 49
6.0
 74
     0
 49
-6.0
 74
     0
  0
LTYPE
  5
2D1
330
22D
100
AcDbSymbolTableRecord
100
AcDbLinetypeTableRecord
  2
CENTER2
 70
     0
  3

 72
    65
 73
     4
 40
25.0
 49
16.0
 74
     0
 49
-3.0
 74
     0
 49
3.0
 74
     0
 49
-3.0
 74
     0
  0
LTYPE
  5
2D2
330
22D
100
AcDbSymbolTableRecord
100
AcDbLinetypeTableRecord
  2
CENTERX2
 70
     0
  3

 72
    65
 73
     4
 40
100.0
 49
64.0
 74
     0
 49
-12.0
 74
     0
 49
12.0
 74
     0
 49
-12.0
 74
     0
  0
LTYPE
  5
2D3
330
22D
100
AcDbSymbolTableRecord
100
AcDbLinetypeTableRecord
  2
DASHDOT
 70
     0
  3

 72
    65
 73
     4
 40
24.0
 49
12.0
 74
     0
 49
-5.95
 74
     0
 49
0.1
 74
     0
 49
-5.95
 74
     0
  0
LTYPE
  5
2D4
330
22D
100
AcDbSymbolTableRecord
100
AcDbLinetypeTableRecord
  2
DASHDOT2
 70
     0
  3

 72
    65
 73
     4
 40
12.0
 49
6.0
 74
     0
 49
-2.95
 74
     0
 49
0.1
 74
     0
 49
-2.95
 74
     0
  0
LTYPE
  5
2D5
330
22D
100
AcDbSymbolTableRecord
100
AcDbLinetypeTableRecord
  2
DASHDOTX2
 70
     0
  3

 72
    65
 73
     4
 40
48.0
 49
24.0
 74
     0
 49
-11.95
 74
     0
 49
0.1
 74
     0
 49
-11.95
 74
     0
  0
LTYPE
  5
2D6
330
22D
100
AcDbSymbolTableRecord
100
AcDbLinetypeTableRecord
  2
DASHED
 70
     0
  3

 72
    65
 73
     2
 40
18.0
 49
12.0
 74
     0
 49
-6.0
 74
     0
  0
LTYPE
  5
2D7
330
22D
100
AcDbSymbolTableRecord
100
AcDbLinetypeTableRecord
  2
DASHED2
 70
     0
  3

 72
    65
 73
     2
 40
9.0
 49
6.0
 74
     0
 49
-3.0
 74
     0
  0
LTYPE
  5
2D8
330
22D
100
AcDbSymbolTableRecord
100
AcDbLinetypeTableRecord
  2
DASHEDX2
 70
     0
  3

 72
    65
 73
     2
 40
36.0
 49
24.0
 74
     0
 49
-12.0
 74
     0
  0
LTYPE
  5
2D9
330
22D
100
AcDbSymbolTableRecord
100
AcDbLinetypeTableRecord
  2
DIVIDE
 70
     0
  3

 72
    65
 73
     6
 40
29.99999999999999
 49
12.0
 74
     0
 49
-5.9
 74
     0
 49
0.15
 74
     0
 49
-5.9
 74
     0
 49
0.15
 74
     0
 49
-5.9
 74
     0
  0
LTYPE
  5
2DA
330
22D
100
AcDbSymbolTableRecord
100
AcDbLinetypeTableRecord
  2
DIVIDE2
 70
     0
  3

 72
    65
 73
     6
 40
15.0
 49
6.0
 74
     0
 49
-2.9
 74
     0
 49
0.15
 74
     0
 49
-2.9
 74
     0
 49
0.15
 74
     0
 49
-2.9
 74
     0
  0
LTYPE
  5
2DB
330
22D
100
AcDbSymbolTableRecord
100
AcDbLinetypeTableRecord
  2
DIVIDEX2
 70
     0
  3

 72
    65
 73
     6
 40
59.99999999999999
 49
24.0
 74
     0
 49
-11.9
 74
     0
 49
0.15
 74
     0
 49
-11.9
 74
     0
 49
0.15
 74
     0
 49
-11.9
 74
     0
  0
LTYPE
  5
2DC
330
22D
100
AcDbSymbolTableRecord
100
AcDbLinetypeTableRecord
  2
DOT
 70
     0
  3

 72
    65
 73
     2
 40
6.3
 49
0.1
 74
     0
 49
-6.2
 74
     0
  0
LTYPE
  5
2DD
330
22D
100
AcDbSymbolTableRecord
100
AcDbLinetypeTableRecord
  2
DOT2
 70
     0
  3

 72
    65
 73
     2
 40
3.2
 49
0.1
 74
     0
 49
-3.1
 74
     0
  0
LTYPE
  5
2DE
330
22D
100
AcDbSymbolTableRecord
100
AcDbLinetypeTableRecord
  2
DOTX2
 70
     0
  3

 72
    65
 73
     2
 40
12.5
 49
0.1
 74
     0
 49
-12.4
 74
     0
  0
ENDTAB
  0
TABLE
  2
LAYER
  5
22A
330
0
100
AcDbSymbolTable
 70
    12
  0
LAYER
  5
238
330
22A
100
AcDbSymbolTableRecord
100
AcDbLayerTableRecord
  2
0
 70
     0
 62
     7
420
 16777215
  6
Continuous
370
    25
390
237
347
26D
348
0
  0
LAYER
  5
2DF
330
22A
100
AcDbSymbolTableRecord
100
AcDbLayerTableRecord
  2
Bec
 70
     0
 62
   253
420
 10526884
  6
Continuous
370
    25
390
237
347
26D
348
0
  0
LAYER
  5
2E0
330
22A
100
AcDbSymbolTableRecord
100
AcDbLayerTableRecord
  2
1.Contours
 70
     0
 62
     5
420
      255
  6
Continuous
370
    25
390
237
347
26D
348
0
  0
LAYER
  5
2E1
330
22A
100
AcDbSymbolTableRecord
100
AcDbLayerTableRecord
  2
2.Hidden
 70
     0
 62
     6
420
 16711935
  6
DASHED
370
     0
390
237
347
26D
348
0
  0
LAYER
  5
2E2
330
22A
100
AcDbSymbolTableRecord
100
AcDbLayerTableRecord
  2
3.Axes
 70
     0
 62
     2
420
 16776960
  6
DASHDOTX2
370
    13
390
237
347
26D
348
0
  0
LAYER
  5
2E3
330
22A
100
AcDbSymbolTableRecord
100
AcDbLayerTableRecord
  2
4.Notes
 70
     0
 62
     4
420
    65535
  6
Continuous
370
    18
390
237
347
26D
348
0
  0
LAYER
  5
2E4
330
22A
100
AcDbSymbolTableRecord
100
AcDbLayerTableRecord
  2
5.Trait fin
 70
     0
 62
     9
420
 12632256
  6
Continuous
370
     0
390
237
347
26D
348
0
  0
LAYER
  5
2E5
330
22A
100
AcDbSymbolTableRecord
100
AcDbLayerTableRecord
  2
6.Epure
 70
     0
 62
     1
420
 16711680
  6
Continuous
370
     0
390
237
347
26D
348
0
  0
LAYER
  5
2E6
330
22A
100
AcDbSymbolTableRecord
100
AcDbLayerTableRecord
  2
7.Hachures
 70
     0
 62
   253
420
 10526884
  6
Continuous
370
     9
390
237
347
26D
348
0
  0
LAYER
  5
2E7
330
22A
100
AcDbSymbolTableRecord
100
AcDbLayerTableRecord
  2
8.Cotations
 70
     0
 62
   253
420
 10526884
  6
Continuous
370
    18
390
237
347
26D
348
0
  0
LAYER
  5
2E8
330
22A
100
AcDbSymbolTableRecord
100
AcDbLayerTableRecord
  2
9.Text
 70
     0
 62
     3
420
    65280
  6
Continuous
370
    18
390
237
347
26D
348
0
  0
LAYER
  5
2E9
330
22A
100
AcDbSymbolTableRecord
100
AcDbLayerTableRecord
  2
Defpoints
 70
     0
 62
     7
420
 16777215
  6
Continuous
290
     0
370
    -3
390
237
347
26D
348
0
  0
ENDTAB
  0
TABLE
  2
STYLE
  5
22B
330
0
100
AcDbSymbolTable
 70
     7
  0
STYLE
  5
239
330
22B
100
AcDbSymbolTableRecord
100
AcDbTextStyleTableRecord
  2
Standard
 70
     0
 40
0.0
 41
1.0
 50
0.0
 71
     0
 42
0.2
  3
txt
  4

  0
STYLE
  5
2EA
330
22B
100
AcDbSymbolTableRecord
100
AcDbTextStyleTableRecord
  2
textstyle0
 70
     0
 40
0.0
 41
1.0
 50
0.0
 71
     0
 42
0.2
  3

  4

1001
ACAD
1000
Arial
1071
        0
  0
STYLE
  5
2EB
330
22B
100
AcDbSymbolTableRecord
100
AcDbTextStyleTableRecord
  2
textstyle1
 70
     0
 40
0.0
 41
1.0
 50
0.0
 71
     0
 42
0.2
  3

  4

1001
ACAD
1000
Arial
1071
        0
  0
STYLE
  5
2EC
330
22B
100
AcDbSymbolTableRecord
100
AcDbTextStyleTableRecord
  2
textstyle2
 70
     0
 40
0.0
 41
1.0
 50
0.0
 71
     0
 42
0.2
  3

  4

1001
ACAD
1000
Arial
1071
        0
  0
STYLE
  5
3DE
330
22B
100
AcDbSymbolTableRecord
100
AcDbTextStyleTableRecord
  2
textstyle3
 70
     0
 40
0.0
 41
1.0
 50
0.0
 71
     0
 42
0.2
  3

  4

1001
ACAD
1000
Arial
1071
        0
  0
STYLE
  5
3DF
330
22B
100
AcDbSymbolTableRecord
100
AcDbTextStyleTableRecord
  2
textstyle4
 70
     0
 40
0.0
 41
1.0
 50
0.0
 71
     0
 42
0.2
  3

  4

1001
ACAD
1000
Arial
1071
        0
  0
STYLE
  5
3E0
330
22B
100
AcDbSymbolTableRecord
100
AcDbTextStyleTableRecord
  2
textstyle5
 70
     0
 40
0.0
 41
1.0
 50
0.0
 71
     0
 42
0.2
  3

  4

1001
ACAD
1000
Arial
1071
        0
  0
ENDTAB
  0
TABLE
  2
VIEW
  5
22E
330
0
100
AcDbSymbolTable
 70
     0
  0
ENDTAB
  0
TABLE
  2
UCS
  5
22F
330
0
100
AcDbSymbolTable
 70
     0
  0
ENDTAB
  0
TABLE
  2
APPID
  5
231
330
0
100
AcDbSymbolTable
 70
     2
  0
APPID
  5
23A
330
231
100
AcDbSymbolTableRecord
100
AcDbRegAppTableRecord
  2
ACAD
 70
     0
  0
APPID
  5
291
330
231
100
AcDbSymbolTableRecord
100
AcDbRegAppTableRecord
  2
QCAD
 70
     0
  0
ENDTAB
  0
TABLE
  2
DIMSTYLE
  5
232
330
0
100
AcDbSymbolTable
 70
     2
100
AcDbDimStyleTable
  0
DIMSTYLE
105
24E
330
232
100
AcDbSymbolTableRecord
100
AcDbDimStyleTableRecord
  2
Standard
 70
     0
178
     0
340
239
  0
DIMSTYLE
105
2CC
102
{ACAD_REACTORS
330
20C
330
20D
330
20E
330
20F
330
210
330
211
330
212
330
213
330
215
330
216
330
217
330
218
330
21A
330
21B
330
21C
330
21D
330
21E
330
21F
330
220
330
221
330
222
102
}
330
232
100
AcDbSymbolTableRecord
100
AcDbDimStyleTableRecord
  2
QCADDimStyle
 70
     0
 41
2.5
 42
0.625
 44
1.25
 73
     0
 77
     1
140
4.0
147
0.625
178
     0
340
239
  0
ENDTAB
  0
TABLE
  2
BLOCK_RECORD
  5
229
330
0
100
AcDbSymbolTable
 70
    22
  0
BLOCK_RECORD
  5
246
330
229
100
AcDbSymbolTableRecord
100
AcDbBlockTableRecord
  2
*Model_Space
340
249
 70
     0
280
     1
281
     0
  0
BLOCK_RECORD
  5
242
330
229
100
AcDbSymbolTableRecord
100
AcDbBlockTableRecord
  2
*Paper_Space
340
245
 70
     0
280
     1
281
     0
  0
BLOCK_RECORD
  5
24A
330
229
100
AcDbSymbolTableRecord
100
AcDbBlockTableRecord
  2
*Paper_Space0
340
24D
 70
     0
280
     1
281
     0
  0
BLOCK_RECORD
  5
2ED
330
229
100
AcDbSymbolTableRecord
100
AcDbBlockTableRecord
  2
*D1
340
0
 70
     0
280
     1
281
     0
  0
BLOCK_RECORD
  5
2F6
330
229
100
AcDbSymbolTableRecord
100
AcDbBlockTableRecord
  2
*D2
340
0
 70
     0
280
     1
281
     0
  0
BLOCK_RECORD
  5
2FF
330
229
100
AcDbSymbolTableRecord
100
AcDbBlockTableRecord
  2
*D3
340
0
 70
     0
280
     1
281
     0
  0
BLOCK_RECORD
  5
308
330
229
100
AcDbSymbolTableRecord
100
AcDbBlockTableRecord
  2
*D4
340
0
 70
     0
280
     1
281
     0
  0
BLOCK_RECORD
  5
311
330
229
100
AcDbSymbolTableRecord
100
AcDbBlockTableRecord
  2
*D5
340
0
 70
     0
280
     1
281
     0
  0
BLOCK_RECORD
  5
31A
330
229
100
AcDbSymbolTableRecord
100
AcDbBlockTableRecord
  2
*D6
340
0
 70
     0
280
     1
281
     0
  0
BLOCK_RECORD
  5
323
330
229
100
AcDbSymbolTableRecord
100
AcDbBlockTableRecord
  2
*D7
340
0
 70
     0
280
     1
281
     0
  0
BLOCK_RECORD
  5
32C
330
229
100
AcDbSymbolTableRecord
100
AcDbBlockTableRecord
  2
*D8
340
0
 70
     0
280
     1
281
     0
  0
BLOCK_RECORD
  5
335
330
229
100
AcDbSymbolTableRecord
100
AcDbBlockTableRecord
  2
*D9
340
0
 70
     0
280
     1
281
     0
  0
BLOCK_RECORD
  5
342
330
229
100
AcDbSymbolTableRecord
100
AcDbBlockTableRecord
  2
*D10
340
0
 70
     0
280
     1
281
     0
  0
BLOCK_RECORD
  5
34F
330
229
100
AcDbSymbolTableRecord
100
AcDbBlockTableRecord
  2
*D11
340
0
 70
     0
280
     1
281
     0
  0
BLOCK_RECORD
  5
35C
330
229
100
AcDbSymbolTableRecord
100
AcDbBlockTableRecord
  2
*D12
340
0
 70
     0
280
     1
281
     0
  0
BLOCK_RECORD
  5
369
330
229
100
AcDbSymbolTableRecord
100
AcDbBlockTableRecord
  2
*D13
340
0
 70
     0
280
     1
281
     0
  0
BLOCK_RECORD
  5
376
330
229
100
AcDbSymbolTableRecord
100
AcDbBlockTableRecord
  2
*D14
340
0
 70
     0
280
     1
281
     0
  0
BLOCK_RECORD
  5
383
330
229
100
AcDbSymbolTableRecord
100
AcDbBlockTableRecord
  2
*D15
340
0
 70
     0
280
     1
281
     0
  0
BLOCK_RECORD
  5
390
330
229
100
AcDbSymbolTableRecord
100
AcDbBlockTableRecord
  2
*D16
340
0
 70
     0
280
     1
281
     0
  0
BLOCK_RECORD
  5
39D
330
229
100
AcDbSymbolTableRecord
100
AcDbBlockTableRecord
  2
*D17
340
0
 70
     0
280
     1
281
     0
  0
BLOCK_RECORD
  5
3AA
330
229
100
AcDbSymbolTableRecord
100
AcDbBlockTableRecord
  2
*D18
340
0
 70
     0
280
     1
281
     0
  0
BLOCK_RECORD
  5
3B7
330
229
100
AcDbSymbolTableRecord
100
AcDbBlockTableRecord
  2
*D19
340
0
 70
     0
280
     1
281
     0
  0
BLOCK_RECORD
  5
3C4
330
229
100
AcDbSymbolTableRecord
100
AcDbBlockTableRecord
  2
*D20
340
0
 70
     0
280
     1
281
     0
  0
BLOCK_RECORD
  5
3D1
330
229
100
AcDbSymbolTableRecord
100
AcDbBlockTableRecord
  2
*D21
340
0
 70
     0
280
     1
281
     0
  0
ENDTAB
  0
ENDSEC
  0
SECTION
  2
BLOCKS
  0
BLOCK
  5
247
330
246
100
AcDbEntity
  8
0
100
AcDbBlockBegin
  2
*Model_Space
 70
     0
 10
0.0
 20
0.0
 30
0.0
  3
*Model_Space
  1
*Model_Space
  0
ENDBLK
  5
248
330
246
100
AcDbEntity
  8
0
100
AcDbBlockEnd
  0
BLOCK
  5
243
330
242
100
AcDbEntity
 67
     1
  8
0
100
AcDbBlockBegin
  2
*Paper_Space
 70
     0
 10
0.0
 20
0.0
 30
0.0
  3
*Paper_Space
  1
*Paper_Space
  0
ENDBLK
  5
244
330
242
100
AcDbEntity
 67
     1
  8
0
100
AcDbBlockEnd
  0
BLOCK
  5
24B
330
24A
100
AcDbEntity
  8
0
100
AcDbBlockBegin
  2
*Paper_Space0
 70
     0
 10
0.0
 20
0.0
 30
0.0
  3
*Paper_Space0
  1
*Paper_Space0
  0
ENDBLK
  5
24C
330
24A
100
AcDbEntity
  8
0
100
AcDbBlockEnd
  0
BLOCK
  5
2EE
330
2ED
100
AcDbEntity
  8
0
100
AcDbBlockBegin
  2
*D1
 70
     1
 10
0.0
 20
0.0
 30
0.0
  3
*D1
  1
*D1
  0
LINE
  5
2F0
330
2ED
100
AcDbEntity
  8
8.Cotations
 62
     0
370
    -2
100
AcDbLine
 10
168.2568530823892
 20
-77.71786751014854
 30
0.0
 11
171.4
 21
-77.71786751014854
 31
0.0
  0
LINE
  5
2F1
330
2ED
100
AcDbEntity
  8
8.Cotations
 62
     0
370
    -2
100
AcDbLine
 10
171.4
 20
-77.71786751014854
 30
0.0
 11
171.4
 21
-67.18000000000002
 31
0.0
  0
MTEXT
  5
2F2
330
2ED
100
AcDbEntity
  8
8.Cotations
 62
     0
100
AcDbMText
 10
167.6397102252464
 20
-77.71786751014854
 30
0.0
 40
0.18
 41
0.0
 46
0.0
 71
     5
 72
     1
  1
\A1;%%c6.0000
 73
     1
 44
1.0
  0
SOLID
  5
2F3
330
2ED
100
AcDbEntity
  8
8.Cotations
 62
     0
100
AcDbTrace
 10
171.43
 20
-67.18000000000002
 30
0.0
 11
171.37
 21
-67.18000000000002
 31
0.0
 12
171.4
 22
-67.00000000000001
 32
0.0
 13
171.4
 23
-67.00000000000001
 33
0.0
  0
POINT
  5
2F4
330
2ED
100
AcDbEntity
  8
Defpoints
 62
     0
100
AcDbPoint
 10
171.4
 20
-67.00000000000001
 30
0.0
  0
POINT
  5
2F5
330
2ED
100
AcDbEntity
  8
Defpoints
 62
     0
100
AcDbPoint
 10
171.4
 20
-72.99999999999999
 30
0.0
  0
ENDBLK
  5
2EF
330
2ED
100
AcDbEntity
  8
0
100
AcDbBlockEnd
  0
BLOCK
  5
2F7
330
2F6
100
AcDbEntity
  8
0
100
AcDbBlockBegin
  2
*D2
 70
     1
 10
0.0
 20
0.0
 30
0.0
  3
*D2
  1
*D2
  0
LINE
  5
2F9
330
2F6
100
AcDbEntity
  8
8.Cotations
 62
     0
370
    -2
100
AcDbLine
 10
178.4635625440678
 20
-77.08652465684884
 30
0.0
 11
181.4
 21
-77.08652465684884
 31
0.0
  0
LINE
  5
2FA
330
2F6
100
AcDbEntity
  8
8.Cotations
 62
     0
370
    -2
100
AcDbLine
 10
181.4
 20
-77.08652465684884
 30
0.0
 11
181.4
 21
-66.17999999999999
 31
0.0
  0
MTEXT
  5
2FB
330
2F6
100
AcDbEntity
  8
8.Cotations
 62
     0
100
AcDbMText
 10
177.8464196869249
 20
-77.08652465684884
 30
0.0
 40
0.18
 41
0.0
 46
0.0
 71
     5
 72
     1
  1
\A1;%%c8.0000
 73
     1
 44
1.0
  0
SOLID
  5
2FC
330
2F6
100
AcDbEntity
  8
8.Cotations
 62
     0
100
AcDbTrace
 10
181.43
 20
-66.17999999999999
 30
0.0
 11
181.37
 21
-66.17999999999999
 31
0.0
 12
181.4
 22
-65.99999999999999
 32
0.0
 13
181.4
 23
-65.99999999999999
 33
0.0
  0
POINT
  5
2FD
330
2F6
100
AcDbEntity
  8
Defpoints
 62
     0
100
AcDbPoint
 10
181.4
 20
-65.99999999999999
 30
0.0
  0
POINT
  5
2FE
330
2F6
100
AcDbEntity
  8
Defpoints
 62
     0
100
AcDbPoint
 10
181.4
 20
-74.00000000000001
 30
0.0
  0
ENDBLK
  5
2F8
330
2F6
100
AcDbEntity
  8
0
100
AcDbBlockEnd
  0
BLOCK
  5
300
330
2FF
100
AcDbEntity
  8
0
100
AcDbBlockBegin
  2
*D3
 70
     1
 10
0.0
 20
0.0
 30
0.0
  3
*D3
  1
*D3
  0
LINE
  5
302
330
2FF
100
AcDbEntity
  8
8.Cotations
 62
     0
370
    -2
100
AcDbLine
 10
201.22
 20
-77.09666608135807
 30
0.0
 11
201.4
 21
-77.09666608135807
 31
0.0
  0
LINE
  5
303
330
2FF
100
AcDbEntity
  8
8.Cotations
 62
     0
370
    -2
100
AcDbLine
 10
201.4
 20
-77.09666608135807
 30
0.0
 11
201.4
 21
-66.18
 31
0.0
  0
MTEXT
  5
304
330
2FF
100
AcDbEntity
  8
8.Cotations
 62
     0
100
AcDbMText
 10
200.6028571428572
 20
-77.09666608135807
 30
0.0
 40
0.18
 41
0.0
 46
0.0
 71
     5
 72
     1
  1
\A1;%%c8.0000
 73
     1
 44
1.0
  0
SOLID
  5
305
330
2FF
100
AcDbEntity
  8
8.Cotations
 62
     0
100
AcDbTrace
 10
201.43
 20
-66.18
 30
0.0
 11
201.37
 21
-66.18
 31
0.0
 12
201.4
 22
-66.0
 32
0.0
 13
201.4
 23
-66.0
 33
0.0
  0
POINT
  5
306
330
2FF
100
AcDbEntity
  8
Defpoints
 62
     0
100
AcDbPoint
 10
201.4
 20
-66.0
 30
0.0
  0
POINT
  5
307
330
2FF
100
AcDbEntity
  8
Defpoints
 62
     0
100
AcDbPoint
 10
201.4
 20
-74.0
 30
0.0
  0
ENDBLK
  5
301
330
2FF
100
AcDbEntity
  8
0
100
AcDbBlockEnd
  0
BLOCK
  5
309
330
308
100
AcDbEntity
  8
0
100
AcDbBlockBegin
  2
*D4
 70
     1
 10
0.0
 20
0.0
 30
0.0
  3
*D4
  1
*D4
  0
LINE
  5
30B
330
308
100
AcDbEntity
  8
8.Cotations
 62
     0
370
    -2
100
AcDbLine
 10
222.22
 20
-76.71786036937824
 30
0.0
 11
222.4
 21
-76.71786036937824
 31
0.0
  0
LINE
  5
30C
330
308
100
AcDbEntity
  8
8.Cotations
 62
     0
370
    -2
100
AcDbLine
 10
222.4
 20
-76.71786036937824
 30
0.0
 11
222.4
 21
-66.18
 31
0.0
  0
MTEXT
  5
30D
330
308
100
AcDbEntity
  8
8.Cotations
 62
     0
100
AcDbMText
 10
221.6028571428572
 20
-76.71786036937824
 30
0.0
 40
0.18
 41
0.0
 46
0.0
 71
     5
 72
     1
  1
\A1;%%c8.0000
 73
     1
 44
1.0
  0
SOLID
  5
30E
330
308
100
AcDbEntity
  8
8.Cotations
 62
     0
100
AcDbTrace
 10
222.43
 20
-66.18
 30
0.0
 11
222.37
 21
-66.18
 31
0.0
 12
222.4
 22
-66.0
 32
0.0
 13
222.4
 23
-66.0
 33
0.0
  0
POINT
  5
30F
330
308
100
AcDbEntity
  8
Defpoints
 62
     0
100
AcDbPoint
 10
222.4
 20
-66.0
 30
0.0
  0
POINT
  5
310
330
308
100
AcDbEntity
  8
Defpoints
 62
     0
100
AcDbPoint
 10
222.4
 20
-74.0
 30
0.0
  0
ENDBLK
  5
30A
330
308
100
AcDbEntity
  8
0
100
AcDbBlockEnd
  0
BLOCK
  5
312
330
311
100
AcDbEntity
  8
0
100
AcDbBlockBegin
  2
*D5
 70
     1
 10
0.0
 20
0.0
 30
0.0
  3
*D5
  1
*D5
  0
LINE
  5
314
330
311
100
AcDbEntity
  8
8.Cotations
 62
     0
370
    -2
100
AcDbLine
 10
242.2291907273379
 20
-78.45443417233153
 30
0.0
 11
244.2693770584323
 21
-78.45443417233153
 31
0.0
  0
LINE
  5
315
330
311
100
AcDbEntity
  8
8.Cotations
 62
     0
370
    -2
100
AcDbLine
 10
244.2693770584323
 20
-78.45443417233153
 30
0.0
 11
244.4458817033918
 21
-67.03035442025586
 31
0.0
  0
MTEXT
  5
316
330
311
100
AcDbEntity
  8
8.Cotations
 62
     0
100
AcDbMText
 10
241.612047870195
 20
-78.45443417233153
 30
0.0
 40
0.18
 41
0.0
 46
0.0
 71
     5
 72
     1
  1
\A1;%%c6.3000
 73
     1
 44
1.0
  0
SOLID
  5
317
330
311
100
AcDbEntity
  8
8.Cotations
 62
     0
100
AcDbTrace
 10
244.4758781233892
 20
-67.03081787180527
 30
0.0
 11
244.4158852833943
 21
-67.02989096870645
 31
0.0
 12
244.4486624126882
 22
-66.85037590027137
 32
0.0
 13
244.4486624126882
 23
-66.85037590027137
 33
0.0
  0
POINT
  5
318
330
311
100
AcDbEntity
  8
Defpoints
 62
     0
100
AcDbPoint
 10
244.4486624126882
 20
-66.85037590027137
 30
0.0
  0
POINT
  5
319
330
311
100
AcDbEntity
  8
Defpoints
 62
     0
100
AcDbPoint
 10
244.3513375873118
 20
-73.14962409972863
 30
0.0
  0
ENDBLK
  5
313
330
311
100
AcDbEntity
  8
0
100
AcDbBlockEnd
  0
BLOCK
  5
31B
330
31A
100
AcDbEntity
  8
0
100
AcDbBlockBegin
  2
*D6
 70
     1
 10
0.0
 20
0.0
 30
0.0
  3
*D6
  1
*D6
  0
LINE
  5
31D
330
31A
100
AcDbEntity
  8
8.Cotations
 62
     0
370
    -2
100
AcDbLine
 10
260.6171428571428
 20
-80.0
 30
0.0
 11
263.4
 21
-80.0
 31
0.0
  0
LINE
  5
31E
330
31A
100
AcDbEntity
  8
8.Cotations
 62
     0
370
    -2
100
AcDbLine
 10
263.4
 20
-80.0
 30
0.0
 11
263.4
 21
-65.28
 31
0.0
  0
MTEXT
  5
31F
330
31A
100
AcDbEntity
  8
8.Cotations
 62
     0
100
AcDbMText
 10
260.0
 20
-80.0
 30
0.0
 40
0.18
 41
0.0
 46
0.0
 71
     5
 72
     1
  1
\A1;%%c9.8000
 73
     1
 44
1.0
  0
SOLID
  5
320
330
31A
100
AcDbEntity
  8
8.Cotations
 62
     0
100
AcDbTrace
 10
263.43
 20
-65.28
 30
0.0
 11
263.3700000000001
 21
-65.28
 31
0.0
 12
263.4
 22
-65.1
 32
0.0
 13
263.4
 23
-65.1
 33
0.0
  0
POINT
  5
321
330
31A
100
AcDbEntity
  8
Defpoints
 62
     0
100
AcDbPoint
 10
263.4
 20
-65.1
 30
0.0
  0
POINT
  5
322
330
31A
100
AcDbEntity
  8
Defpoints
 62
     0
100
AcDbPoint
 10
263.4
 20
-74.9
 30
0.0
  0
ENDBLK
  5
31C
330
31A
100
AcDbEntity
  8
0
100
AcDbBlockEnd
  0
BLOCK
  5
324
330
323
100
AcDbEntity
  8
0
100
AcDbBlockBegin
  2
*D7
 70
     1
 10
0.0
 20
0.0
 30
0.0
  3
*D7
  1
*D7
  0
LINE
  5
326
330
323
100
AcDbEntity
  8
8.Cotations
 62
     0
370
    -2
100
AcDbLine
 10
280.6176982955614
 20
-78.24398655456497
 30
0.0
 11
283.4
 21
-78.24398655456497
 31
0.0
  0
LINE
  5
327
330
323
100
AcDbEntity
  8
8.Cotations
 62
     0
370
    -2
100
AcDbLine
 10
283.4
 20
-78.24398655456497
 30
0.0
 11
283.4
 21
-66.18
 31
0.0
  0
MTEXT
  5
328
330
323
100
AcDbEntity
  8
8.Cotations
 62
     0
100
AcDbMText
 10
280.0005554384186
 20
-78.24398655456497
 30
0.0
 40
0.18
 41
0.0
 46
0.0
 71
     5
 72
     1
  1
\A1;%%c8.0000
 73
     1
 44
1.0
  0
SOLID
  5
329
330
323
100
AcDbEntity
  8
8.Cotations
 62
     0
100
AcDbTrace
 10
283.43
 20
-66.18
 30
0.0
 11
283.3700000000001
 21
-66.18
 31
0.0
 12
283.4
 22
-66.0
 32
0.0
 13
283.4
 23
-66.0
 33
0.0
  0
POINT
  5
32A
330
323
100
AcDbEntity
  8
Defpoints
 62
     0
100
AcDbPoint
 10
283.4
 20
-66.0
 30
0.0
  0
POINT
  5
32B
330
323
100
AcDbEntity
  8
Defpoints
 62
     0
100
AcDbPoint
 10
283.4
 20
-74.0
 30
0.0
  0
ENDBLK
  5
325
330
323
100
AcDbEntity
  8
0
100
AcDbBlockEnd
  0
BLOCK
  5
32D
330
32C
100
AcDbEntity
  8
0
100
AcDbBlockBegin
  2
*D8
 70
     1
 10
0.0
 20
0.0
 30
0.0
  3
*D8
  1
*D8
  0
LINE
  5
32F
330
32C
100
AcDbEntity
  8
8.Cotations
 62
     0
370
    -2
100
AcDbLine
 10
313.2370790493794
 20
-78.6648817900981
 30
0.0
 11
316.7
 21
-78.6648817900981
 31
0.0
  0
LINE
  5
330
330
32C
100
AcDbEntity
  8
8.Cotations
 62
     0
370
    -2
100
AcDbLine
 10
316.7
 20
-78.6648817900981
 30
0.0
 11
316.7
 21
-66.93
 31
0.0
  0
MTEXT
  5
331
330
32C
100
AcDbEntity
  8
8.Cotations
 62
     0
100
AcDbMText
 10
312.6199361922366
 20
-78.6648817900981
 30
0.0
 40
0.18
 41
0.0
 46
0.0
 71
     5
 72
     1
  1
\A1;%%c6.5000
 73
     1
 44
1.0
  0
SOLID
  5
332
330
32C
100
AcDbEntity
  8
8.Cotations
 62
     0
100
AcDbTrace
 10
316.73
 20
-66.93
 30
0.0
 11
316.6700000000001
 21
-66.93
 31
0.0
 12
316.7
 22
-66.75
 32
0.0
 13
316.7
 23
-66.75
 33
0.0
  0
POINT
  5
333
330
32C
100
AcDbEntity
  8
Defpoints
 62
     0
100
AcDbPoint
 10
316.7
 20
-66.75
 30
0.0
  0
POINT
  5
334
330
32C
100
AcDbEntity
  8
Defpoints
 62
     0
100
AcDbPoint
 10
316.7
 20
-73.25
 30
0.0
  0
ENDBLK
  5
32E
330
32C
100
AcDbEntity
  8
0
100
AcDbBlockEnd
  0
BLOCK
  5
336
330
335
100
AcDbEntity
  8
0
100
AcDbBlockBegin
  2
*D9
 70
     1
 10
0.0
 20
0.0
 30
0.0
  3
*D9
  1
*D9
  0
LINE
  5
338
330
335
100
AcDbEntity
  8
8.Cotations
 62
     0
370
    -2
100
AcDbLine
 10
347.9624999999999
 20
8.0
 30
0.0
 11
361.8333893413758
 21
8.0
 31
0.0
  0
LINE
  5
339
330
335
100
AcDbEntity
  8
8.Cotations
 62
     0
370
    -2
100
AcDbLine
 10
348.4624999999999
 20
-8.0
 30
0.0
 11
361.8333893413758
 21
-8.0
 31
0.0
  0
LINE
  5
33A
330
335
100
AcDbEntity
  8
8.Cotations
 62
     0
370
    -2
100
AcDbLine
 10
361.6533893413758
 20
7.82
 30
0.0
 11
361.6533893413758
 21
0.1800000000000006
 31
0.0
  0
LINE
  5
33B
330
335
100
AcDbEntity
  8
8.Cotations
 62
     0
370
    -2
100
AcDbLine
 10
361.6533893413758
 20
-7.82
 30
0.0
 11
361.6533893413758
 21
-0.1799999999999997
 31
0.0
  0
SOLID
  5
33C
330
335
100
AcDbEntity
  8
8.Cotations
 62
     0
100
AcDbTrace
 10
361.6833893413758
 20
7.82
 30
0.0
 11
361.6233893413759
 21
7.82
 31
0.0
 12
361.6533893413758
 22
8.0
 32
0.0
 13
361.6533893413758
 23
8.0
 33
0.0
  0
SOLID
  5
33D
330
335
100
AcDbEntity
  8
8.Cotations
 62
     0
100
AcDbTrace
 10
361.6233893413759
 20
-7.82
 30
0.0
 11
361.6833893413758
 21
-7.82
 31
0.0
 12
361.6533893413758
 22
-8.0
 32
0.0
 13
361.6533893413758
 23
-8.0
 33
0.0
  0
MTEXT
  5
33E
330
335
100
AcDbEntity
  8
8.Cotations
 62
     0
100
AcDbMText
 10
361.6533893413758
 20
0.0
 30
0.0
 40
0.18
 41
0.0
 46
0.0
 71
     5
 72
     1
  1
\A1;16.0000
 73
     1
 44
1.0
  0
POINT
  5
33F
330
335
100
AcDbEntity
  8
Defpoints
 62
     0
100
AcDbPoint
 10
347.8999999999999
 20
8.0
 30
0.0
  0
POINT
  5
340
330
335
100
AcDbEntity
  8
Defpoints
 62
     0
100
AcDbPoint
 10
348.3999999999999
 20
-8.0
 30
0.0
  0
POINT
  5
341
330
335
100
AcDbEntity
  8
Defpoints
 62
     0
100
AcDbPoint
 10
361.6533893413758
 20
-8.0
 30
0.0
  0
ENDBLK
  5
337
330
335
100
AcDbEntity
  8
0
100
AcDbBlockEnd
  0
BLOCK
  5
343
330
342
100
AcDbEntity
  8
0
100
AcDbBlockBegin
  2
*D10
 70
     1
 10
0.0
 20
0.0
 30
0.0
  3
*D10
  1
*D10
  0
LINE
  5
345
330
342
100
AcDbEntity
  8
8.Cotations
 62
     0
370
    -2
100
AcDbLine
 10
348.4625
 20
9.999999999999872
 30
0.0
 11
372.18
 21
9.99999999999987
 31
0.0
  0
LINE
  5
346
330
342
100
AcDbEntity
  8
8.Cotations
 62
     0
370
    -2
100
AcDbLine
 10
349.0625
 20
-10.0
 30
0.0
 11
372.18
 21
-10.0
 31
0.0
  0
LINE
  5
347
330
342
100
AcDbEntity
  8
8.Cotations
 62
     0
370
    -2
100
AcDbLine
 10
372.0
 20
9.81999999999987
 30
0.0
 11
372.0
 21
0.179999999999934
 31
0.0
  0
LINE
  5
348
330
342
100
AcDbEntity
  8
8.Cotations
 62
     0
370
    -2
100
AcDbLine
 10
372.0
 20
-9.820000000000002
 30
0.0
 11
372.0
 21
-0.1800000000000654
 31
0.0
  0
SOLID
  5
349
330
342
100
AcDbEntity
  8
8.Cotations
 62
     0
100
AcDbTrace
 10
372.03
 20
9.81999999999987
 30
0.0
 11
371.97
 21
9.81999999999987
 31
0.0
 12
372.0
 22
9.99999999999987
 32
0.0
 13
372.0
 23
9.99999999999987
 33
0.0
  0
SOLID
  5
34A
330
342
100
AcDbEntity
  8
8.Cotations
 62
     0
100
AcDbTrace
 10
371.97
 20
-9.820000000000002
 30
0.0
 11
372.03
 21
-9.820000000000002
 31
0.0
 12
372.0
 22
-10.0
 32
0.0
 13
372.0
 23
-10.0
 33
0.0
  0
MTEXT
  5
34B
330
342
100
AcDbEntity
  8
8.Cotations
 62
     0
100
AcDbMText
 10
372.0
 20
-0.0000000000000657
 30
0.0
 40
0.18
 41
0.0
 46
0.0
 71
     5
 72
     1
  1
\A1;20.0000
 73
     1
 44
1.0
  0
POINT
  5
34C
330
342
100
AcDbEntity
  8
Defpoints
 62
     0
100
AcDbPoint
 10
348.4
 20
9.999999999999872
 30
0.0
  0
POINT
  5
34D
330
342
100
AcDbEntity
  8
Defpoints
 62
     0
100
AcDbPoint
 10
349.0
 20
-10.0
 30
0.0
  0
POINT
  5
34E
330
342
100
AcDbEntity
  8
Defpoints
 62
     0
100
AcDbPoint
 10
372.0
 20
-10.0
 30
0.0
  0
ENDBLK
  5
344
330
342
100
AcDbEntity
  8
0
100
AcDbBlockEnd
  0
BLOCK
  5
350
330
34F
100
AcDbEntity
  8
0
100
AcDbBlockBegin
  2
*D11
 70
     1
 10
0.0
 20
0.0
 30
0.0
  3
*D11
  1
*D11
  0
LINE
  5
352
330
34F
100
AcDbEntity
  8
8.Cotations
 62
     0
370
    -2
100
AcDbLine
 10
313.3875
 20
11.0
 30
0.0
 11
305.82
 21
11.0
 31
0.0
  0
LINE
  5
353
330
34F
100
AcDbEntity
  8
8.Cotations
 62
     0
370
    -2
100
AcDbLine
 10
313.3875
 20
-10.99999999999984
 30
0.0
 11
305.82
 21
-10.99999999999984
 31
0.0
  0
LINE
  5
354
330
34F
100
AcDbEntity
  8
8.Cotations
 62
     0
370
    -2
100
AcDbLine
 10
306.0
 20
10.82
 30
0.0
 11
306.0
 21
0.1800000000000779
 31
0.0
  0
LINE
  5
355
330
34F
100
AcDbEntity
  8
8.Cotations
 62
     0
370
    -2
100
AcDbLine
 10
306.0
 20
-10.81999999999984
 30
0.0
 11
306.0
 21
-0.1799999999999198
 31
0.0
  0
SOLID
  5
356
330
34F
100
AcDbEntity
  8
8.Cotations
 62
     0
100
AcDbTrace
 10
306.03
 20
10.82
 30
0.0
 11
305.97
 21
10.82
 31
0.0
 12
306.0
 22
11.0
 32
0.0
 13
306.0
 23
11.0
 33
0.0
  0
SOLID
  5
357
330
34F
100
AcDbEntity
  8
8.Cotations
 62
     0
100
AcDbTrace
 10
305.97
 20
-10.81999999999984
 30
0.0
 11
306.03
 21
-10.81999999999984
 31
0.0
 12
306.0
 22
-10.99999999999984
 32
0.0
 13
306.0
 23
-10.99999999999984
 33
0.0
  0
MTEXT
  5
358
330
34F
100
AcDbEntity
  8
8.Cotations
 62
     0
100
AcDbMText
 10
306.0
 20
0.0000000000000782
 30
0.0
 40
0.18
 41
0.0
 46
0.0
 71
     5
 72
     1
  1
\A1;22.0000
 73
     1
 44
1.0
  0
POINT
  5
359
330
34F
100
AcDbEntity
  8
Defpoints
 62
     0
100
AcDbPoint
 10
313.45
 20
11.0
 30
0.0
  0
POINT
  5
35A
330
34F
100
AcDbEntity
  8
Defpoints
 62
     0
100
AcDbPoint
 10
313.45
 20
-10.99999999999984
 30
0.0
  0
POINT
  5
35B
330
34F
100
AcDbEntity
  8
Defpoints
 62
     0
100
AcDbPoint
 10
306.0
 20
-10.99999999999984
 30
0.0
  0
ENDBLK
  5
351
330
34F
100
AcDbEntity
  8
0
100
AcDbBlockEnd
  0
BLOCK
  5
35D
330
35C
100
AcDbEntity
  8
0
100
AcDbBlockBegin
  2
*D12
 70
     1
 10
0.0
 20
0.0
 30
0.0
  3
*D12
  1
*D12
  0
LINE
  5
35F
330
35C
100
AcDbEntity
  8
8.Cotations
 62
     0
370
    -2
100
AcDbLine
 10
100.4
 20
-14.06250000000007
 30
0.0
 11
100.4
 21
-59.30197027204472
 31
0.0
  0
LINE
  5
360
330
35C
100
AcDbEntity
  8
8.Cotations
 62
     0
370
    -2
100
AcDbLine
 10
117.4
 20
-0.0625
 30
0.0
 11
117.4
 21
-59.30197027204472
 31
0.0
  0
LINE
  5
361
330
35C
100
AcDbEntity
  8
8.Cotations
 62
     0
370
    -2
100
AcDbLine
 10
100.58
 20
-59.12197027204472
 30
0.0
 11
108.2914285714286
 21
-59.12197027204472
 31
0.0
  0
LINE
  5
362
330
35C
100
AcDbEntity
  8
8.Cotations
 62
     0
370
    -2
100
AcDbLine
 10
117.22
 20
-59.12197027204472
 30
0.0
 11
109.5085714285714
 21
-59.12197027204472
 31
0.0
  0
SOLID
  5
363
330
35C
100
AcDbEntity
  8
8.Cotations
 62
     0
100
AcDbTrace
 10
100.58
 20
-59.09197027204472
 30
0.0
 11
100.58
 21
-59.15197027204472
 31
0.0
 12
100.4
 22
-59.12197027204472
 32
0.0
 13
100.4
 23
-59.12197027204472
 33
0.0
  0
SOLID
  5
364
330
35C
100
AcDbEntity
  8
8.Cotations
 62
     0
100
AcDbTrace
 10
117.22
 20
-59.15197027204472
 30
0.0
 11
117.22
 21
-59.09197027204472
 31
0.0
 12
117.4
 22
-59.12197027204472
 32
0.0
 13
117.4
 23
-59.12197027204472
 33
0.0
  0
MTEXT
  5
365
330
35C
100
AcDbEntity
  8
8.Cotations
 62
     0
100
AcDbMText
 10
108.9
 20
-59.12197027204472
 30
0.0
 40
0.18
 41
0.0
 46
0.0
 71
     5
 72
     1
  1
\A1;17.0000
 73
     1
 44
1.0
  0
POINT
  5
366
330
35C
100
AcDbEntity
  8
Defpoints
 62
     0
100
AcDbPoint
 10
100.4
 20
-14.00000000000007
 30
0.0
  0
POINT
  5
367
330
35C
100
AcDbEntity
  8
Defpoints
 62
     0
100
AcDbPoint
 10
117.4
 20
0.0
 30
0.0
  0
POINT
  5
368
330
35C
100
AcDbEntity
  8
Defpoints
 62
     0
100
AcDbPoint
 10
117.4
 20
-59.12197027204472
 30
0.0
  0
ENDBLK
  5
35E
330
35C
100
AcDbEntity
  8
0
100
AcDbBlockEnd
  0
BLOCK
  5
36A
330
369
100
AcDbEntity
  8
0
100
AcDbBlockBegin
  2
*D13
 70
     1
 10
0.0
 20
0.0
 30
0.0
  3
*D13
  1
*D13
  0
LINE
  5
36C
330
369
100
AcDbEntity
  8
8.Cotations
 62
     0
370
    -2
100
AcDbLine
 10
100.4
 20
-69.9375
 30
0.0
 11
100.4
 21
-52.17801547893301
 31
0.0
  0
LINE
  5
36D
330
369
100
AcDbEntity
  8
8.Cotations
 62
     0
370
    -2
100
AcDbLine
 10
171.4
 20
-77.93749999999999
 30
0.0
 11
171.4
 21
-52.17801547893301
 31
0.0
  0
LINE
  5
36E
330
369
100
AcDbEntity
  8
8.Cotations
 62
     0
370
    -2
100
AcDbLine
 10
100.58
 20
-52.35801547893301
 30
0.0
 11
135.2785714285715
 21
-52.35801547893301
 31
0.0
  0
LINE
  5
36F
330
369
100
AcDbEntity
  8
8.Cotations
 62
     0
370
    -2
100
AcDbLine
 10
171.22
 20
-52.35801547893301
 30
0.0
 11
136.5214285714286
 21
-52.35801547893301
 31
0.0
  0
SOLID
  5
370
330
369
100
AcDbEntity
  8
8.Cotations
 62
     0
100
AcDbTrace
 10
100.58
 20
-52.32801547893301
 30
0.0
 11
100.58
 21
-52.38801547893301
 31
0.0
 12
100.4
 22
-52.35801547893301
 32
0.0
 13
100.4
 23
-52.35801547893301
 33
0.0
  0
SOLID
  5
371
330
369
100
AcDbEntity
  8
8.Cotations
 62
     0
100
AcDbTrace
 10
171.22
 20
-52.38801547893301
 30
0.0
 11
171.22
 21
-52.32801547893301
 31
0.0
 12
171.4
 22
-52.35801547893301
 32
0.0
 13
171.4
 23
-52.35801547893301
 33
0.0
  0
MTEXT
  5
372
330
369
100
AcDbEntity
  8
8.Cotations
 62
     0
100
AcDbMText
 10
135.9
 20
-52.35801547893301
 30
0.0
 40
0.18
 41
0.0
 46
0.0
 71
     5
 72
     1
  1
\A1;71.0000
 73
     1
 44
1.0
  0
POINT
  5
373
330
369
100
AcDbEntity
  8
Defpoints
 62
     0
100
AcDbPoint
 10
100.4
 20
-70.0
 30
0.0
  0
POINT
  5
374
330
369
100
AcDbEntity
  8
Defpoints
 62
     0
100
AcDbPoint
 10
171.4
 20
-77.99999999999999
 30
0.0
  0
POINT
  5
375
330
369
100
AcDbEntity
  8
Defpoints
 62
     0
100
AcDbPoint
 10
171.4
 20
-52.35801547893301
 30
0.0
  0
ENDBLK
  5
36B
330
369
100
AcDbEntity
  8
0
100
AcDbBlockEnd
  0
BLOCK
  5
377
330
376
100
AcDbEntity
  8
0
100
AcDbBlockBegin
  2
*D14
 70
     1
 10
0.0
 20
0.0
 30
0.0
  3
*D14
  1
*D14
  0
LINE
  5
379
330
376
100
AcDbEntity
  8
8.Cotations
 62
     0
370
    -2
100
AcDbLine
 10
100.4
 20
-69.9375
 30
0.0
 11
100.4
 21
-45.63225277592169
 31
0.0
  0
LINE
  5
37A
330
376
100
AcDbEntity
  8
8.Cotations
 62
     0
370
    -2
100
AcDbLine
 10
181.4
 20
-69.9375
 30
0.0
 11
181.4
 21
-45.63225277592169
 31
0.0
  0
LINE
  5
37B
330
376
100
AcDbEntity
  8
8.Cotations
 62
     0
370
    -2
100
AcDbLine
 10
100.58
 20
-45.81225277592169
 30
0.0
 11
140.2785714285715
 21
-45.81225277592169
 31
0.0
  0
LINE
  5
37C
330
376
100
AcDbEntity
  8
8.Cotations
 62
     0
370
    -2
100
AcDbLine
 10
181.22
 20
-45.81225277592169
 30
0.0
 11
141.5214285714286
 21
-45.81225277592169
 31
0.0
  0
SOLID
  5
37D
330
376
100
AcDbEntity
  8
8.Cotations
 62
     0
100
AcDbTrace
 10
100.58
 20
-45.78225277592169
 30
0.0
 11
100.58
 21
-45.84225277592169
 31
0.0
 12
100.4
 22
-45.81225277592169
 32
0.0
 13
100.4
 23
-45.81225277592169
 33
0.0
  0
SOLID
  5
37E
330
376
100
AcDbEntity
  8
8.Cotations
 62
     0
100
AcDbTrace
 10
181.22
 20
-45.84225277592169
 30
0.0
 11
181.22
 21
-45.78225277592169
 31
0.0
 12
181.4
 22
-45.81225277592169
 32
0.0
 13
181.4
 23
-45.81225277592169
 33
0.0
  0
MTEXT
  5
37F
330
376
100
AcDbEntity
  8
8.Cotations
 62
     0
100
AcDbMText
 10
140.9
 20
-45.81225277592169
 30
0.0
 40
0.18
 41
0.0
 46
0.0
 71
     5
 72
     1
  1
\A1;81.0000
 73
     1
 44
1.0
  0
POINT
  5
380
330
376
100
AcDbEntity
  8
Defpoints
 62
     0
100
AcDbPoint
 10
100.4
 20
-70.0
 30
0.0
  0
POINT
  5
381
330
376
100
AcDbEntity
  8
Defpoints
 62
     0
100
AcDbPoint
 10
181.4
 20
-70.0
 30
0.0
  0
POINT
  5
382
330
376
100
AcDbEntity
  8
Defpoints
 62
     0
100
AcDbPoint
 10
181.4
 20
-45.81225277592169
 30
0.0
  0
ENDBLK
  5
378
330
376
100
AcDbEntity
  8
0
100
AcDbBlockEnd
  0
BLOCK
  5
384
330
383
100
AcDbEntity
  8
0
100
AcDbBlockBegin
  2
*D15
 70
     1
 10
0.0
 20
0.0
 30
0.0
  3
*D15
  1
*D15
  0
LINE
  5
386
330
383
100
AcDbEntity
  8
8.Cotations
 62
     0
370
    -2
100
AcDbLine
 10
100.4
 20
-69.9375
 30
0.0
 11
100.4
 21
-39.82
 31
0.0
  0
LINE
  5
387
330
383
100
AcDbEntity
  8
8.Cotations
 62
     0
370
    -2
100
AcDbLine
 10
201.4
 20
-69.9375
 30
0.0
 11
201.4
 21
-39.82
 31
0.0
  0
LINE
  5
388
330
383
100
AcDbEntity
  8
8.Cotations
 62
     0
370
    -2
100
AcDbLine
 10
100.58
 20
-40.0
 30
0.0
 11
150.2057142857143
 21
-40.0
 31
0.0
  0
LINE
  5
389
330
383
100
AcDbEntity
  8
8.Cotations
 62
     0
370
    -2
100
AcDbLine
 10
201.22
 20
-40.0
 30
0.0
 11
151.5942857142857
 21
-40.0
 31
0.0
  0
SOLID
  5
38A
330
383
100
AcDbEntity
  8
8.Cotations
 62
     0
100
AcDbTrace
 10
100.58
 20
-39.97
 30
0.0
 11
100.58
 21
-40.03
 31
0.0
 12
100.4
 22
-40.0
 32
0.0
 13
100.4
 23
-40.0
 33
0.0
  0
SOLID
  5
38B
330
383
100
AcDbEntity
  8
8.Cotations
 62
     0
100
AcDbTrace
 10
201.22
 20
-40.03
 30
0.0
 11
201.22
 21
-39.97
 31
0.0
 12
201.4
 22
-40.0
 32
0.0
 13
201.4
 23
-40.0
 33
0.0
  0
MTEXT
  5
38C
330
383
100
AcDbEntity
  8
8.Cotations
 62
     0
100
AcDbMText
 10
150.9
 20
-40.0
 30
0.0
 40
0.18
 41
0.0
 46
0.0
 71
     5
 72
     1
  1
\A1;101.0000
 73
     1
 44
1.0
  0
POINT
  5
38D
330
383
100
AcDbEntity
  8
Defpoints
 62
     0
100
AcDbPoint
 10
100.4
 20
-70.0
 30
0.0
  0
POINT
  5
38E
330
383
100
AcDbEntity
  8
Defpoints
 62
     0
100
AcDbPoint
 10
201.4
 20
-70.0
 30
0.0
  0
POINT
  5
38F
330
383
100
AcDbEntity
  8
Defpoints
 62
     0
100
AcDbPoint
 10
201.4
 20
-40.0
 30
0.0
  0
ENDBLK
  5
385
330
383
100
AcDbEntity
  8
0
100
AcDbBlockEnd
  0
BLOCK
  5
391
330
390
100
AcDbEntity
  8
0
100
AcDbBlockBegin
  2
*D16
 70
     1
 10
0.0
 20
0.0
 30
0.0
  3
*D16
  1
*D16
  0
LINE
  5
393
330
390
100
AcDbEntity
  8
8.Cotations
 62
     0
370
    -2
100
AcDbLine
 10
100.4
 20
-69.9375
 30
0.0
 11
100.4
 21
-32.30990842273267
 31
0.0
  0
LINE
  5
394
330
390
100
AcDbEntity
  8
8.Cotations
 62
     0
370
    -2
100
AcDbLine
 10
222.4000000000001
 20
-69.9375
 30
0.0
 11
222.4000000000001
 21
-32.30990842273267
 31
0.0
  0
LINE
  5
395
330
390
100
AcDbEntity
  8
8.Cotations
 62
     0
370
    -2
100
AcDbLine
 10
100.58
 20
-32.48990842273267
 30
0.0
 11
160.7057142857143
 21
-32.48990842273267
 31
0.0
  0
LINE
  5
396
330
390
100
AcDbEntity
  8
8.Cotations
 62
     0
370
    -2
100
AcDbLine
 10
222.2200000000001
 20
-32.48990842273267
 30
0.0
 11
162.0942857142857
 21
-32.48990842273267
 31
0.0
  0
SOLID
  5
397
330
390
100
AcDbEntity
  8
8.Cotations
 62
     0
100
AcDbTrace
 10
100.58
 20
-32.45990842273267
 30
0.0
 11
100.58
 21
-32.51990842273267
 31
0.0
 12
100.4
 22
-32.48990842273267
 32
0.0
 13
100.4
 23
-32.48990842273267
 33
0.0
  0
SOLID
  5
398
330
390
100
AcDbEntity
  8
8.Cotations
 62
     0
100
AcDbTrace
 10
222.2200000000001
 20
-32.51990842273267
 30
0.0
 11
222.2200000000001
 21
-32.45990842273267
 31
0.0
 12
222.4000000000001
 22
-32.48990842273267
 32
0.0
 13
222.4000000000001
 23
-32.48990842273267
 33
0.0
  0
MTEXT
  5
399
330
390
100
AcDbEntity
  8
8.Cotations
 62
     0
100
AcDbMText
 10
161.4
 20
-32.48990842273267
 30
0.0
 40
0.18
 41
0.0
 46
0.0
 71
     5
 72
     1
  1
\A1;122.0000
 73
     1
 44
1.0
  0
POINT
  5
39A
330
390
100
AcDbEntity
  8
Defpoints
 62
     0
100
AcDbPoint
 10
100.4
 20
-70.0
 30
0.0
  0
POINT
  5
39B
330
390
100
AcDbEntity
  8
Defpoints
 62
     0
100
AcDbPoint
 10
222.4000000000001
 20
-70.0
 30
0.0
  0
POINT
  5
39C
330
390
100
AcDbEntity
  8
Defpoints
 62
     0
100
AcDbPoint
 10
222.4000000000001
 20
-32.48990842273267
 30
0.0
  0
ENDBLK
  5
392
330
390
100
AcDbEntity
  8
0
100
AcDbBlockEnd
  0
BLOCK
  5
39E
330
39D
100
AcDbEntity
  8
0
100
AcDbBlockBegin
  2
*D17
 70
     1
 10
0.0
 20
0.0
 30
0.0
  3
*D17
  1
*D17
  0
LINE
  5
3A0
330
39D
100
AcDbEntity
  8
8.Cotations
 62
     0
370
    -2
100
AcDbLine
 10
100.4
 20
-70.0625
 30
0.0
 11
100.4
 21
-88.15505072847223
 31
0.0
  0
LINE
  5
3A1
330
39D
100
AcDbEntity
  8
8.Cotations
 62
     0
370
    -2
100
AcDbLine
 10
244.4
 20
-70.0625
 30
0.0
 11
244.4
 21
-88.15505072847223
 31
0.0
  0
LINE
  5
3A2
330
39D
100
AcDbEntity
  8
8.Cotations
 62
     0
370
    -2
100
AcDbLine
 10
100.58
 20
-87.97505072847223
 30
0.0
 11
171.7057142857143
 21
-87.97505072847223
 31
0.0
  0
LINE
  5
3A3
330
39D
100
AcDbEntity
  8
8.Cotations
 62
     0
370
    -2
100
AcDbLine
 10
244.22
 20
-87.97505072847223
 30
0.0
 11
173.0942857142857
 21
-87.97505072847223
 31
0.0
  0
SOLID
  5
3A4
330
39D
100
AcDbEntity
  8
8.Cotations
 62
     0
100
AcDbTrace
 10
100.58
 20
-87.94505072847222
 30
0.0
 11
100.58
 21
-88.00505072847223
 31
0.0
 12
100.4
 22
-87.97505072847223
 32
0.0
 13
100.4
 23
-87.97505072847223
 33
0.0
  0
SOLID
  5
3A5
330
39D
100
AcDbEntity
  8
8.Cotations
 62
     0
100
AcDbTrace
 10
244.22
 20
-88.00505072847223
 30
0.0
 11
244.22
 21
-87.94505072847222
 31
0.0
 12
244.4
 22
-87.97505072847223
 32
0.0
 13
244.4
 23
-87.97505072847223
 33
0.0
  0
MTEXT
  5
3A6
330
39D
100
AcDbEntity
  8
8.Cotations
 62
     0
100
AcDbMText
 10
172.4
 20
-87.97505072847223
 30
0.0
 40
0.18
 41
0.0
 46
0.0
 71
     5
 72
     1
  1
\A1;144.0000
 73
     1
 44
1.0
  0
POINT
  5
3A7
330
39D
100
AcDbEntity
  8
Defpoints
 62
     0
100
AcDbPoint
 10
100.4
 20
-70.0
 30
0.0
  0
POINT
  5
3A8
330
39D
100
AcDbEntity
  8
Defpoints
 62
     0
100
AcDbPoint
 10
244.4
 20
-70.0
 30
0.0
  0
POINT
  5
3A9
330
39D
100
AcDbEntity
  8
Defpoints
 62
     0
100
AcDbPoint
 10
244.4
 20
-87.97505072847223
 30
0.0
  0
ENDBLK
  5
39F
330
39D
100
AcDbEntity
  8
0
100
AcDbBlockEnd
  0
BLOCK
  5
3AB
330
3AA
100
AcDbEntity
  8
0
100
AcDbBlockBegin
  2
*D18
 70
     1
 10
0.0
 20
0.0
 30
0.0
  3
*D18
  1
*D18
  0
LINE
  5
3AD
330
3AA
100
AcDbEntity
  8
8.Cotations
 62
     0
370
    -2
100
AcDbLine
 10
100.4
 20
-70.0625
 30
0.0
 11
100.4
 21
-96.27179648020628
 31
0.0
  0
LINE
  5
3AE
330
3AA
100
AcDbEntity
  8
8.Cotations
 62
     0
370
    -2
100
AcDbLine
 10
263.4
 20
-70.0625
 30
0.0
 11
263.4
 21
-96.27179648020628
 31
0.0
  0
LINE
  5
3AF
330
3AA
100
AcDbEntity
  8
8.Cotations
 62
     0
370
    -2
100
AcDbLine
 10
100.58
 20
-96.09179648020627
 30
0.0
 11
181.2057142857143
 21
-96.09179648020627
 31
0.0
  0
LINE
  5
3B0
330
3AA
100
AcDbEntity
  8
8.Cotations
 62
     0
370
    -2
100
AcDbLine
 10
263.22
 20
-96.09179648020627
 30
0.0
 11
182.5942857142857
 21
-96.09179648020627
 31
0.0
  0
SOLID
  5
3B1
330
3AA
100
AcDbEntity
  8
8.Cotations
 62
     0
100
AcDbTrace
 10
100.58
 20
-96.06179648020627
 30
0.0
 11
100.58
 21
-96.12179648020627
 31
0.0
 12
100.4
 22
-96.09179648020627
 32
0.0
 13
100.4
 23
-96.09179648020627
 33
0.0
  0
SOLID
  5
3B2
330
3AA
100
AcDbEntity
  8
8.Cotations
 62
     0
100
AcDbTrace
 10
263.22
 20
-96.12179648020627
 30
0.0
 11
263.22
 21
-96.06179648020627
 31
0.0
 12
263.4
 22
-96.09179648020627
 32
0.0
 13
263.4
 23
-96.09179648020627
 33
0.0
  0
MTEXT
  5
3B3
330
3AA
100
AcDbEntity
  8
8.Cotations
 62
     0
100
AcDbMText
 10
181.9
 20
-96.09179648020627
 30
0.0
 40
0.18
 41
0.0
 46
0.0
 71
     5
 72
     1
  1
\A1;163.0000
 73
     1
 44
1.0
  0
POINT
  5
3B4
330
3AA
100
AcDbEntity
  8
Defpoints
 62
     0
100
AcDbPoint
 10
100.4
 20
-70.0
 30
0.0
  0
POINT
  5
3B5
330
3AA
100
AcDbEntity
  8
Defpoints
 62
     0
100
AcDbPoint
 10
263.4
 20
-70.0
 30
0.0
  0
POINT
  5
3B6
330
3AA
100
AcDbEntity
  8
Defpoints
 62
     0
100
AcDbPoint
 10
263.4
 20
-96.09179648020627
 30
0.0
  0
ENDBLK
  5
3AC
330
3AA
100
AcDbEntity
  8
0
100
AcDbBlockEnd
  0
BLOCK
  5
3B8
330
3B7
100
AcDbEntity
  8
0
100
AcDbBlockBegin
  2
*D19
 70
     1
 10
0.0
 20
0.0
 30
0.0
  3
*D19
  1
*D19
  0
LINE
  5
3BA
330
3B7
100
AcDbEntity
  8
8.Cotations
 62
     0
370
    -2
100
AcDbLine
 10
100.4
 20
-70.0625
 30
0.0
 11
100.4
 21
-105.1740337563017
 31
0.0
  0
LINE
  5
3BB
330
3B7
100
AcDbEntity
  8
8.Cotations
 62
     0
370
    -2
100
AcDbLine
 10
283.4
 20
-70.0625
 30
0.0
 11
283.4
 21
-105.1740337563017
 31
0.0
  0
LINE
  5
3BC
330
3B7
100
AcDbEntity
  8
8.Cotations
 62
     0
370
    -2
100
AcDbLine
 10
100.58
 20
-104.9940337563017
 30
0.0
 11
191.2057142857143
 21
-104.9940337563017
 31
0.0
  0
LINE
  5
3BD
330
3B7
100
AcDbEntity
  8
8.Cotations
 62
     0
370
    -2
100
AcDbLine
 10
283.22
 20
-104.9940337563017
 30
0.0
 11
192.5942857142857
 21
-104.9940337563017
 31
0.0
  0
SOLID
  5
3BE
330
3B7
100
AcDbEntity
  8
8.Cotations
 62
     0
100
AcDbTrace
 10
100.58
 20
-104.9640337563017
 30
0.0
 11
100.58
 21
-105.0240337563017
 31
0.0
 12
100.4
 22
-104.9940337563017
 32
0.0
 13
100.4
 23
-104.9940337563017
 33
0.0
  0
SOLID
  5
3BF
330
3B7
100
AcDbEntity
  8
8.Cotations
 62
     0
100
AcDbTrace
 10
283.22
 20
-105.0240337563017
 30
0.0
 11
283.22
 21
-104.9640337563017
 31
0.0
 12
283.4
 22
-104.9940337563017
 32
0.0
 13
283.4
 23
-104.9940337563017
 33
0.0
  0
MTEXT
  5
3C0
330
3B7
100
AcDbEntity
  8
8.Cotations
 62
     0
100
AcDbMText
 10
191.9
 20
-104.9940337563017
 30
0.0
 40
0.18
 41
0.0
 46
0.0
 71
     5
 72
     1
  1
\A1;183.0000
 73
     1
 44
1.0
  0
POINT
  5
3C1
330
3B7
100
AcDbEntity
  8
Defpoints
 62
     0
100
AcDbPoint
 10
100.4
 20
-70.0
 30
0.0
  0
POINT
  5
3C2
330
3B7
100
AcDbEntity
  8
Defpoints
 62
     0
100
AcDbPoint
 10
283.4
 20
-70.0
 30
0.0
  0
POINT
  5
3C3
330
3B7
100
AcDbEntity
  8
Defpoints
 62
     0
100
AcDbPoint
 10
283.4
 20
-104.9940337563017
 30
0.0
  0
ENDBLK
  5
3B9
330
3B7
100
AcDbEntity
  8
0
100
AcDbBlockEnd
  0
BLOCK
  5
3C5
330
3C4
100
AcDbEntity
  8
0
100
AcDbBlockBegin
  2
*D20
 70
     1
 10
0.0
 20
0.0
 30
0.0
  3
*D20
  1
*D20
  0
LINE
  5
3C7
330
3C4
100
AcDbEntity
  8
8.Cotations
 62
     0
370
    -2
100
AcDbLine
 10
100.4
 20
-70.0625
 30
0.0
 11
100.4
 21
-114.0762710323971
 31
0.0
  0
LINE
  5
3C8
330
3C4
100
AcDbEntity
  8
8.Cotations
 62
     0
370
    -2
100
AcDbLine
 10
316.7
 20
-70.0625
 30
0.0
 11
316.7
 21
-114.0762710323971
 31
0.0
  0
LINE
  5
3C9
330
3C4
100
AcDbEntity
  8
8.Cotations
 62
     0
370
    -2
100
AcDbLine
 10
100.58
 20
-113.8962710323971
 30
0.0
 11
207.8428571428572
 21
-113.8962710323971
 31
0.0
  0
LINE
  5
3CA
330
3C4
100
AcDbEntity
  8
8.Cotations
 62
     0
370
    -2
100
AcDbLine
 10
316.52
 20
-113.8962710323971
 30
0.0
 11
209.2571428571429
 21
-113.8962710323971
 31
0.0
  0
SOLID
  5
3CB
330
3C4
100
AcDbEntity
  8
8.Cotations
 62
     0
100
AcDbTrace
 10
100.58
 20
-113.8662710323971
 30
0.0
 11
100.58
 21
-113.9262710323971
 31
0.0
 12
100.4
 22
-113.8962710323971
 32
0.0
 13
100.4
 23
-113.8962710323971
 33
0.0
  0
SOLID
  5
3CC
330
3C4
100
AcDbEntity
  8
8.Cotations
 62
     0
100
AcDbTrace
 10
316.52
 20
-113.9262710323971
 30
0.0
 11
316.52
 21
-113.8662710323971
 31
0.0
 12
316.7
 22
-113.8962710323971
 32
0.0
 13
316.7
 23
-113.8962710323971
 33
0.0
  0
MTEXT
  5
3CD
330
3C4
100
AcDbEntity
  8
8.Cotations
 62
     0
100
AcDbMText
 10
208.55
 20
-113.8962710323971
 30
0.0
 40
0.18
 41
0.0
 46
0.0
 71
     5
 72
     1
  1
\A1;216.3000
 73
     1
 44
1.0
  0
POINT
  5
3CE
330
3C4
100
AcDbEntity
  8
Defpoints
 62
     0
100
AcDbPoint
 10
100.4
 20
-70.0
 30
0.0
  0
POINT
  5
3CF
330
3C4
100
AcDbEntity
  8
Defpoints
 62
     0
100
AcDbPoint
 10
316.7
 20
-70.0
 30
0.0
  0
POINT
  5
3D0
330
3C4
100
AcDbEntity
  8
Defpoints
 62
     0
100
AcDbPoint
 10
316.7
 20
-113.8962710323971
 30
0.0
  0
ENDBLK
  5
3C6
330
3C4
100
AcDbEntity
  8
0
100
AcDbBlockEnd
  0
BLOCK
  5
3D2
330
3D1
100
AcDbEntity
  8
0
100
AcDbBlockBegin
  2
*D21
 70
     1
 10
0.0
 20
0.0
 30
0.0
  3
*D21
  1
*D21
  0
LINE
  5
3D4
330
3D1
100
AcDbEntity
  8
8.Cotations
 62
     0
370
    -2
100
AcDbLine
 10
100.4
 20
14.06250000000005
 30
0.0
 11
100.4
 21
27.82289058129223
 31
0.0
  0
LINE
  5
3D5
330
3D1
100
AcDbEntity
  8
8.Cotations
 62
     0
370
    -2
100
AcDbLine
 10
348.5249999999999
 20
8.0625
 30
0.0
 11
348.5249999999999
 21
27.82289058129223
 31
0.0
  0
LINE
  5
3D6
330
3D1
100
AcDbEntity
  8
8.Cotations
 62
     0
370
    -2
100
AcDbLine
 10
100.58
 20
27.64289058129224
 30
0.0
 11
224.1410714285714
 21
27.64289058129224
 31
0.0
  0
LINE
  5
3D7
330
3D1
100
AcDbEntity
  8
8.Cotations
 62
     0
370
    -2
100
AcDbLine
 10
348.3449999999999
 20
27.64289058129224
 30
0.0
 11
224.7839285714286
 21
27.64289058129224
 31
0.0
  0
SOLID
  5
3D8
330
3D1
100
AcDbEntity
  8
8.Cotations
 62
     0
100
AcDbTrace
 10
100.58
 20
27.67289058129224
 30
0.0
 11
100.58
 21
27.61289058129223
 31
0.0
 12
100.4
 22
27.64289058129224
 32
0.0
 13
100.4
 23
27.64289058129224
 33
0.0
  0
SOLID
  5
3D9
330
3D1
100
AcDbEntity
  8
8.Cotations
 62
     0
100
AcDbTrace
 10
348.3449999999999
 20
27.61289058129223
 30
0.0
 11
348.3449999999999
 21
27.67289058129224
 31
0.0
 12
348.5249999999999
 22
27.64289058129224
 32
0.0
 13
348.5249999999999
 23
27.64289058129224
 33
0.0
  0
MTEXT
  5
3DA
330
3D1
100
AcDbEntity
  8
8.Cotations
 62
     0
100
AcDbMText
 10
224.4625
 20
27.64289058129224
 30
0.0
 40
0.18
 41
0.0
 46
0.0
 71
     5
 72
     1
  1
\A1;248
 73
     1
 44
1.0
  0
POINT
  5
3DB
330
3D1
100
AcDbEntity
  8
Defpoints
 62
     0
100
AcDbPoint
 10
100.4
 20
14.00000000000005
 30
0.0
  0
POINT
  5
3DC
330
3D1
100
AcDbEntity
  8
Defpoints
 62
     0
100
AcDbPoint
 10
348.5249999999999
 20
8.0
 30
0.0
  0
POINT
  5
3DD
330
3D1
100
AcDbEntity
  8
Defpoints
 62
     0
100
AcDbPoint
 10
348.5249999999999
 20
27.64289058129224
 30
0.0
  0
ENDBLK
  5
3D3
330
3D1
100
AcDbEntity
  8
0
100
AcDbBlockEnd
  0
ENDSEC
  0
SECTION
  2
ENTITIES
  0
LINE
  5
24
330
246
100
AcDbEntity
  8
3.Axes
100
AcDbLine
 10
29.16242248053121
 20
0.0
 30
0.0
 11
400.7162911332151
 21
0.0
 31
0.0
  0
LINE
  5
31
330
246
100
AcDbEntity
  8
6.Epure
100
AcDbLine
 10
117.4
 20
-78.0
 30
0.0
 11
117.4
 21
-62.0
 31
0.0
  0
LINE
  5
32
330
246
100
AcDbEntity
  8
6.Epure
100
AcDbLine
 10
100.4
 20
-78.0
 30
0.0
 11
100.4
 21
-62.0
 31
0.0
  0
CIRCLE
  5
47
330
246
100
AcDbEntity
  8
6.Epure
100
AcDbCircle
 10
181.4
 20
-70.0
 30
0.0
 40
4.0
  0
CIRCLE
  5
48
330
246
100
AcDbEntity
  8
6.Epure
100
AcDbCircle
 10
201.4
 20
-70.0
 30
0.0
 40
4.0
  0
CIRCLE
  5
49
330
246
100
AcDbEntity
  8
6.Epure
100
AcDbCircle
 10
222.4
 20
-70.0
 30
0.0
 40
4.0
  0
CIRCLE
  5
4A
330
246
100
AcDbEntity
  8
6.Epure
100
AcDbCircle
 10
244.4
 20
-70.0
 30
0.0
 40
3.15
  0
CIRCLE
  5
4B
330
246
100
AcDbEntity
  8
6.Epure
100
AcDbCircle
 10
263.4
 20
-70.0
 30
0.0
 40
4.9
  0
CIRCLE
  5
4C
330
246
100
AcDbEntity
  8
6.Epure
100
AcDbCircle
 10
283.4
 20
-70.0
 30
0.0
 40
4.0
  0
CIRCLE
  5
4E
330
246
100
AcDbEntity
  8
6.Epure
100
AcDbCircle
 10
316.7
 20
-70.0
 30
0.0
 40
3.25
  0
LINE
  5
5A
330
246
100
AcDbEntity
  8
3.Axes
100
AcDbLine
 10
171.4
 20
-70.0
 30
0.0
 11
171.4
 21
20.0
 31
0.0
  0
LINE
  5
5B
330
246
100
AcDbEntity
  8
3.Axes
100
AcDbLine
 10
181.4
 20
-70.0
 30
0.0
 11
181.4
 21
20.0
 31
0.0
  0
LINE
  5
5D
330
246
100
AcDbEntity
  8
3.Axes
100
AcDbLine
 10
201.4
 20
-70.0
 30
0.0
 11
201.4
 21
20.0
 31
0.0
  0
LINE
  5
5E
330
246
100
AcDbEntity
  8
3.Axes
100
AcDbLine
 10
222.4
 20
-70.0
 30
0.0
 11
222.4
 21
20.0
 31
0.0
  0
LINE
  5
68
330
246
100
AcDbEntity
  8
Bec
100
AcDbLine
 10
117.4
 20
0.0
 30
0.0
 11
117.4
 21
8.0
 31
0.0
  0
LINE
  5
69
330
246
100
AcDbEntity
  8
Bec
100
AcDbLine
 10
117.4
 20
11.5
 30
0.0
 11
100.4
 21
11.5
 31
0.0
  0
LINE
  5
6A
330
246
100
AcDbEntity
  8
Bec
100
AcDbLine
 10
100.4
 20
11.5
 30
0.0
 11
100.4
 21
14.0
 31
0.0
  0
LINE
  5
6F
330
246
100
AcDbEntity
  8
Bec
100
AcDbLine
 10
100.4
 20
-11.49999999999999
 30
0.0
 11
100.4
 21
-14.0
 31
0.0
  0
LINE
  5
70
330
246
100
AcDbEntity
  8
Bec
100
AcDbLine
 10
58.40000000000001
 20
10.00000000000001
 30
0.0
 11
100.4
 21
14.00000000000002
 31
0.0
  0
ARC
  5
71
330
246
100
AcDbEntity
  8
Bec
100
AcDbCircle
 10
58.46653937319905
 20
139.9767455589902
 30
0.0
 40
150.0
100
AcDbArc
 50
258.9341846778773
 51
266.5177575170172
  0
LINE
  5
73
330
246
100
AcDbEntity
  8
Bec
100
AcDbLine
 10
29.67607058823529
 20
-7.234357647058826
 30
0.0
 11
41.73333333333334
 21
0.0000000000000036
 31
0.0
  0
LINE
  5
76
330
246
100
AcDbEntity
  8
Bec
 62
     6
420
 16711935
100
AcDbLine
 10
94.2131117508964
 20
-15.99309151648976
 30
0.0
 11
94.42072545053075
 21
-13.50172712087757
 31
0.0
  0
LINE
  5
77
330
246
100
AcDbEntity
  8
Bec
 62
     6
420
 16711935
100
AcDbLine
 10
94.42072545053075
 20
-13.50172712087757
 30
0.0
 11
59.63904881793667
 21
-10.60325406816137
 31
0.0
  0
LINE
  5
78
330
246
100
AcDbEntity
  8
Bec
 62
     6
420
 16711935
100
AcDbLine
 10
94.2131117508964
 20
-15.99309151648976
 30
0.0
 11
58.33746445408073
 21
-13.0034542417552
 31
0.0
  0
ARC
  5
79
330
246
100
AcDbEntity
  8
Bec
 62
     6
420
 16711935
100
AcDbCircle
 10
18.8478685063145
 20
-157.7120297025141
 30
0.0
 40
150.0
100
AcDbArc
 50
74.7361767255245
 51
85.95657497134995
  0
LINE
  5
9A
330
246
100
AcDbEntity
  8
Bec
100
AcDbLine
 10
117.4
 20
8.0
 30
0.0
 11
66.1234074261368
 21
8.0
 31
0.0
  0
LINE
  5
9B
330
246
100
AcDbEntity
  8
Bec
100
AcDbLine
 10
62.99999999999999
 20
-0.5690527340823905
 30
0.0
 11
62.99999999999999
 21
-11.0
 31
0.0
  0
LINE
  5
9C
330
246
100
AcDbEntity
  8
Bec
100
AcDbLine
 10
100.4
 20
-14.0
 30
0.0
 11
100.4
 21
0.0
 31
0.0
  0
LINE
  5
15A
330
246
100
AcDbEntity
  8
Bec
 62
     6
420
 16711935
100
AcDbLine
 10
59.63904881793667
 20
-10.60325406816137
 30
0.0
 11
29.42474607648175
 21
-8.085395506373477
 31
0.0
  0
LINE
  5
15B
330
246
100
AcDbEntity
  8
Bec
100
AcDbLine
 10
59.63904881793667
 20
-10.60325406816137
 30
0.0
 11
42.67000390390033
 21
-9.189166991991701
 31
0.0
  0
LINE
  5
15C
330
246
100
AcDbEntity
  8
Bec
100
AcDbLine
 10
117.4
 20
8.0
 30
0.0
 11
117.4
 21
11.5
 31
0.0
  0
MTEXT
  5
15E
330
246
100
AcDbEntity
  8
9.Text
100
AcDbMText
 10
52.0
 20
32.0
 30
0.0
 40
1.0
 41
0.0
 46
0.0
 71
     5
 72
     1
  1
\H4;Bec standard de clarinette\PSi b (Yamaha)
  7
textstyle0
 73
     1
 44
1.0
  0
LINE
  5
165
330
246
100
AcDbEntity
  8
3.Axes
100
AcDbLine
 10
0.0
 20
-70.0
 30
0.0
 11
398.0016324250222
 21
-70.0
 31
0.0
  0
MTEXT
  5
18D
330
246
100
AcDbEntity
  8
9.Text
100
AcDbMText
 10
184.2778623999998
 20
134.3400243199999
 30
0.0
 40
1.0
 41
0.0
 46
0.0
 71
     5
 72
     1
  1
\c0;\H10;Chalumeau RE maj
  7
textstyle1
 73
     1
 44
1.0
  0
MTEXT
  5
18E
330
246
100
AcDbEntity
  8
9.Text
100
AcDbMText
 10
180.0
 20
100.0
 30
0.0
 40
1.0
 41
0.0
 46
0.0
 71
     5
 72
     1
  1
\c0;\H6;Auteur : Cristophe Mineau\P\fArial|b0|i1|c0|p0;www.labellenote.fr\P\fArial|b0|i0|c0|p0;Licence : Creative Commons \fArial|b0|i1|c0|p0;Creative Commons BY-NC-SA\P
  7
textstyle2
 73
     1
 44
1.0
  0
LINE
  5
192
330
246
100
AcDbEntity
  8
Bec
100
AcDbLine
 10
59.63904881793667
 20
-10.60325406816137
 30
0.0
 11
100.4
 21
-13.99999999999999
 31
0.0
  0
LINE
  5
193
330
246
100
AcDbEntity
  8
Bec
100
AcDbLine
 10
57.41537716234807
 20
6.004727404905061
 30
0.0
 11
45.0
 21
0.0
 31
0.0
  0
ARC
  5
194
330
246
100
AcDbEntity
  8
Bec
100
AcDbCircle
 10
66.12340742613681
 20
-12.0
 30
0.0
 40
20.0
100
AcDbArc
 50
90.00000000000004
 51
115.8108455356197
  0
LINE
  5
195
330
246
100
AcDbEntity
  8
3.Axes
100
AcDbLine
 10
41.73333333333333
 20
0.0
 30
0.0
 11
45.0
 21
0.0
 31
0.0
  0
LINE
  5
197
330
246
100
AcDbEntity
  8
Bec
100
AcDbLine
 10
41.73333333333334
 20
0.0000000000000036
 30
0.0
 11
58.40000000000001
 21
10.00000000000001
 31
0.0
  0
HATCH
  5
198
330
246
100
AcDbEntity
  8
7.Hachures
100
AcDbHatch
 10
0.0
 20
0.0
 30
0.0
210
0.0
220
0.0
230
1.0
  2
ANSI31
 70
     0
 71
     0
 91
        1
 92
        0
 93
        9
 72
     1
 10
117.4
 20
8.0
 11
66.1234074261368
 21
8.0
 72
     2
 10
66.12340742613681
 20
-12.0
 40
20.0
 50
90.00000000000004
 51
115.8108455356197
 73
     1
 72
     1
 10
57.41537716234805
 20
6.004727404905051
 11
45.0
 21
0.0
 72
     1
 10
45.0
 20
0.0
 11
41.73333333333333
 21
0.0
 72
     1
 10
41.73333333333333
 20
0.0
 11
58.40000000000001
 21
10.00000000000001
 72
     1
 10
58.40000000000001
 20
10.00000000000001
 11
100.4
 21
14.00000000000002
 72
     1
 10
100.4
 20
14.00000000000002
 11
100.4
 21
11.5
 72
     1
 10
100.4
 20
11.5
 11
117.4
 21
11.5
 72
     1
 10
117.4
 20
11.5
 11
117.4
 21
8.0
 97
        0
 75
     0
 76
     1
 52
0.0
 41
0.2
 77
     0
 78
     1
 53
45.0
 43
0.0
 44
0.0
 45
-0.4490128060534576
 46
0.4490128060534577
 79
     0
 98
        0
1001
ACAD
1010
0.0
1020
0.0
1030
0.0
  0
LINE
  5
199
330
246
100
AcDbEntity
  8
Bec
100
AcDbLine
 10
89.96374271715308
 20
-13.13031189309608
 30
0.0
 11
89.96374271715308
 21
-0.5834367709192625
 31
0.0
  0
CIRCLE
  5
19A
330
246
100
AcDbEntity
  8
6.Epure
100
AcDbCircle
 10
171.4
 20
-70.0
 30
0.0
 40
3.0
  0
LINE
  5
19B
330
246
100
AcDbEntity
  8
3.Axes
100
AcDbLine
 10
244.4
 20
-70.0
 30
0.0
 11
244.4
 21
20.0
 31
0.0
  0
LINE
  5
19C
330
246
100
AcDbEntity
  8
3.Axes
100
AcDbLine
 10
263.4
 20
-70.0
 30
0.0
 11
263.4
 21
20.0
 31
0.0
  0
LINE
  5
19D
330
246
100
AcDbEntity
  8
3.Axes
100
AcDbLine
 10
283.4
 20
-70.0
 30
0.0
 11
283.4
 21
20.0
 31
0.0
  0
LINE
  5
19E
330
246
100
AcDbEntity
  8
3.Axes
100
AcDbLine
 10
316.7
 20
-70.0
 30
0.0
 11
316.7
 21
20.0
 31
0.0
  0
LINE
  5
1A4
330
246
100
AcDbEntity
  8
1.Contours
100
AcDbLine
 10
117.4
 20
8.0
 30
0.0
 11
177.4000000000007
 21
8.0
 31
0.0
  0
POINT
  5
1A7
330
246
100
AcDbEntity
  8
6.Epure
100
AcDbPoint
 10
345.3999999999999
 20
16.0
 30
0.0
  0
POINT
  5
1A8
330
246
100
AcDbEntity
  8
6.Epure
100
AcDbPoint
 10
345.3999999999999
 20
-16.0
 30
0.0
  0
LINE
  5
1A9
330
246
100
AcDbEntity
  8
1.Contours
100
AcDbLine
 10
330.3999999999999
 20
10.0
 30
0.0
 11
348.3999999999999
 21
10.0
 31
0.0
  0
POINT
  5
1AB
330
246
100
AcDbEntity
  8
6.Epure
100
AcDbPoint
 10
330.3999999999999
 20
12.0
 30
0.0
  0
POINT
  5
1AC
330
246
100
AcDbEntity
  8
6.Epure
100
AcDbPoint
 10
330.3999999999999
 20
-12.0
 30
0.0
  0
ARC
  5
1AD
330
246
100
AcDbEntity
  8
1.Contours
100
AcDbCircle
 10
317.652271053123
 20
89.92898355078424
 30
0.0
 40
78.9647457449299
100
AcDbArc
 50
279.290239163519
 51
290.5725951927577
  0
ARC
  5
1AF
330
246
100
AcDbEntity
  8
1.Contours
100
AcDbCircle
 10
324.8967999999986
 20
1.998399999999499
 30
0.0
 40
24.82792808109594
100
AcDbArc
 50
18.80100069810357
 51
34.32910165605242
  0
ARC
  5
1B2
330
246
100
AcDbEntity
  8
1.Contours
100
AcDbCircle
 10
317.652271053123
 20
-89.92898355078424
 30
0.0
 40
78.9647457449299
100
AcDbArc
 50
69.42740480724233
 51
88.2755544743865
  0
LINE
  5
1B3
330
246
100
AcDbEntity
  8
1.Contours
100
AcDbLine
 10
330.3999999999999
 20
10.0
 30
0.0
 11
330.3999999999999
 21
12.00000000000012
 31
0.0
  0
ARC
  5
1B6
330
246
100
AcDbEntity
  8
1.Contours
100
AcDbCircle
 10
347.8999999999999
 20
8.5
 30
0.0
 40
0.5
100
AcDbArc
 50
270.0
 51
0.0
  0
LINE
  5
1B7
330
246
100
AcDbEntity
  8
1.Contours
100
AcDbLine
 10
348.4
 20
9.999999999999773
 30
0.0
 11
348.3999999999999
 21
8.499999999999986
 31
0.0
  0
LINE
  5
1B8
330
246
100
AcDbEntity
  8
1.Contours
100
AcDbLine
 10
348.4
 20
8.5
 30
0.0
 11
348.3999999999999
 21
-8.0
 31
0.0
  0
ARC
  5
1B9
330
246
100
AcDbEntity
  8
1.Contours
100
AcDbCircle
 10
324.8967999999986
 20
-1.998399999999499
 30
0.0
 40
24.82792808109594
100
AcDbArc
 50
325.6708983439476
 51
341.1989993018964
  0
ARC
  5
1C2
330
246
100
AcDbEntity
  8
1.Contours
100
AcDbCircle
 10
115.763583815029
 20
-94.54624277456367
 30
0.0
 40
109.6281283618212
100
AcDbArc
 50
77.23192575376956
 51
98.05610477091918
  0
LINE
  5
1C6
330
246
100
AcDbEntity
  8
1.Contours
100
AcDbLine
 10
198.6516174790104
 20
11.0
 30
0.0
 11
205.3999999999994
 21
11.0
 31
0.0
  0
POINT
  5
1C7
330
246
100
AcDbEntity
  8
6.Epure
100
AcDbPoint
 10
160.4
 20
14.0
 30
0.0
  0
ARC
  5
1C9
330
246
100
AcDbEntity
  8
1.Contours
100
AcDbCircle
 10
162.2860662446084
 20
14.66539771636896
 30
0.0
 40
2.0
100
AcDbArc
 50
199.4326673053098
 51
271.086584997575
  0
ARC
  5
1CA
330
246
100
AcDbEntity
  8
1.Contours
100
AcDbCircle
 10
148.5867950859279
 20
59.10806156117791
 30
0.0
 40
47.52070422197331
100
AcDbArc
 50
259.5798479967248
 51
282.5950537660273
  0
ARC
  5
1CB
330
246
100
AcDbEntity
  8
1.Contours
100
AcDbCircle
 10
192.5236220894418
 20
274.3156674426128
 30
0.0
 40
263.3869644614995
100
AcDbArc
 50
263.4160553520124
 51
266.7082783181403
  0
ARC
  5
1CC
330
246
100
AcDbEntity
  8
1.Contours
100
AcDbCircle
 10
158.5207861361424
 20
14.6845109596533
 30
0.0
 40
2.0
100
AcDbArc
 50
282.3664208782086
 51
339.9856501980417
  0
ARC
  5
1CD
330
246
100
AcDbEntity
  8
1.Contours
100
AcDbCircle
 10
115.763583815029
 20
94.54624277456365
 30
0.0
 40
109.6281283618212
100
AcDbArc
 50
261.9438952290808
 51
282.7680742462304
  0
LINE
  5
1CE
330
246
100
AcDbEntity
  8
1.Contours
100
AcDbLine
 10
198.6516174790104
 20
-10.99999999999996
 30
0.0
 11
320.02853412809
 21
-10.99999999999984
 31
0.0
  0
ARC
  5
1CF
330
246
100
AcDbEntity
  8
1.Contours
100
AcDbCircle
 10
162.2860662446084
 20
-14.66539771636895
 30
0.0
 40
2.0
100
AcDbArc
 50
88.05528994260206
 51
160.5673326946902
  0
ARC
  5
1D0
330
246
100
AcDbEntity
  8
1.Contours
100
AcDbCircle
 10
148.5867950859279
 20
-59.10806156117791
 30
0.0
 40
47.52070422197331
100
AcDbArc
 50
77.40494623397274
 51
100.4201520032753
  0
ARC
  5
1D1
330
246
100
AcDbEntity
  8
1.Contours
100
AcDbCircle
 10
192.5236220894418
 20
-274.3156674426128
 30
0.0
 40
263.3869644614995
100
AcDbArc
 50
88.66682864240408
 51
96.7009682507552
  0
ARC
  5
1D2
330
246
100
AcDbEntity
  8
1.Contours
100
AcDbCircle
 10
158.5207861361424
 20
-14.68451095965329
 30
0.0
 40
2.0
100
AcDbArc
 50
20.0143498019583
 51
77.63357912179143
  0
LINE
  5
1D3
330
246
100
AcDbEntity
  8
1.Contours
100
AcDbLine
 10
160.4
 20
-14.00000000000002
 30
0.0
 11
160.4
 21
0.0
 31
0.0
  0
LINE
  5
1D4
330
246
100
AcDbEntity
  8
1.Contours
100
AcDbLine
 10
330.3999999999999
 20
-10.0
 30
0.0
 11
330.3999999999999
 21
0.0
 31
0.0
  0
LINE
  5
1D5
330
246
100
AcDbEntity
  8
1.Contours
100
AcDbLine
 10
330.3999999999999
 20
-10.0
 30
0.0
 11
330.3999999999999
 21
-12.0
 31
0.0
  0
LINE
  5
1D6
330
246
100
AcDbEntity
  8
1.Contours
100
AcDbLine
 10
345.3999999999997
 20
-16.0000000000003
 30
0.0
 11
345.3999999999997
 21
0.0
 31
0.0
  0
LINE
  5
1D7
330
246
100
AcDbEntity
  8
1.Contours
100
AcDbLine
 10
177.4000000000007
 20
8.0
 30
0.0
 11
177.4000000000007
 21
11.36325900500406
 31
0.0
  0
LINE
  5
1D8
330
246
100
AcDbEntity
  8
1.Contours
100
AcDbLine
 10
185.3999999999994
 20
8.0
 30
0.0
 11
185.3999999999994
 21
11.02505413372547
 31
0.0
  0
LINE
  5
1D9
330
246
100
AcDbEntity
  8
1.Contours
100
AcDbLine
 10
197.4000000000007
 20
8.0
 30
0.0
 11
197.4000000000007
 21
10.97384777335359
 31
0.0
  0
LINE
  5
1DA
330
246
100
AcDbEntity
  8
1.Contours
100
AcDbLine
 10
205.3999999999994
 20
8.0
 30
0.0
 11
205.3999999999994
 21
11.0
 31
0.0
  0
LINE
  5
1DB
330
246
100
AcDbEntity
  8
1.Contours
100
AcDbLine
 10
218.4000000000001
 20
8.0
 30
0.0
 11
218.4000000000001
 21
11.0
 31
0.0
  0
LINE
  5
1DC
330
246
100
AcDbEntity
  8
1.Contours
100
AcDbLine
 10
226.4
 20
8.0
 30
0.0
 11
226.4
 21
11.0
 31
0.0
  0
LINE
  5
1DD
330
246
100
AcDbEntity
  8
1.Contours
100
AcDbLine
 10
241.2499999999984
 20
8.0
 30
0.0
 11
241.2499999999984
 21
11.0
 31
0.0
  0
LINE
  5
1DE
330
246
100
AcDbEntity
  8
1.Contours
100
AcDbLine
 10
247.5500000000017
 20
8.0
 30
0.0
 11
247.5500000000017
 21
11.0
 31
0.0
  0
LINE
  5
1DF
330
246
100
AcDbEntity
  8
1.Contours
100
AcDbLine
 10
258.5000000000001
 20
8.0
 30
0.0
 11
258.5000000000001
 21
11.0
 31
0.0
  0
LINE
  5
1E0
330
246
100
AcDbEntity
  8
1.Contours
100
AcDbLine
 10
268.3000000000001
 20
8.0
 30
0.0
 11
268.3000000000001
 21
11.0
 31
0.0
  0
LINE
  5
1E1
330
246
100
AcDbEntity
  8
1.Contours
100
AcDbLine
 10
279.3999999999974
 20
8.0
 30
0.0
 11
279.3999999999974
 21
11.0
 31
0.0
  0
LINE
  5
1E2
330
246
100
AcDbEntity
  8
1.Contours
100
AcDbLine
 10
287.4000000000027
 20
8.0
 30
0.0
 11
287.4000000000027
 21
11.0
 31
0.0
  0
LINE
  5
1E3
330
246
100
AcDbEntity
  8
1.Contours
100
AcDbLine
 10
313.45
 20
8.0
 30
0.0
 11
313.45
 21
11.0
 31
0.0
  0
LINE
  5
1E4
330
246
100
AcDbEntity
  8
1.Contours
100
AcDbLine
 10
319.95
 20
8.0
 30
0.0
 11
319.95
 21
10.99767472945462
 31
0.0
  0
LINE
  5
1E5
330
246
100
AcDbEntity
  8
1.Contours
100
AcDbLine
 10
319.95
 20
8.0
 30
0.0
 11
347.8999999999999
 21
8.0
 31
0.0
  0
LINE
  5
1E6
330
246
100
AcDbEntity
  8
1.Contours
100
AcDbLine
 10
313.4500000000001
 20
8.0
 30
0.0
 11
319.95
 21
8.0
 31
0.0
  0
LINE
  5
1E7
330
246
100
AcDbEntity
  8
1.Contours
100
AcDbLine
 10
287.4000000000027
 20
8.0
 30
0.0
 11
313.4500000000001
 21
8.0
 31
0.0
  0
LINE
  5
1E8
330
246
100
AcDbEntity
  8
1.Contours
100
AcDbLine
 10
279.3999999999974
 20
8.0
 30
0.0
 11
287.4000000000027
 21
8.0
 31
0.0
  0
LINE
  5
1E9
330
246
100
AcDbEntity
  8
1.Contours
100
AcDbLine
 10
268.3000000000001
 20
8.0
 30
0.0
 11
279.3999999999974
 21
8.0
 31
0.0
  0
LINE
  5
1EA
330
246
100
AcDbEntity
  8
1.Contours
100
AcDbLine
 10
258.5000000000001
 20
8.0
 30
0.0
 11
268.3000000000001
 21
8.0
 31
0.0
  0
LINE
  5
1EB
330
246
100
AcDbEntity
  8
1.Contours
100
AcDbLine
 10
247.5500000000017
 20
8.0
 30
0.0
 11
258.5000000000001
 21
8.0
 31
0.0
  0
LINE
  5
1EC
330
246
100
AcDbEntity
  8
1.Contours
100
AcDbLine
 10
241.2499999999983
 20
8.0
 30
0.0
 11
247.5500000000017
 21
8.0
 31
0.0
  0
LINE
  5
1ED
330
246
100
AcDbEntity
  8
1.Contours
100
AcDbLine
 10
226.4
 20
8.0
 30
0.0
 11
241.2499999999983
 21
8.0
 31
0.0
  0
LINE
  5
1EE
330
246
100
AcDbEntity
  8
1.Contours
100
AcDbLine
 10
218.4
 20
8.0
 30
0.0
 11
226.4
 21
8.0
 31
0.0
  0
LINE
  5
1EF
330
246
100
AcDbEntity
  8
1.Contours
100
AcDbLine
 10
205.3999999999993
 20
8.0
 30
0.0
 11
218.4
 21
8.0
 31
0.0
  0
LINE
  5
1F0
330
246
100
AcDbEntity
  8
1.Contours
100
AcDbLine
 10
197.4000000000007
 20
8.0
 30
0.0
 11
205.3999999999993
 21
8.0
 31
0.0
  0
LINE
  5
1F1
330
246
100
AcDbEntity
  8
1.Contours
100
AcDbLine
 10
185.3999999999994
 20
8.0
 30
0.0
 11
197.4000000000007
 21
8.0
 31
0.0
  0
LINE
  5
1F2
330
246
100
AcDbEntity
  8
1.Contours
100
AcDbLine
 10
177.4000000000007
 20
8.0
 30
0.0
 11
185.3999999999994
 21
8.0
 31
0.0
  0
ARC
  5
1F3
330
246
100
AcDbEntity
  8
1.Contours
100
AcDbCircle
 10
192.5236220894418
 20
274.3156674426128
 30
0.0
 40
263.3869644614995
100
AcDbArc
 50
266.7082783181403
 51
268.4501766882277
  0
ARC
  5
1F4
330
246
100
AcDbEntity
  8
1.Contours
100
AcDbCircle
 10
192.5236220894418
 20
274.3156674426128
 30
0.0
 40
263.3869644614995
100
AcDbArc
 50
268.4501766882277
 51
271.060841557453
  0
ARC
  5
1F5
330
246
100
AcDbEntity
  8
1.Contours
100
AcDbCircle
 10
192.5236220894418
 20
274.3156674426128
 30
0.0
 40
263.3869644614995
100
AcDbArc
 50
271.060841557453
 51
271.3331713575959
  0
LINE
  5
1F6
330
246
100
AcDbEntity
  8
1.Contours
100
AcDbLine
 10
205.3999999999994
 20
11.0
 30
0.0
 11
218.4000000000001
 21
11.0
 31
0.0
  0
LINE
  5
1F7
330
246
100
AcDbEntity
  8
1.Contours
100
AcDbLine
 10
218.4000000000001
 20
11.0
 30
0.0
 11
226.4
 21
11.0
 31
0.0
  0
LINE
  5
1F8
330
246
100
AcDbEntity
  8
1.Contours
100
AcDbLine
 10
226.4
 20
11.0
 30
0.0
 11
241.2499999999983
 21
11.0
 31
0.0
  0
LINE
  5
1F9
330
246
100
AcDbEntity
  8
1.Contours
100
AcDbLine
 10
241.2499999999983
 20
11.0
 30
0.0
 11
247.5500000000017
 21
11.0
 31
0.0
  0
LINE
  5
1FA
330
246
100
AcDbEntity
  8
1.Contours
100
AcDbLine
 10
247.5500000000017
 20
11.0
 30
0.0
 11
258.5000000000001
 21
11.0
 31
0.0
  0
LINE
  5
1FB
330
246
100
AcDbEntity
  8
1.Contours
100
AcDbLine
 10
258.5000000000001
 20
11.0
 30
0.0
 11
268.3000000000001
 21
11.0
 31
0.0
  0
LINE
  5
1FC
330
246
100
AcDbEntity
  8
1.Contours
100
AcDbLine
 10
268.3000000000001
 20
11.0
 30
0.0
 11
279.3999999999974
 21
11.0
 31
0.0
  0
LINE
  5
1FD
330
246
100
AcDbEntity
  8
1.Contours
100
AcDbLine
 10
279.3999999999974
 20
11.0
 30
0.0
 11
287.4000000000027
 21
11.0
 31
0.0
  0
LINE
  5
1FE
330
246
100
AcDbEntity
  8
1.Contours
100
AcDbLine
 10
287.4000000000027
 20
11.0
 30
0.0
 11
313.45
 21
11.0
 31
0.0
  0
LINE
  5
1FF
330
246
100
AcDbEntity
  8
1.Contours
100
AcDbLine
 10
313.45
 20
11.0
 30
0.0
 11
313.45
 21
11.0
 31
0.0
  0
LINE
  5
200
330
246
100
AcDbEntity
  8
1.Contours
100
AcDbLine
 10
313.45
 20
11.0
 30
0.0
 11
320.02853412809
 21
11.0
 31
0.0
  0
ARC
  5
201
330
246
100
AcDbEntity
  8
1.Contours
100
AcDbCircle
 10
317.652271053123
 20
89.92898355078424
 30
0.0
 40
78.9647457449299
100
AcDbArc
 50
271.6674372222776
 51
279.2897561768366
  0
HATCH
  5
202
330
246
100
AcDbEntity
  8
7.Hachures
100
AcDbHatch
 10
0.0
 20
0.0
 30
0.0
210
0.0
220
0.0
230
1.0
  2
ANSI31
 70
     0
 71
     0
 91
        1
 92
        0
 93
        4
 72
     2
 10
317.652271053123
 20
89.92898355078424
 40
78.9647457449299
 50
69.4274048072423
 51
80.70976083648098
 73
     0
 72
     1
 10
330.3999999999999
 20
12.00000000000013
 11
330.3999999999999
 21
10.0
 72
     1
 10
330.3999999999999
 20
10.0
 11
348.3999999999999
 21
10.0
 72
     2
 10
324.8967999999986
 20
1.998399999999499
 40
24.82792808109594
 50
18.80100069810357
 51
34.32910165605242
 73
     1
 97
        0
 75
     0
 76
     1
 52
90.0
 41
0.2
 77
     0
 78
     1
 53
135.0
 43
0.0
 44
0.0
 45
-0.4490128060534577
 46
-0.4490128060534576
 79
     0
 98
        0
1001
ACAD
1010
0.0
1020
0.0
1030
0.0
  0
HATCH
  5
204
330
246
100
AcDbEntity
  8
7.Hachures
100
AcDbHatch
 10
0.0
 20
0.0
 30
0.0
210
0.0
220
0.0
230
1.0
  2
ANSI31
 70
     0
 71
     0
 91
        1
 92
        0
 93
        7
 72
     2
 10
317.652271053123
 20
89.92898355078424
 40
78.9647457449299
 50
80.71024382316337
 51
88.33256277772242
 73
     0
 72
     1
 10
319.95
 20
10.9976747294546
 11
319.95
 21
8.0
 72
     1
 10
319.95
 20
8.0
 11
347.8999999999999
 21
8.0
 72
     2
 10
347.8999999999999
 20
8.5
 40
0.5
 50
270.0
 51
360.0
 73
     1
 72
     1
 10
348.3999999999999
 20
8.5
 11
348.4
 21
9.999999999999773
 72
     1
 10
348.4
 20
9.999999999999773
 11
330.3999999999999
 21
10.0
 72
     1
 10
330.3999999999999
 20
10.0
 11
330.3993430809825
 21
11.99989254313816
 97
        0
 75
     0
 76
     1
 52
0.0
 41
0.5
 77
     0
 78
     1
 53
45.0
 43
0.0
 44
0.0
 45
-1.122532015133644
 46
1.122532015133644
 79
     0
 98
        0
1001
ACAD
1010
0.0
1020
0.0
1030
0.0
  0
HATCH
  5
205
330
246
100
AcDbEntity
  8
7.Hachures
100
AcDbHatch
 10
0.0
 20
0.0
 30
0.0
210
0.0
220
0.0
230
1.0
  2
ANSI31
 70
     0
 71
     0
 91
        2
 92
        0
 93
        4
 72
     1
 10
287.4000000000027
 20
8.0
 11
287.4000000000027
 21
11.0
 72
     1
 10
287.4000000000027
 20
11.0
 11
313.45
 21
11.0
 72
     1
 10
313.45
 20
11.0
 11
313.45
 21
8.0
 72
     1
 10
313.45
 20
8.0
 11
287.4000000000027
 21
8.0
 97
        0
 92
        0
 93
        1
 72
     1
 10
313.45
 20
11.0
 11
313.45
 21
11.0
 97
        0
 75
     0
 76
     1
 52
0.0
 41
0.5
 77
     0
 78
     1
 53
45.0
 43
0.0
 44
0.0
 45
-1.122532015133644
 46
1.122532015133644
 79
     0
 98
        0
1001
ACAD
1010
0.0
1020
0.0
1030
0.0
  0
HATCH
  5
206
330
246
100
AcDbEntity
  8
7.Hachures
100
AcDbHatch
 10
0.0
 20
0.0
 30
0.0
210
0.0
220
0.0
230
1.0
  2
ANSI31
 70
     0
 71
     0
 91
        1
 92
        0
 93
        4
 72
     1
 10
268.3000000000001
 20
8.0
 11
268.3000000000001
 21
11.0
 72
     1
 10
268.3000000000001
 20
11.0
 11
279.3999999999974
 21
11.0
 72
     1
 10
279.3999999999974
 20
11.0
 11
279.3999999999974
 21
8.0
 72
     1
 10
279.3999999999974
 20
8.0
 11
268.3000000000001
 21
8.0
 97
        0
 75
     0
 76
     1
 52
0.0
 41
0.5
 77
     0
 78
     1
 53
45.0
 43
0.0
 44
0.0
 45
-1.122532015133644
 46
1.122532015133644
 79
     0
 98
        0
1001
ACAD
1010
0.0
1020
0.0
1030
0.0
  0
HATCH
  5
207
330
246
100
AcDbEntity
  8
7.Hachures
100
AcDbHatch
 10
0.0
 20
0.0
 30
0.0
210
0.0
220
0.0
230
1.0
  2
ANSI31
 70
     0
 71
     0
 91
        1
 92
        0
 93
        4
 72
     1
 10
247.5500000000017
 20
8.0
 11
247.5500000000017
 21
11.0
 72
     1
 10
247.5500000000017
 20
11.0
 11
258.5000000000001
 21
11.0
 72
     1
 10
258.5000000000001
 20
11.0
 11
258.5000000000001
 21
8.0
 72
     1
 10
258.5000000000001
 20
8.0
 11
247.5500000000017
 21
8.0
 97
        0
 75
     0
 76
     1
 52
0.0
 41
0.5
 77
     0
 78
     1
 53
45.0
 43
0.0
 44
0.0
 45
-1.122532015133644
 46
1.122532015133644
 79
     0
 98
        0
1001
ACAD
1010
0.0
1020
0.0
1030
0.0
  0
HATCH
  5
208
330
246
100
AcDbEntity
  8
7.Hachures
100
AcDbHatch
 10
0.0
 20
0.0
 30
0.0
210
0.0
220
0.0
230
1.0
  2
ANSI31
 70
     0
 71
     0
 91
        1
 92
        0
 93
        4
 72
     1
 10
226.4
 20
11.0
 11
241.2499999999983
 21
11.0
 72
     1
 10
241.2499999999983
 20
11.0
 11
241.2499999999984
 21
8.0
 72
     1
 10
241.2499999999984
 20
8.0
 11
226.4
 21
8.0
 72
     1
 10
226.4
 20
8.0
 11
226.4
 21
11.0
 97
        0
 75
     0
 76
     1
 52
0.0
 41
0.5
 77
     0
 78
     1
 53
45.0
 43
0.0
 44
0.0
 45
-1.122532015133644
 46
1.122532015133644
 79
     0
 98
        0
1001
ACAD
1010
0.0
1020
0.0
1030
0.0
  0
HATCH
  5
209
330
246
100
AcDbEntity
  8
7.Hachures
100
AcDbHatch
 10
0.0
 20
0.0
 30
0.0
210
0.0
220
0.0
230
1.0
  2
ANSI31
 70
     0
 71
     0
 91
        1
 92
        0
 93
        4
 72
     1
 10
205.3999999999993
 20
8.0
 11
218.4
 21
8.0
 72
     1
 10
218.4
 20
8.0
 11
218.4000000000001
 21
11.0
 72
     1
 10
218.4000000000001
 20
11.0
 11
205.3999999999994
 21
11.0
 72
     1
 10
205.3999999999994
 20
11.0
 11
205.3999999999993
 21
8.0
 97
        0
 75
     0
 76
     1
 52
0.0
 41
0.5
 77
     0
 78
     1
 53
45.0
 43
0.0
 44
0.0
 45
-1.122532015133644
 46
1.122532015133644
 79
     0
 98
        0
1001
ACAD
1010
0.0
1020
0.0
1030
0.0
  0
HATCH
  5
20A
330
246
100
AcDbEntity
  8
7.Hachures
100
AcDbHatch
 10
0.0
 20
0.0
 30
0.0
210
0.0
220
0.0
230
1.0
  2
ANSI31
 70
     0
 71
     0
 91
        1
 92
        0
 93
        4
 72
     1
 10
185.3999999999994
 20
8.0
 11
197.4000000000007
 21
8.0
 72
     1
 10
197.4000000000007
 20
8.0
 11
197.4000000000007
 21
10.97384777335359
 72
     2
 10
192.5236220894418
 20
274.3156674426128
 40
263.3869644614995
 50
88.93915844254695
 51
91.54982331177237
 73
     0
 72
     1
 10
185.3999999999992
 20
11.02505413372546
 11
185.3999999999994
 21
8.0
 97
        0
 75
     0
 76
     1
 52
0.0
 41
0.5
 77
     0
 78
     1
 53
45.0
 43
0.0
 44
0.0
 45
-1.122532015133644
 46
1.122532015133644
 79
     0
 98
        0
1001
ACAD
1010
0.0
1020
0.0
1030
0.0
  0
HATCH
  5
20B
330
246
100
AcDbEntity
  8
7.Hachures
100
AcDbHatch
 10
0.0
 20
0.0
 30
0.0
210
0.0
220
0.0
230
1.0
  2
ANSI31
 70
     0
 71
     0
 91
        1
 92
        0
 93
       10
 72
     2
 10
115.763583815029
 20
-94.54624277456367
 40
109.6281283618212
 50
77.23192575376956
 51
98.05610477091918
 73
     1
 72
     1
 10
100.4
 20
14.00000000000004
 11
100.4
 21
11.5
 72
     1
 10
100.4
 20
11.5
 11
117.4
 21
11.5
 72
     1
 10
117.4
 20
11.5
 11
117.4
 21
8.0
 72
     1
 10
117.4
 20
8.0
 11
177.4000000000007
 21
8.0
 72
     1
 10
177.4000000000007
 20
8.0
 11
177.4000000000007
 21
11.36325900500406
 72
     2
 10
192.5236220894418
 20
274.3156674426128
 40
263.3869644614995
 50
93.29172168185976
 51
96.58394464798761
 73
     0
 72
     2
 10
162.2860662446084
 20
14.66539771636896
 40
2.0
 50
88.91341500242497
 51
160.5673326946902
 73
     0
 72
     2
 10
158.5207861361424
 20
14.6845109596533
 40
2.0
 50
20.01434980195829
 51
77.63357912179141
 73
     0
 72
     2
 10
148.5867950859279
 20
59.10806156117791
 40
47.52070422197331
 50
77.40494623397274
 51
100.4201520032753
 73
     0
 97
        0
 75
     0
 76
     1
 52
0.0
 41
0.5
 77
     0
 78
     1
 53
45.0
 43
0.0
 44
0.0
 45
-1.122532015133644
 46
1.122532015133644
 79
     0
 98
        0
1001
ACAD
1010
0.0
1020
0.0
1030
0.0
  0
DIMENSION
  5
20C
330
246
100
AcDbEntity
  8
8.Cotations
100
AcDbDimension
280
     0
  2
*D1
 10
171.4
 20
-72.99999999999999
 30
0.0
 11
167.6397102252464
 21
-77.71786751014854
 31
0.0
 70
   163
 71
     5
 42
5.999999999999972
 73
     0
 74
     0
 75
     0
  3
QCADDimStyle
100
AcDbDiametricDimension
 15
171.4
 25
-67.00000000000001
 35
0.0
 40
0.0
1001
ACAD
1000
DSTYLE
1002
{
1070
    41
1040
0.18
1070
    44
1040
0.18
1070
    42
1040
0.0625
1070
   147
1040
0.09
1070
    77
1070
     0
1070
    73
1070
     1
1070
   340
1005
0
1070
   140
1040
0.18
1002
}
  0
DIMENSION
  5
20D
330
246
100
AcDbEntity
  8
8.Cotations
100
AcDbDimension
280
     0
  2
*D2
 10
181.4
 20
-74.00000000000001
 30
0.0
 11
177.8464196869249
 21
-77.08652465684884
 31
0.0
 70
   163
 71
     5
 42
8.000000000000028
 73
     0
 74
     0
 75
     0
  3
QCADDimStyle
100
AcDbDiametricDimension
 15
181.4
 25
-65.99999999999999
 35
0.0
 40
0.0
1001
ACAD
1000
DSTYLE
1002
{
1070
    41
1040
0.18
1070
    44
1040
0.18
1070
    42
1040
0.0625
1070
   147
1040
0.09
1070
    77
1070
     0
1070
    73
1070
     1
1070
   340
1005
0
1070
   140
1040
0.18
1002
}
  0
DIMENSION
  5
20E
330
246
100
AcDbEntity
  8
8.Cotations
100
AcDbDimension
280
     0
  2
*D3
 10
201.4
 20
-74.0
 30
0.0
 11
200.6028571428572
 21
-77.09666608135807
 31
0.0
 70
   163
 71
     5
 42
8.0
 73
     0
 74
     0
 75
     0
  3
QCADDimStyle
100
AcDbDiametricDimension
 15
201.4
 25
-66.0
 35
0.0
 40
0.0
1001
ACAD
1000
DSTYLE
1002
{
1070
    41
1040
0.18
1070
    44
1040
0.18
1070
    42
1040
0.0625
1070
   147
1040
0.09
1070
    77
1070
     0
1070
    73
1070
     1
1070
   340
1005
0
1070
   140
1040
0.18
1002
}
  0
DIMENSION
  5
20F
330
246
100
AcDbEntity
  8
8.Cotations
100
AcDbDimension
280
     0
  2
*D4
 10
222.4
 20
-74.0
 30
0.0
 11
221.6028571428572
 21
-76.71786036937824
 31
0.0
 70
   163
 71
     5
 42
8.0
 73
     0
 74
     0
 75
     0
  3
QCADDimStyle
100
AcDbDiametricDimension
 15
222.4
 25
-66.0
 35
0.0
 40
0.0
1001
ACAD
1000
DSTYLE
1002
{
1070
    41
1040
0.18
1070
    44
1040
0.18
1070
    42
1040
0.0625
1070
   147
1040
0.09
1070
    77
1070
     0
1070
    73
1070
     1
1070
   340
1005
0
1070
   140
1040
0.18
1002
}
  0
DIMENSION
  5
210
330
246
100
AcDbEntity
  8
8.Cotations
100
AcDbDimension
280
     0
  2
*D5
 10
244.3513375873118
 20
-73.14962409972863
 30
0.0
 11
241.612047870195
 21
-78.45443417233153
 31
0.0
 70
   163
 71
     5
 42
6.299999999999999
 73
     0
 74
     0
 75
     0
  3
QCADDimStyle
100
AcDbDiametricDimension
 15
244.4486624126882
 25
-66.85037590027137
 35
0.0
 40
0.0
1001
ACAD
1000
DSTYLE
1002
{
1070
    41
1040
0.18
1070
    44
1040
0.18
1070
    42
1040
0.0625
1070
   147
1040
0.09
1070
    77
1070
     0
1070
    73
1070
     1
1070
   340
1005
0
1070
   140
1040
0.18
1002
}
  0
DIMENSION
  5
211
330
246
100
AcDbEntity
  8
8.Cotations
100
AcDbDimension
280
     0
  2
*D6
 10
263.4
 20
-74.9
 30
0.0
 11
260.0
 21
-80.0
 31
0.0
 70
   163
 71
     5
 42
9.800000000000011
 73
     0
 74
     0
 75
     0
  3
QCADDimStyle
100
AcDbDiametricDimension
 15
263.4
 25
-65.1
 35
0.0
 40
0.0
1001
ACAD
1000
DSTYLE
1002
{
1070
    41
1040
0.18
1070
    44
1040
0.18
1070
    42
1040
0.0625
1070
   147
1040
0.09
1070
    77
1070
     0
1070
    73
1070
     1
1070
   340
1005
0
1070
   140
1040
0.18
1002
}
  0
DIMENSION
  5
212
330
246
100
AcDbEntity
  8
8.Cotations
100
AcDbDimension
280
     0
  2
*D7
 10
283.4
 20
-74.0
 30
0.0
 11
280.0005554384186
 21
-78.24398655456497
 31
0.0
 70
   163
 71
     5
 42
8.0
 73
     0
 74
     0
 75
     0
  3
QCADDimStyle
100
AcDbDiametricDimension
 15
283.4
 25
-66.0
 35
0.0
 40
0.0
1001
ACAD
1000
DSTYLE
1002
{
1070
    41
1040
0.18
1070
    44
1040
0.18
1070
    42
1040
0.0625
1070
   147
1040
0.09
1070
    77
1070
     0
1070
    73
1070
     1
1070
   340
1005
0
1070
   140
1040
0.18
1002
}
  0
DIMENSION
  5
213
330
246
100
AcDbEntity
  8
8.Cotations
100
AcDbDimension
280
     0
  2
*D8
 10
316.7
 20
-73.25
 30
0.0
 11
312.6199361922366
 21
-78.6648817900981
 31
0.0
 70
   163
 71
     5
 42
6.5
 73
     0
 74
     0
 75
     0
  3
QCADDimStyle
100
AcDbDiametricDimension
 15
316.7
 25
-66.75
 35
0.0
 40
0.0
1001
ACAD
1000
DSTYLE
1002
{
1070
    41
1040
0.18
1070
    44
1040
0.18
1070
    42
1040
0.0625
1070
   147
1040
0.09
1070
    77
1070
     0
1070
    73
1070
     1
1070
   340
1005
0
1070
   140
1040
0.18
1002
}
  0
LINE
  5
214
330
246
100
AcDbEntity
  8
1.Contours
100
AcDbLine
 10
348.3999999999999
 20
-8.0
 30
0.0
 11
348.3999999999999
 21
-10.0
 31
0.0
  0
DIMENSION
  5
215
330
246
100
AcDbEntity
  8
8.Cotations
100
AcDbDimension
280
     0
  2
*D9
 10
361.6533893413758
 20
-8.0
 30
0.0
 11
361.6533893413758
 21
0.0
 31
0.0
 70
    32
 71
     5
 42
16.0
 73
     0
 74
     0
 75
     0
  3
QCADDimStyle
100
AcDbAlignedDimension
 13
347.8999999999999
 23
8.0
 33
0.0
 14
348.3999999999999
 24
-8.0
 34
0.0
 50
90.0
100
AcDbRotatedDimension
1001
ACAD
1000
DSTYLE
1002
{
1070
    41
1040
0.18
1070
    44
1040
0.18
1070
    42
1040
0.0625
1070
   147
1040
0.09
1070
    77
1070
     0
1070
    73
1070
     1
1070
   340
1005
0
1070
   140
1040
0.18
1002
}
  0
DIMENSION
  5
216
330
246
100
AcDbEntity
  8
8.Cotations
100
AcDbDimension
280
     0
  2
*D10
 10
372.0
 20
-10.0
 30
0.0
 11
372.0
 21
-0.0000000000000657
 31
0.0
 70
    32
 71
     5
 42
19.99999999999987
 73
     0
 74
     0
 75
     0
  3
QCADDimStyle
100
AcDbAlignedDimension
 13
348.4
 23
9.999999999999872
 33
0.0
 14
349.0
 24
-10.0
 34
0.0
 50
90.0
100
AcDbRotatedDimension
1001
ACAD
1000
DSTYLE
1002
{
1070
    41
1040
0.18
1070
    44
1040
0.18
1070
    42
1040
0.0625
1070
   147
1040
0.09
1070
    77
1070
     0
1070
    73
1070
     1
1070
   340
1005
0
1070
   140
1040
0.18
1002
}
  0
DIMENSION
  5
217
330
246
100
AcDbEntity
  8
8.Cotations
100
AcDbDimension
280
     0
  2
*D11
 10
306.0
 20
-10.99999999999984
 30
0.0
 11
306.0
 21
0.0000000000000782
 31
0.0
 70
    32
 71
     5
 42
21.99999999999984
 73
     0
 74
     0
 75
     0
  3
QCADDimStyle
100
AcDbAlignedDimension
 13
313.45
 23
11.0
 33
0.0
 14
313.45
 24
-10.99999999999984
 34
0.0
 50
90.0
100
AcDbRotatedDimension
1001
ACAD
1000
DSTYLE
1002
{
1070
    41
1040
0.18
1070
    44
1040
0.18
1070
    42
1040
0.0625
1070
   147
1040
0.09
1070
    77
1070
     0
1070
    73
1070
     1
1070
   340
1005
0
1070
   140
1040
0.18
1002
}
  0
DIMENSION
  5
218
330
246
100
AcDbEntity
  8
8.Cotations
100
AcDbDimension
280
     0
  2
*D12
 10
117.4
 20
-59.12197027204472
 30
0.0
 11
108.9
 21
-59.12197027204472
 31
0.0
 70
    32
 71
     5
 42
17.0
 73
     0
 74
     0
 75
     0
  3
QCADDimStyle
100
AcDbAlignedDimension
 13
100.4
 23
-14.00000000000007
 33
0.0
 14
117.4
 24
0.0
 34
0.0
100
AcDbRotatedDimension
1001
ACAD
1000
DSTYLE
1002
{
1070
    41
1040
0.18
1070
    44
1040
0.18
1070
    42
1040
0.0625
1070
   147
1040
0.09
1070
    77
1070
     0
1070
    73
1070
     1
1070
   340
1005
0
1070
   140
1040
0.18
1002
}
  0
DIMENSION
  5
21A
330
246
100
AcDbEntity
  8
8.Cotations
100
AcDbDimension
280
     0
  2
*D13
 10
171.4
 20
-52.35801547893301
 30
0.0
 11
135.9
 21
-52.35801547893301
 31
0.0
 70
    32
 71
     5
 42
71.00000000000003
 73
     0
 74
     0
 75
     0
  3
QCADDimStyle
100
AcDbAlignedDimension
 13
100.4
 23
-70.0
 33
0.0
 14
171.4
 24
-77.99999999999999
 34
0.0
100
AcDbRotatedDimension
1001
ACAD
1000
DSTYLE
1002
{
1070
    41
1040
0.18
1070
    44
1040
0.18
1070
    42
1040
0.0625
1070
   147
1040
0.09
1070
    77
1070
     0
1070
    73
1070
     1
1070
   340
1005
0
1070
   140
1040
0.18
1002
}
  0
DIMENSION
  5
21B
330
246
100
AcDbEntity
  8
8.Cotations
100
AcDbDimension
280
     0
  2
*D14
 10
181.4
 20
-45.81225277592169
 30
0.0
 11
140.9
 21
-45.81225277592169
 31
0.0
 70
    32
 71
     5
 42
81.00000000000003
 73
     0
 74
     0
 75
     0
  3
QCADDimStyle
100
AcDbAlignedDimension
 13
100.4
 23
-70.0
 33
0.0
 14
181.4
 24
-70.0
 34
0.0
100
AcDbRotatedDimension
1001
ACAD
1000
DSTYLE
1002
{
1070
    41
1040
0.18
1070
    44
1040
0.18
1070
    42
1040
0.0625
1070
   147
1040
0.09
1070
    77
1070
     0
1070
    73
1070
     1
1070
   340
1005
0
1070
   140
1040
0.18
1002
}
  0
DIMENSION
  5
21C
330
246
100
AcDbEntity
  8
8.Cotations
100
AcDbDimension
280
     0
  2
*D15
 10
201.4
 20
-40.0
 30
0.0
 11
150.9
 21
-40.0
 31
0.0
 70
    32
 71
     5
 42
101.0
 73
     0
 74
     0
 75
     0
  3
QCADDimStyle
100
AcDbAlignedDimension
 13
100.4
 23
-70.0
 33
0.0
 14
201.4
 24
-70.0
 34
0.0
100
AcDbRotatedDimension
1001
ACAD
1000
DSTYLE
1002
{
1070
    41
1040
0.18
1070
    44
1040
0.18
1070
    42
1040
0.0625
1070
   147
1040
0.09
1070
    77
1070
     0
1070
    73
1070
     1
1070
   340
1005
0
1070
   140
1040
0.18
1002
}
  0
DIMENSION
  5
21D
330
246
100
AcDbEntity
  8
8.Cotations
100
AcDbDimension
280
     0
  2
*D16
 10
222.4000000000001
 20
-32.48990842273267
 30
0.0
 11
161.4
 21
-32.48990842273267
 31
0.0
 70
    32
 71
     5
 42
122.0000000000001
 73
     0
 74
     0
 75
     0
  3
QCADDimStyle
100
AcDbAlignedDimension
 13
100.4
 23
-70.0
 33
0.0
 14
222.4000000000001
 24
-70.0
 34
0.0
100
AcDbRotatedDimension
1001
ACAD
1000
DSTYLE
1002
{
1070
    41
1040
0.18
1070
    44
1040
0.18
1070
    42
1040
0.0625
1070
   147
1040
0.09
1070
    77
1070
     0
1070
    73
1070
     1
1070
   340
1005
0
1070
   140
1040
0.18
1002
}
  0
DIMENSION
  5
21E
330
246
100
AcDbEntity
  8
8.Cotations
100
AcDbDimension
280
     0
  2
*D17
 10
244.4
 20
-87.97505072847223
 30
0.0
 11
172.4
 21
-87.97505072847223
 31
0.0
 70
    32
 71
     5
 42
144.0
 73
     0
 74
     0
 75
     0
  3
QCADDimStyle
100
AcDbAlignedDimension
 13
100.4
 23
-70.0
 33
0.0
 14
244.4
 24
-70.0
 34
0.0
100
AcDbRotatedDimension
1001
ACAD
1000
DSTYLE
1002
{
1070
    41
1040
0.18
1070
    44
1040
0.18
1070
    42
1040
0.0625
1070
   147
1040
0.09
1070
    77
1070
     0
1070
    73
1070
     1
1070
   340
1005
0
1070
   140
1040
0.18
1002
}
  0
DIMENSION
  5
21F
330
246
100
AcDbEntity
  8
8.Cotations
100
AcDbDimension
280
     0
  2
*D18
 10
263.4
 20
-96.09179648020627
 30
0.0
 11
181.9
 21
-96.09179648020627
 31
0.0
 70
    32
 71
     5
 42
163.0
 73
     0
 74
     0
 75
     0
  3
QCADDimStyle
100
AcDbAlignedDimension
 13
100.4
 23
-70.0
 33
0.0
 14
263.4
 24
-70.0
 34
0.0
100
AcDbRotatedDimension
1001
ACAD
1000
DSTYLE
1002
{
1070
    41
1040
0.18
1070
    44
1040
0.18
1070
    42
1040
0.0625
1070
   147
1040
0.09
1070
    77
1070
     0
1070
    73
1070
     1
1070
   340
1005
0
1070
   140
1040
0.18
1002
}
  0
DIMENSION
  5
220
330
246
100
AcDbEntity
  8
8.Cotations
100
AcDbDimension
280
     0
  2
*D19
 10
283.4
 20
-104.9940337563017
 30
0.0
 11
191.9
 21
-104.9940337563017
 31
0.0
 70
    32
 71
     5
 42
183.0
 73
     0
 74
     0
 75
     0
  3
QCADDimStyle
100
AcDbAlignedDimension
 13
100.4
 23
-70.0
 33
0.0
 14
283.4
 24
-70.0
 34
0.0
100
AcDbRotatedDimension
1001
ACAD
1000
DSTYLE
1002
{
1070
    41
1040
0.18
1070
    44
1040
0.18
1070
    42
1040
0.0625
1070
   147
1040
0.09
1070
    77
1070
     0
1070
    73
1070
     1
1070
   340
1005
0
1070
   140
1040
0.18
1002
}
  0
DIMENSION
  5
221
330
246
100
AcDbEntity
  8
8.Cotations
100
AcDbDimension
280
     0
  2
*D20
 10
316.7
 20
-113.8962710323971
 30
0.0
 11
208.55
 21
-113.8962710323971
 31
0.0
 70
    32
 71
     5
 42
216.3
 73
     0
 74
     0
 75
     0
  3
QCADDimStyle
100
AcDbAlignedDimension
 13
100.4
 23
-70.0
 33
0.0
 14
316.7
 24
-70.0
 34
0.0
100
AcDbRotatedDimension
1001
ACAD
1000
DSTYLE
1002
{
1070
    41
1040
0.18
1070
    44
1040
0.18
1070
    42
1040
0.0625
1070
   147
1040
0.09
1070
    77
1070
     0
1070
    73
1070
     1
1070
   340
1005
0
1070
   140
1040
0.18
1002
}
  0
DIMENSION
  5
222
330
246
100
AcDbEntity
  8
8.Cotations
100
AcDbDimension
280
     0
  2
*D21
 10
348.5249999999999
 20
27.64289058129224
 30
0.0
 11
224.4625
 21
27.64289058129224
 31
0.0
 70
    32
  1
248
 71
     5
 42
248.1249999999999
 73
     0
 74
     0
 75
     0
  3
QCADDimStyle
100
AcDbAlignedDimension
 13
100.4
 23
14.00000000000005
 33
0.0
 14
348.5249999999999
 24
8.0
 34
0.0
100
AcDbRotatedDimension
1001
ACAD
1000
DSTYLE
1002
{
1070
    41
1040
0.18
1070
    44
1040
0.18
1070
    42
1040
0.0625
1070
   147
1040
0.09
1070
    77
1070
     0
1070
    73
1070
     1
1070
   340
1005
0
1070
   140
1040
0.18
1002
}
  0
MTEXT
  5
223
330
246
100
AcDbEntity
  8
8.Cotations
100
AcDbMText
 10
168.8006739713221
 20
-62.05383042454737
 30
0.0
 40
1.0
 41
0.0
 46
0.0
 71
     4
 72
     1
  1
\c0;\H2;pouce
  7
textstyle3
 73
     1
 44
1.0
  0
MTEXT
  5
224
330
246
100
AcDbEntity
  8
8.Cotations
100
AcDbMText
 10
307.0471822589213
 20
19.63728810903398
 30
0.0
 40
1.0
 41
0.0
 46
0.0
 71
     5
 72
     1
  1
\H1.5;Auriculaire\P\c0;Décalé à droite (droitier)\Pou à gauche (gaucher)
  7
textstyle4
 73
     1
 44
1.0
  0
MTEXT
  5
227
330
246
100
AcDbEntity
  8
8.Cotations
100
AcDbMText
 10
312.5694328835028
 20
107.9863574351978
 30
0.0
 40
1.0
 41
0.0
 46
0.0
 71
     4
 72
     1
  3
\c0;\H4;Tables des doigtés :\Px | xxx xxx | x  : DO#\Px | xxx xxx | O  : RE\Px | xxx xxxO| O  : MI\Px | xxx xOO | O  : FA\Px | xxx OOO | O  : SOL\Px | xxO OOO| O  : LA\Px | xOO OOO| O  : SI\Px | OXO OOO| O  : DO\Px | OOO OOO| O  : DO#\PO | OXO OOO| O
  1
  : RE\P
  7
textstyle5
 73
     1
 44
1.0
  0
ENDSEC
  0
SECTION
  2
OBJECTS
  0
DICTIONARY
  5
234
330
0
100
AcDbDictionary
281
     1
  3
ACAD_DETAILVIEWSTYLE
350
3E5
  3
ACAD_GROUP
350
235
  3
ACAD_LAYOUT
350
241
  3
ACAD_MATERIAL
350
26A
  3
ACAD_MLEADERSTYLE
350
3E4
  3
ACAD_MLINESTYLE
350
23E
  3
ACAD_PLOTSETTINGS
350
240
  3
ACAD_PLOTSTYLENAME
350
236
  3
ACAD_SCALELIST
350
26E
  3
ACAD_SECTIONVIEWSTYLE
350
3E6
  3
ACAD_TABLESTYLE
350
3E3
  3
ACAD_VISUALSTYLE
350
251
  3
AcDbVariableDictionary
350
3E1
  3
QCAD_OBJECTS
350
292
  0
SUN
  5
290
330
250
100
AcDbSun
 90
        1
290
     0
 63
     7
421
 16777215
 40
1.0
291
     1
 91
  2455826
 92
 54000000
292
     0
 70
     2
 71
   256
280
     1
  0
DICTIONARY
  5
3E5
102
{ACAD_REACTORS
330
234
102
}
330
234
100
AcDbDictionary
281
     1
  0
DICTIONARY
  5
235
102
{ACAD_REACTORS
330
234
102
}
330
234
100
AcDbDictionary
281
     1
  0
DICTIONARY
  5
241
102
{ACAD_REACTORS
330
234
102
}
330
234
100
AcDbDictionary
281
     1
  3
Layout1
350
245
  3
Layout2
350
24D
  3
Model
350
249
  0
DICTIONARY
  5
26A
102
{ACAD_REACTORS
330
234
102
}
330
234
100
AcDbDictionary
281
     1
  3
ByBlock
350
26C
  3
ByLayer
350
26B
  3
Global
350
26D
  0
DICTIONARY
  5
3E4
102
{ACAD_REACTORS
330
234
102
}
330
234
100
AcDbDictionary
281
     1
  0
DICTIONARY
  5
23E
102
{ACAD_REACTORS
330
234
102
}
330
234
100
AcDbDictionary
281
     1
  3
Standard
350
23F
  0
DICTIONARY
  5
240
102
{ACAD_REACTORS
330
234
102
}
330
234
100
AcDbDictionary
281
     1
  0
ACDBDICTIONARYWDFLT
  5
236
102
{ACAD_REACTORS
330
234
102
}
330
234
100
AcDbDictionary
281
     1
  3
Normal
350
237
100
AcDbDictionaryWithDefault
340
237
  0
DICTIONARY
  5
26E
102
{ACAD_REACTORS
330
234
102
}
330
234
100
AcDbDictionary
281
     1
  3
A0
350
26F
  3
A1
350
270
  3
A2
350
271
  3
A3
350
272
  3
A4
350
273
  3
A5
350
274
  3
A6
350
275
  3
A7
350
276
  3
A8
350
277
  3
A9
350
278
  3
B0
350
279
  3
B1
350
27A
  3
B2
350
27B
  3
B3
350
27C
  3
B4
350
27D
  3
B5
350
27E
  3
B6
350
27F
  3
B7
350
280
  3
B8
350
281
  3
B9
350
282
  3
C0
350
283
  3
C1
350
284
  3
C2
350
285
  3
C3
350
286
  3
C4
350
287
  3
C5
350
288
  3
C6
350
289
  3
C7
350
28A
  3
C8
350
28B
  3
C9
350
28C
  3
D0
350
28D
  3
D1
350
28E
  3
D2
350
28F
  0
DICTIONARY
  5
3E6
102
{ACAD_REACTORS
330
234
102
}
330
234
100
AcDbDictionary
281
     1
  0
DICTIONARY
  5
3E3
102
{ACAD_REACTORS
330
234
102
}
330
234
100
AcDbDictionary
281
     1
  0
DICTIONARY
  5
251
102
{ACAD_REACTORS
330
234
102
}
330
234
100
AcDbDictionary
281
     1
  3
2dWireframe
350
256
  3
Basic
350
259
  3
Brighten
350
25D
  3
ColorChange
350
261
  3
Conceptual
350
25B
  3
Dim
350
25C
  3
EdgeColorOff
350
264
  3
Facepattern
350
260
  3
Flat
350
252
  3
FlatWithEdges
350
253
  3
Gouraud
350
254
  3
GouraudWithEdges
350
255
  3
Hidden
350
258
  3
JitterOff
350
262
  3
Linepattern
350
25F
  3
OverhangOff
350
263
  3
Realistic
350
25A
  3
Shaded
350
269
  3
Shaded with edges
350
268
  3
Shades of Gray
350
265
  3
Sketchy
350
266
  3
Thicken
350
25E
  3
Wireframe
350
257
  3
X-Ray
350
267
  0
DICTIONARY
  5
3E1
102
{ACAD_REACTORS
330
234
102
}
330
234
100
AcDbDictionary
281
     1
  3
CANNOSCALE
350
3E2
  0
DICTIONARY
  5
292
102
{ACAD_REACTORS
330
234
102
}
330
234
100
AcDbDictionary
281
     1
  3
ColorSettings/ColorMode
350
293
  3
DimensionSettings/AngularFormat
350
294
  3
DimensionSettings/AngularPrecision
350
295
  3
DimensionSettings/KeepProportions
350
296
  3
DimensionSettings/LinearFormat
350
297
  3
DimensionSettings/LinearPrecision
350
298
  3
Grid/DisplayGrid
350
299
  3
Grid/DisplayGrid00
350
29A
  3
Grid/DisplayGrid01
350
29B
  3
Grid/DisplayGrid02
350
29C
  3
Grid/DisplayGrid03
350
29D
  3
Grid/GridSpacingX
350
29E
  3
Grid/GridSpacingX00
350
29F
  3
Grid/GridSpacingX01
350
2A0
  3
Grid/GridSpacingX02
350
2A1
  3
Grid/GridSpacingX03
350
2A2
  3
Grid/GridSpacingY
350
2A3
  3
Grid/GridSpacingY00
350
2A4
  3
Grid/GridSpacingY01
350
2A5
  3
Grid/GridSpacingY02
350
2A6
  3
Grid/GridSpacingY03
350
2A7
  3
Grid/IsometricGrid00
350
2A8
  3
Grid/IsometricGrid01
350
2A9
  3
Grid/IsometricGrid02
350
2AA
  3
Grid/IsometricGrid03
350
2AB
  3
Grid/IsometricProjection00
350
2AC
  3
Grid/IsometricProjection01
350
2AD
  3
Grid/IsometricProjection02
350
2AE
  3
Grid/IsometricProjection03
350
2AF
  3
Grid/MetaGridSpacingX
350
2B0
  3
Grid/MetaGridSpacingX00
350
2B1
  3
Grid/MetaGridSpacingX01
350
2B2
  3
Grid/MetaGridSpacingX02
350
2B3
  3
Grid/MetaGridSpacingX03
350
2B4
  3
Grid/MetaGridSpacingY
350
2B5
  3
Grid/MetaGridSpacingY00
350
2B6
  3
Grid/MetaGridSpacingY01
350
2B7
  3
Grid/MetaGridSpacingY02
350
2B8
  3
Grid/MetaGridSpacingY03
350
2B9
  3
MultiPageSettings/Columns
350
2BA
  3
MultiPageSettings/GlueMarginBottom
350
2BB
  3
MultiPageSettings/GlueMarginsBottom
350
2BC
  3
MultiPageSettings/GlueMarginsLeft
350
2BD
  3
MultiPageSettings/GlueMarginsRight
350
2BE
  3
MultiPageSettings/GlueMarginsTop
350
2BF
  3
MultiPageSettings/PrintCropMarks
350
2C0
  3
MultiPageSettings/Rows
350
2C1
  3
PageSettings/OffsetX
350
2C2
  3
PageSettings/OffsetY
350
2C3
  3
PageSettings/PageOrientation
350
2C4
  3
PageSettings/PaperHeight
350
2C5
  3
PageSettings/PaperWidth
350
2C6
  3
PageSettings/Scale
350
2C7
  3
PageSettings/ShowBoundingBox
350
2C8
  3
PageSettings/ShowPageBorders
350
2C9
  3
PageSettings/ShowPaperBorders
350
2CA
  3
UnitSettings/PaperUnit
350
2CB
  0
LAYOUT
  5
245
102
{ACAD_REACTORS
330
241
102
}
330
241
100
AcDbPlotSettings
  1

  2
none_device
  4

  6

 40
0.0
 41
0.0
 42
0.0
 43
0.0
 44
0.0
 45
0.0
 46
0.0
 47
0.0
 48
0.0
 49
0.0
140
0.0
141
0.0
142
1.0
143
1.0
 70
   688
 72
     0
 73
     0
 74
     5
  7

 75
    16
 76
     0
 77
     2
 78
   300
147
1.0
148
0.0
149
0.0
100
AcDbLayout
  1
Layout1
 70
     1
 71
     1
 10
0.0
 20
0.0
 11
12.0
 21
9.0
 12
0.0
 22
0.0
 32
0.0
 14
1.000000000000000E+20
 24
1.000000000000000E+20
 34
1.000000000000000E+20
 15
-1.000000000000000E+20
 25
-1.000000000000000E+20
 35
-1.000000000000000E+20
146
0.0
 13
0.0
 23
0.0
 33
0.0
 16
1.0
 26
0.0
 36
0.0
 17
0.0
 27
1.0
 37
0.0
 76
     0
330
242
  0
LAYOUT
  5
24D
102
{ACAD_REACTORS
330
241
102
}
330
241
100
AcDbPlotSettings
  1

  2
none_device
  4

  6

 40
0.0
 41
0.0
 42
0.0
 43
0.0
 44
0.0
 45
0.0
 46
0.0
 47
0.0
 48
0.0
 49
0.0
140
0.0
141
0.0
142
1.0
143
1.0
 70
   688
 72
     0
 73
     0
 74
     5
  7

 75
    16
 76
     0
 77
     2
 78
   300
147
1.0
148
0.0
149
0.0
100
AcDbLayout
  1
Layout2
 70
     1
 71
     2
 10
0.0
 20
0.0
 11
0.0
 21
0.0
 12
0.0
 22
0.0
 32
0.0
 14
0.0
 24
0.0
 34
0.0
 15
0.0
 25
0.0
 35
0.0
146
0.0
 13
0.0
 23
0.0
 33
0.0
 16
1.0
 26
0.0
 36
0.0
 17
0.0
 27
1.0
 37
0.0
 76
     0
330
24A
  0
LAYOUT
  5
249
102
{ACAD_REACTORS
330
241
102
}
330
241
100
AcDbPlotSettings
  1

  2
none_device
  4
Letter_(8.50_x_11.00_Inches)
  6

 40
6.35
 41
6.35
 42
6.35000508
 43
6.35000508
 44
215.9
 45
279.4
 46
0.0
 47
0.0
 48
0.0
 49
0.0
140
0.0
141
0.0
142
1.0
143
1.0
 70
  1712
 72
     0
 73
     0
 74
     0
  7

 75
     0
 76
     0
 77
     2
 78
   300
147
1.0
148
0.0
149
0.0
100
AcDbLayout
  1
Model
 70
     1
 71
     0
 10
0.0
 20
0.0
 11
12.0
 21
9.0
 12
0.0
 22
0.0
 32
0.0
 14
1.000000000000000E+20
 24
1.000000000000000E+20
 34
1.000000000000000E+20
 15
-1.000000000000000E+20
 25
-1.000000000000000E+20
 35
-1.000000000000000E+20
146
0.0
 13
0.0
 23
0.0
 33
0.0
 16
1.0
 26
0.0
 36
0.0
 17
0.0
 27
1.0
 37
0.0
 76
     0
330
246
331
250
  0
MATERIAL
  5
26C
102
{ACAD_REACTORS
330
26A
102
}
330
26A
100
AcDbMaterial
  1
ByBlock
 72
     1
 94
      127
  0
MATERIAL
  5
26B
102
{ACAD_REACTORS
330
26A
102
}
330
26A
100
AcDbMaterial
  1
ByLayer
 72
     1
 94
      127
  0
MATERIAL
  5
26D
102
{ACAD_REACTORS
330
26A
102
}
330
26A
100
AcDbMaterial
  1
Global
 72
     1
 94
      127
  0
MLINESTYLE
  5
23F
102
{ACAD_REACTORS
330
23E
102
}
330
23E
100
AcDbMlineStyle
  2
Standard
 70
     0
  3

 62
   256
 51
90.0
 52
90.0
 71
     2
 49
0.5
 62
   256
  6
BYLAYER
 49
-0.5
 62
   256
  6
BYLAYER
  0
ACDBPLACEHOLDER
  5
237
102
{ACAD_REACTORS
330
236
102
}
330
236
  0
SCALE
  5
26F
102
{ACAD_REACTORS
330
26E
102
}
330
26E
100
AcDbScale
 70
     0
300
1:1
140
1.0
141
1.0
290
     1
  0
SCALE
  5
270
102
{ACAD_REACTORS
330
26E
102
}
330
26E
100
AcDbScale
 70
     0
300
1:2
140
1.0
141
2.0
290
     0
  0
SCALE
  5
271
102
{ACAD_REACTORS
330
26E
102
}
330
26E
100
AcDbScale
 70
     0
300
1:4
140
1.0
141
4.0
290
     0
  0
SCALE
  5
272
102
{ACAD_REACTORS
330
26E
102
}
330
26E
100
AcDbScale
 70
     0
300
1:5
140
1.0
141
5.0
290
     0
  0
SCALE
  5
273
102
{ACAD_REACTORS
330
26E
102
}
330
26E
100
AcDbScale
 70
     0
300
1:8
140
1.0
141
8.0
290
     0
  0
SCALE
  5
274
102
{ACAD_REACTORS
330
26E
102
}
330
26E
100
AcDbScale
 70
     0
300
1:10
140
1.0
141
10.0
290
     0
  0
SCALE
  5
275
102
{ACAD_REACTORS
330
26E
102
}
330
26E
100
AcDbScale
 70
     0
300
1:16
140
1.0
141
16.0
290
     0
  0
SCALE
  5
276
102
{ACAD_REACTORS
330
26E
102
}
330
26E
100
AcDbScale
 70
     0
300
1:20
140
1.0
141
20.0
290
     0
  0
SCALE
  5
277
102
{ACAD_REACTORS
330
26E
102
}
330
26E
100
AcDbScale
 70
     0
300
1:30
140
1.0
141
30.0
290
     0
  0
SCALE
  5
278
102
{ACAD_REACTORS
330
26E
102
}
330
26E
100
AcDbScale
 70
     0
300
1:40
140
1.0
141
40.0
290
     0
  0
SCALE
  5
279
102
{ACAD_REACTORS
330
26E
102
}
330
26E
100
AcDbScale
 70
     0
300
1:50
140
1.0
141
50.0
290
     0
  0
SCALE
  5
27A
102
{ACAD_REACTORS
330
26E
102
}
330
26E
100
AcDbScale
 70
     0
300
1:100
140
1.0
141
100.0
290
     0
  0
SCALE
  5
27B
102
{ACAD_REACTORS
330
26E
102
}
330
26E
100
AcDbScale
 70
     0
300
2:1
140
2.0
141
1.0
290
     0
  0
SCALE
  5
27C
102
{ACAD_REACTORS
330
26E
102
}
330
26E
100
AcDbScale
 70
     0
300
4:1
140
4.0
141
1.0
290
     0
  0
SCALE
  5
27D
102
{ACAD_REACTORS
330
26E
102
}
330
26E
100
AcDbScale
 70
     0
300
8:1
140
8.0
141
1.0
290
     0
  0
SCALE
  5
27E
102
{ACAD_REACTORS
330
26E
102
}
330
26E
100
AcDbScale
 70
     0
300
10:1
140
10.0
141
1.0
290
     0
  0
SCALE
  5
27F
102
{ACAD_REACTORS
330
26E
102
}
330
26E
100
AcDbScale
 70
     0
300
100:1
140
100.0
141
1.0
290
     0
  0
SCALE
  5
280
102
{ACAD_REACTORS
330
26E
102
}
330
26E
100
AcDbScale
 70
     0
300
1/128" = 1'-0"
140
0.0078125
141
12.0
290
     0
  0
SCALE
  5
281
102
{ACAD_REACTORS
330
26E
102
}
330
26E
100
AcDbScale
 70
     0
300
1/64" = 1'-0"
140
0.015625
141
12.0
290
     0
  0
SCALE
  5
282
102
{ACAD_REACTORS
330
26E
102
}
330
26E
100
AcDbScale
 70
     0
300
1/32" = 1'-0"
140
0.03125
141
12.0
290
     0
  0
SCALE
  5
283
102
{ACAD_REACTORS
330
26E
102
}
330
26E
100
AcDbScale
 70
     0
300
1/16" = 1'-0"
140
0.0625
141
12.0
290
     0
  0
SCALE
  5
284
102
{ACAD_REACTORS
330
26E
102
}
330
26E
100
AcDbScale
 70
     0
300
3/32" = 1'-0"
140
0.09375
141
12.0
290
     0
  0
SCALE
  5
285
102
{ACAD_REACTORS
330
26E
102
}
330
26E
100
AcDbScale
 70
     0
300
1/8" = 1'-0"
140
0.125
141
12.0
290
     0
  0
SCALE
  5
286
102
{ACAD_REACTORS
330
26E
102
}
330
26E
100
AcDbScale
 70
     0
300
3/16" = 1'-0"
140
0.1875
141
12.0
290
     0
  0
SCALE
  5
287
102
{ACAD_REACTORS
330
26E
102
}
330
26E
100
AcDbScale
 70
     0
300
1/4" = 1'-0"
140
0.25
141
12.0
290
     0
  0
SCALE
  5
288
102
{ACAD_REACTORS
330
26E
102
}
330
26E
100
AcDbScale
 70
     0
300
3/8" = 1'-0"
140
0.375
141
12.0
290
     0
  0
SCALE
  5
289
102
{ACAD_REACTORS
330
26E
102
}
330
26E
100
AcDbScale
 70
     0
300
1/2" = 1'-0"
140
0.5
141
12.0
290
     0
  0
SCALE
  5
28A
102
{ACAD_REACTORS
330
26E
102
}
330
26E
100
AcDbScale
 70
     0
300
3/4" = 1'-0"
140
0.75
141
12.0
290
     0
  0
SCALE
  5
28B
102
{ACAD_REACTORS
330
26E
102
}
330
26E
100
AcDbScale
 70
     0
300
1" = 1'-0"
140
1.0
141
12.0
290
     0
  0
SCALE
  5
28C
102
{ACAD_REACTORS
330
26E
102
}
330
26E
100
AcDbScale
 70
     0
300
1-1/2" = 1'-0"
140
1.5
141
12.0
290
     0
  0
SCALE
  5
28D
102
{ACAD_REACTORS
330
26E
102
}
330
26E
100
AcDbScale
 70
     0
300
3" = 1'-0"
140
3.0
141
12.0
290
     0
  0
SCALE
  5
28E
102
{ACAD_REACTORS
330
26E
102
}
330
26E
100
AcDbScale
 70
     0
300
6" = 1'-0"
140
6.0
141
12.0
290
     0
  0
SCALE
  5
28F
102
{ACAD_REACTORS
330
26E
102
}
330
26E
100
AcDbScale
 70
     0
300
1'-0" = 1'-0"
140
12.0
141
12.0
290
     0
  0
VISUALSTYLE
  5
256
102
{ACAD_REACTORS
330
251
102
}
330
251
100
AcDbVisualStyle
  2
2dWireframe
 70
     4
177
     3
291
     0
 70
    58
 90
        0
176
     1
 90
        2
176
     1
 90
        0
176
     1
 90
        0
176
     1
 40
0.6
176
     1
 40
30.0
176
     1
 62
     7
420
 16777215
176
     1
 90
        1
176
     1
 90
        4
176
     1
 62
     7
176
     1
 62
   257
176
     1
 90
        1
176
     1
 90
        1
176
     1
 40
1.0
176
     1
 90
        0
176
     1
 62
   257
176
     1
 40
1.0
176
     1
 90
        1
176
     1
 90
        6
176
     1
 90
        2
176
     1
 62
     7
176
     1
 90
        5
176
     1
 90
        0
176
     1
 90
        0
176
     1
290
     0
176
     1
 90
        1
176
     1
 40
0.0
176
     1
 90
        0
176
     1
290
     1
176
     1
290
     1
176
     1
290
     0
176
     1
290
     0
176
     1
290
     0
176
     1
290
     0
176
     1
290
     0
176
     1
290
     0
176
     1
290
     0
176
     1
 90
       50
176
     1
 40
0.0
176
     1
 40
1.0
176
     1
 90
        0
176
     1
 62
    18
420
        0
176
     1
 90
       50
176
     1
 90
        3
176
     1
 62
     5
420
      255
176
     1
290
     0
176
     1
 90
       50
176
     1
 90
       50
176
     1
 90
       50
176
     1
290
     0
176
     1
 90
       50
176
     1
 62
   256
176
     0
 40
1.0
176
     0
 90
        2
176
     1
  1
strokes_ogs.tif
176
     1
290
     0
176
     1
 40
1.0
176
     1
 40
1.0
176
     1
  0
VISUALSTYLE
  5
259
102
{ACAD_REACTORS
330
251
102
}
330
251
100
AcDbVisualStyle
  2
Basic
 70
     7
177
     3
291
     1
 70
    58
 90
        1
176
     1
 90
        0
176
     1
 90
        1
176
     1
 90
        0
176
     1
 40
0.6
176
     1
 40
30.0
176
     1
 62
     7
420
 16777215
176
     1
 90
        0
176
     1
 90
        4
176
     1
 62
     7
176
     1
 62
   257
176
     1
 90
        1
176
     1
 90
        1
176
     1
 40
1.0
176
     1
 90
        8
176
     1
 62
     7
176
     1
 40
1.0
176
     1
 90
        1
176
     1
 90
        6
176
     1
 90
        2
176
     1
 62
     7
176
     1
 90
        5
176
     1
 90
        0
176
     1
 90
        0
176
     1
290
     0
176
     1
 90
        1
176
     1
 40
0.0
176
     1
 90
        0
176
     1
290
     0
176
     1
290
     1
176
     1
290
     1
176
     1
290
     0
176
     1
290
     0
176
     1
290
     0
176
     1
290
     0
176
     1
290
     0
176
     1
290
     0
176
     1
 90
       50
176
     1
 40
0.0
176
     1
 40
1.0
176
     1
 90
        0
176
     1
 62
    18
420
        0
176
     1
 90
       50
176
     1
 90
        3
176
     1
 62
     5
420
      255
176
     1
290
     0
176
     1
 90
       50
176
     1
 90
       50
176
     1
 90
       50
176
     1
290
     0
176
     1
 90
       50
176
     1
 62
   256
176
     0
 40
1.0
176
     0
 90
        2
176
     1
  1
strokes_ogs.tif
176
     1
290
     0
176
     1
 40
1.0
176
     1
 40
1.0
176
     1
  0
VISUALSTYLE
  5
25D
102
{ACAD_REACTORS
330
251
102
}
330
251
100
AcDbVisualStyle
  2
Brighten
 70
    12
177
     3
291
     1
 70
    58
 90
        2
176
     1
 90
        2
176
     1
 90
        0
176
     1
 90
        0
176
     1
 40
0.6
176
     1
 40
30.0
176
     1
 62
     7
420
 16777215
176
     1
 90
        1
176
     1
 90
        4
176
     1
 62
     7
176
     1
 62
   257
176
     1
 90
        1
176
     1
 90
        1
176
     1
 40
1.0
176
     1
 90
        8
176
     1
 62
     7
176
     1
 40
1.0
176
     1
 90
        1
176
     1
 90
        6
176
     1
 90
        2
176
     1
 62
     7
176
     1
 90
        5
176
     1
 90
        0
176
     1
 90
        0
176
     1
290
     0
176
     1
 90
        1
176
     1
 40
50.0
176
     1
 90
        0
176
     1
290
     0
176
     1
290
     1
176
     1
290
     1
176
     1
290
     0
176
     1
290
     0
176
     1
290
     0
176
     1
290
     0
176
     1
290
     0
176
     1
290
     0
176
     1
 90
       50
176
     1
 40
0.0
176
     1
 40
1.0
176
     1
 90
        0
176
     1
 62
    18
420
        0
176
     1
 90
       50
176
     1
 90
        3
176
     1
 62
     5
420
      255
176
     1
290
     0
176
     1
 90
       50
176
     1
 90
       50
176
     1
 90
       50
176
     1
290
     0
176
     1
 90
       50
176
     1
 62
   256
176
     0
 40
1.0
176
     0
 90
        2
176
     1
  1
strokes_ogs.tif
176
     1
290
     0
176
     1
 40
1.0
176
     1
 40
1.0
176
     1
  0
VISUALSTYLE
  5
261
102
{ACAD_REACTORS
330
251
102
}
330
251
100
AcDbVisualStyle
  2
ColorChange
 70
    16
177
     3
291
     1
 70
    58
 90
        2
176
     1
 90
        2
176
     1
 90
        3
176
     1
 90
        0
176
     1
 40
0.6
176
     1
 40
30.0
176
     1
 62
     8
420
  8421504
176
     1
 90
        1
176
     1
 90
        4
176
     1
 62
     7
176
     1
 62
   257
176
     1
 90
        1
176
     1
 90
        1
176
     1
 40
1.0
176
     1
 90
        8
176
     1
 62
     8
420
  8421504
176
     1
 40
1.0
176
     1
 90
        1
176
     1
 90
        6
176
     1
 90
        2
176
     1
 62
     7
176
     1
 90
        5
176
     1
 90
        0
176
     1
 90
        0
176
     1
290
     0
176
     1
 90
        1
176
     1
 40
0.0
176
     1
 90
        0
176
     1
290
     0
176
     1
290
     1
176
     1
290
     1
176
     1
290
     0
176
     1
290
     0
176
     1
290
     0
176
     1
290
     0
176
     1
290
     0
176
     1
290
     0
176
     1
 90
       50
176
     1
 40
0.0
176
     1
 40
1.0
176
     1
 90
        0
176
     1
 62
    18
420
        0
176
     1
 90
       50
176
     1
 90
        3
176
     1
 62
     5
420
      255
176
     1
290
     0
176
     1
 90
       50
176
     1
 90
       50
176
     1
 90
       50
176
     1
290
     0
176
     1
 90
       50
176
     1
 62
   256
176
     0
 40
1.0
176
     0
 90
        2
176
     1
  1
strokes_ogs.tif
176
     1
290
     0
176
     1
 40
1.0
176
     1
 40
1.0
176
     1
  0
VISUALSTYLE
  5
25B
102
{ACAD_REACTORS
330
251
102
}
330
251
100
AcDbVisualStyle
  2
Conceptual
 70
     9
177
     3
291
     0
 70
    58
 90
        3
176
     1
 90
        2
176
     1
 90
        0
176
     1
 90
        0
176
     1
 40
0.6
176
     1
 40
30.0
176
     1
 62
     7
420
 16777215
176
     1
 90
        2
176
     1
 90
        2
176
     1
 62
     7
176
     1
 62
   257
176
     1
 90
        1
176
     1
 90
        1
176
     1
 40
179.0
176
     1
 90
        8
176
     1
 62
     7
176
     1
 40
1.0
176
     1
 90
        1
176
     1
 90
        6
176
     1
 90
        2
176
     1
 62
     7
176
     1
 90
        3
176
     1
 90
        0
176
     1
 90
        0
176
     1
290
     0
176
     1
 90
        1
176
     1
 40
0.0
176
     1
 90
        0
176
     1
290
     0
176
     1
290
     1
176
     1
290
     1
176
     1
290
     0
176
     1
290
     0
176
     1
290
     0
176
     1
290
     0
176
     1
290
     0
176
     1
290
     0
176
     1
 90
       50
176
     1
 40
0.0
176
     1
 40
1.0
176
     1
 90
        0
176
     1
 62
    18
420
        0
176
     1
 90
       50
176
     1
 90
        3
176
     1
 62
     5
420
      255
176
     1
290
     0
176
     1
 90
       50
176
     1
 90
       50
176
     1
 90
       50
176
     1
290
     0
176
     1
 90
       50
176
     1
 62
   256
176
     0
 40
1.0
176
     0
 90
        2
176
     1
  1
strokes_ogs.tif
176
     1
290
     0
176
     1
 40
1.0
176
     1
 40
1.0
176
     1
  0
VISUALSTYLE
  5
25C
102
{ACAD_REACTORS
330
251
102
}
330
251
100
AcDbVisualStyle
  2
Dim
 70
    11
177
     3
291
     1
 70
    58
 90
        2
176
     1
 90
        2
176
     1
 90
        0
176
     1
 90
        0
176
     1
 40
0.6
176
     1
 40
30.0
176
     1
 62
     7
420
 16777215
176
     1
 90
        1
176
     1
 90
        4
176
     1
 62
     7
176
     1
 62
   257
176
     1
 90
        1
176
     1
 90
        1
176
     1
 40
1.0
176
     1
 90
        8
176
     1
 62
     7
176
     1
 40
1.0
176
     1
 90
        1
176
     1
 90
        6
176
     1
 90
        2
176
     1
 62
     7
176
     1
 90
        5
176
     1
 90
        0
176
     1
 90
        0
176
     1
290
     0
176
     1
 90
        1
176
     1
 40
-50.0
176
     1
 90
        0
176
     1
290
     0
176
     1
290
     1
176
     1
290
     1
176
     1
290
     0
176
     1
290
     0
176
     1
290
     0
176
     1
290
     0
176
     1
290
     0
176
     1
290
     0
176
     1
 90
       50
176
     1
 40
0.0
176
     1
 40
1.0
176
     1
 90
        0
176
     1
 62
    18
420
        0
176
     1
 90
       50
176
     1
 90
        3
176
     1
 62
     5
420
      255
176
     1
290
     0
176
     1
 90
       50
176
     1
 90
       50
176
     1
 90
       50
176
     1
290
     0
176
     1
 90
       50
176
     1
 62
   256
176
     0
 40
1.0
176
     0
 90
        2
176
     1
  1
strokes_ogs.tif
176
     1
290
     0
176
     1
 40
1.0
176
     1
 40
1.0
176
     1
  0
VISUALSTYLE
  5
264
102
{ACAD_REACTORS
330
251
102
}
330
251
100
AcDbVisualStyle
  2
EdgeColorOff
 70
    22
177
     3
291
     1
 70
    58
 90
        2
176
     0
 90
        2
176
     0
 90
        0
176
     0
 90
        0
176
     0
 40
0.6
176
     0
 40
30.0
176
     0
 62
     7
420
 16777215
176
     0
 90
        1
176
     0
 90
        4
176
     0
 62
     7
176
     0
 62
   257
176
     0
 90
        1
176
     0
 90
        1
176
     0
 40
1.0
176
     0
 90
        8
176
     2
 62
     7
176
     0
 40
1.0
176
     0
 90
        1
176
     0
 90
        6
176
     0
 90
        2
176
     0
 62
     7
176
     0
 90
        5
176
     0
 90
        0
176
     0
 90
        0
176
     0
290
     0
176
     0
 90
        1
176
     0
 40
0.0
176
     0
 90
        0
176
     0
290
     0
176
     0
290
     1
176
     0
290
     1
176
     0
290
     0
176
     0
290
     0
176
     0
290
     0
176
     0
290
     0
176
     0
290
     0
176
     0
290
     0
176
     0
 90
       50
176
     0
 40
0.0
176
     0
 40
1.0
176
     0
 90
        0
176
     0
 62
    18
420
        0
176
     0
 90
       50
176
     0
 90
        3
176
     0
 62
     5
420
      255
176
     0
290
     0
176
     0
 90
       50
176
     0
 90
       50
176
     0
 90
       50
176
     0
290
     0
176
     0
 90
       50
176
     0
 62
   256
176
     0
 40
1.0
176
     0
 90
        2
176
     0
  1
strokes_ogs.tif
176
     0
290
     0
176
     0
 40
1.0
176
     0
 40
1.0
176
     0
  0
VISUALSTYLE
  5
260
102
{ACAD_REACTORS
330
251
102
}
330
251
100
AcDbVisualStyle
  2
Facepattern
 70
    15
177
     3
291
     1
 70
    58
 90
        2
176
     1
 90
        2
176
     1
 90
        0
176
     1
 90
        0
176
     1
 40
0.6
176
     1
 40
30.0
176
     1
 62
     7
420
 16777215
176
     1
 90
        1
176
     1
 90
        4
176
     1
 62
     7
176
     1
 62
   257
176
     1
 90
        1
176
     1
 90
        1
176
     1
 40
1.0
176
     1
 90
        8
176
     1
 62
     7
176
     1
 40
1.0
176
     1
 90
        1
176
     1
 90
        6
176
     1
 90
        2
176
     1
 62
     7
176
     1
 90
        5
176
     1
 90
        0
176
     1
 90
        0
176
     1
290
     0
176
     1
 90
        1
176
     1
 40
0.0
176
     1
 90
        0
176
     1
290
     0
176
     1
290
     1
176
     1
290
     1
176
     1
290
     0
176
     1
290
     0
176
     1
290
     0
176
     1
290
     0
176
     1
290
     0
176
     1
290
     0
176
     1
 90
       50
176
     1
 40
0.0
176
     1
 40
1.0
176
     1
 90
        0
176
     1
 62
    18
420
        0
176
     1
 90
       50
176
     1
 90
        3
176
     1
 62
     5
420
      255
176
     1
290
     0
176
     1
 90
       50
176
     1
 90
       50
176
     1
 90
       50
176
     1
290
     0
176
     1
 90
       50
176
     1
 62
   256
176
     0
 40
1.0
176
     0
 90
        2
176
     1
  1
strokes_ogs.tif
176
     1
290
     0
176
     1
 40
1.0
176
     1
 40
1.0
176
     1
  0
VISUALSTYLE
  5
252
102
{ACAD_REACTORS
330
251
102
}
330
251
100
AcDbVisualStyle
  2
Flat
 70
     0
177
     3
291
     1
 70
    58
 90
        2
176
     1
 90
        1
176
     1
 90
        1
176
     1
 90
        2
176
     1
 40
0.6
176
     1
 40
30.0
176
     1
 62
     7
420
 16777215
176
     1
 90
        0
176
     1
 90
        0
176
     1
 62
     7
176
     1
 62
   257
176
     1
 90
        1
176
     1
 90
        1
176
     1
 40
1.0
176
     1
 90
        8
176
     1
 62
     7
176
     1
 40
1.0
176
     1
 90
        1
176
     1
 90
        6
176
     1
 90
        2
176
     1
 62
     7
176
     1
 90
        5
176
     1
 90
        0
176
     1
 90
        0
176
     1
290
     0
176
     1
 90
       13
176
     1
 40
0.0
176
     1
 90
        0
176
     1
290
     0
176
     1
290
     1
176
     1
290
     1
176
     1
290
     0
176
     1
290
     0
176
     1
290
     0
176
     1
290
     0
176
     1
290
     0
176
     1
290
     0
176
     1
 90
       50
176
     1
 40
0.0
176
     1
 40
1.0
176
     1
 90
        0
176
     1
 62
    18
420
        0
176
     1
 90
       50
176
     1
 90
        3
176
     1
 62
     5
420
      255
176
     1
290
     0
176
     1
 90
       50
176
     1
 90
       50
176
     1
 90
       50
176
     1
290
     0
176
     1
 90
       50
176
     1
 62
   256
176
     0
 40
1.0
176
     0
 90
        2
176
     1
  1
strokes_ogs.tif
176
     1
290
     0
176
     1
 40
1.0
176
     1
 40
1.0
176
     1
  0
VISUALSTYLE
  5
253
102
{ACAD_REACTORS
330
251
102
}
330
251
100
AcDbVisualStyle
  2
FlatWithEdges
 70
     1
177
     3
291
     1
 70
    58
 90
        2
176
     1
 90
        1
176
     1
 90
        1
176
     1
 90
        2
176
     1
 40
0.6
176
     1
 40
30.0
176
     1
 62
     7
420
 16777215
176
     1
 90
        1
176
     1
 90
        0
176
     1
 62
     7
176
     1
 62
   257
176
     1
 90
        1
176
     1
 90
        1
176
     1
 40
1.0
176
     1
 90
        0
176
     1
 62
   257
176
     1
 40
1.0
176
     1
 90
        1
176
     1
 90
        6
176
     1
 90
        2
176
     1
 62
     7
176
     1
 90
        5
176
     1
 90
        0
176
     1
 90
        0
176
     1
290
     0
176
     1
 90
       13
176
     1
 40
0.0
176
     1
 90
        0
176
     1
290
     0
176
     1
290
     1
176
     1
290
     1
176
     1
290
     0
176
     1
290
     0
176
     1
290
     0
176
     1
290
     0
176
     1
290
     0
176
     1
290
     0
176
     1
 90
       50
176
     1
 40
0.0
176
     1
 40
1.0
176
     1
 90
        0
176
     1
 62
    18
420
        0
176
     1
 90
       50
176
     1
 90
        3
176
     1
 62
     5
420
      255
176
     1
290
     0
176
     1
 90
       50
176
     1
 90
       50
176
     1
 90
       50
176
     1
290
     0
176
     1
 90
       50
176
     1
 62
   256
176
     0
 40
1.0
176
     0
 90
        2
176
     1
  1
strokes_ogs.tif
176
     1
290
     0
176
     1
 40
1.0
176
     1
 40
1.0
176
     1
  0
VISUALSTYLE
  5
254
102
{ACAD_REACTORS
330
251
102
}
330
251
100
AcDbVisualStyle
  2
Gouraud
 70
     2
177
     3
291
     1
 70
    58
 90
        2
176
     1
 90
        2
176
     1
 90
        1
176
     1
 90
        2
176
     1
 40
0.6
176
     1
 40
30.0
176
     1
 62
     7
420
 16777215
176
     1
 90
        0
176
     1
 90
        0
176
     1
 62
     7
176
     1
 62
   257
176
     1
 90
        1
176
     1
 90
        1
176
     1
 40
1.0
176
     1
 90
        0
176
     1
 62
     7
176
     1
 40
1.0
176
     1
 90
        1
176
     1
 90
        6
176
     1
 90
        2
176
     1
 62
     7
176
     1
 90
        5
176
     1
 90
        0
176
     1
 90
        0
176
     1
290
     0
176
     1
 90
       13
176
     1
 40
0.0
176
     1
 90
        0
176
     1
290
     0
176
     1
290
     1
176
     1
290
     1
176
     1
290
     0
176
     1
290
     0
176
     1
290
     0
176
     1
290
     0
176
     1
290
     0
176
     1
290
     0
176
     1
 90
       50
176
     1
 40
0.0
176
     1
 40
1.0
176
     1
 90
        0
176
     1
 62
    18
420
        0
176
     1
 90
       50
176
     1
 90
        3
176
     1
 62
     5
420
      255
176
     1
290
     0
176
     1
 90
       50
176
     1
 90
       50
176
     1
 90
       50
176
     1
290
     0
176
     1
 90
       50
176
     1
 62
   256
176
     0
 40
1.0
176
     0
 90
        2
176
     1
  1
strokes_ogs.tif
176
     1
290
     0
176
     1
 40
1.0
176
     1
 40
1.0
176
     1
  0
VISUALSTYLE
  5
255
102
{ACAD_REACTORS
330
251
102
}
330
251
100
AcDbVisualStyle
  2
GouraudWithEdges
 70
     3
177
     3
291
     1
 70
    58
 90
        2
176
     1
 90
        2
176
     1
 90
        1
176
     1
 90
        2
176
     1
 40
0.6
176
     1
 40
30.0
176
     1
 62
     7
420
 16777215
176
     1
 90
        1
176
     1
 90
        0
176
     1
 62
     7
176
     1
 62
   257
176
     1
 90
        1
176
     1
 90
        1
176
     1
 40
1.0
176
     1
 90
        0
176
     1
 62
   257
176
     1
 40
1.0
176
     1
 90
        1
176
     1
 90
        6
176
     1
 90
        2
176
     1
 62
     7
176
     1
 90
        5
176
     1
 90
        0
176
     1
 90
        0
176
     1
290
     0
176
     1
 90
       13
176
     1
 40
0.0
176
     1
 90
        0
176
     1
290
     0
176
     1
290
     1
176
     1
290
     1
176
     1
290
     0
176
     1
290
     0
176
     1
290
     0
176
     1
290
     0
176
     1
290
     0
176
     1
290
     0
176
     1
 90
       50
176
     1
 40
0.0
176
     1
 40
1.0
176
     1
 90
        0
176
     1
 62
    18
420
        0
176
     1
 90
       50
176
     1
 90
        3
176
     1
 62
     5
420
      255
176
     1
290
     0
176
     1
 90
       50
176
     1
 90
       50
176
     1
 90
       50
176
     1
290
     0
176
     1
 90
       50
176
     1
 62
   256
176
     0
 40
1.0
176
     0
 90
        2
176
     1
  1
strokes_ogs.tif
176
     1
290
     0
176
     1
 40
1.0
176
     1
 40
1.0
176
     1
  0
VISUALSTYLE
  5
258
102
{ACAD_REACTORS
330
251
102
}
330
251
100
AcDbVisualStyle
  2
Hidden
 70
     6
177
     3
291
     0
 70
    58
 90
        1
176
     1
 90
        2
176
     1
 90
        2
176
     1
 90
        0
176
     1
 40
0.6
176
     1
 40
30.0
176
     1
 62
     7
420
 16777215
176
     1
 90
        2
176
     1
 90
        2
176
     1
 62
     7
176
     1
 62
   257
176
     1
 90
        2
176
     1
 90
        1
176
     1
 40
40.0
176
     1
 90
        0
176
     1
 62
   257
176
     1
 40
1.0
176
     1
 90
        1
176
     1
 90
        6
176
     1
 90
        2
176
     1
 62
     7
176
     1
 90
        3
176
     1
 90
        0
176
     1
 90
        0
176
     1
290
     0
176
     1
 90
        1
176
     1
 40
0.0
176
     1
 90
        0
176
     1
290
     0
176
     1
290
     1
176
     1
290
     1
176
     1
290
     0
176
     1
290
     0
176
     1
290
     0
176
     1
290
     0
176
     1
290
     0
176
     1
290
     0
176
     1
 90
       50
176
     1
 40
0.0
176
     1
 40
1.0
176
     1
 90
        0
176
     1
 62
    18
420
        0
176
     1
 90
       50
176
     1
 90
        3
176
     1
 62
     5
420
      255
176
     1
290
     0
176
     1
 90
       50
176
     1
 90
       50
176
     1
 90
       50
176
     1
290
     0
176
     1
 90
       50
176
     1
 62
   256
176
     0
 40
1.0
176
     0
 90
        2
176
     1
  1
strokes_ogs.tif
176
     1
290
     0
176
     1
 40
1.0
176
     1
 40
1.0
176
     1
  0
VISUALSTYLE
  5
262
102
{ACAD_REACTORS
330
251
102
}
330
251
100
AcDbVisualStyle
  2
JitterOff
 70
    20
177
     3
291
     1
 70
    58
 90
        2
176
     0
 90
        2
176
     0
 90
        0
176
     0
 90
        0
176
     0
 40
0.6
176
     0
 40
30.0
176
     0
 62
     7
420
 16777215
176
     0
 90
        1
176
     0
 90
        4
176
     0
 62
     7
176
     0
 62
   257
176
     0
 90
        1
176
     0
 90
        1
176
     0
 40
1.0
176
     0
 90
       10
176
     2
 62
     7
176
     0
 40
1.0
176
     0
 90
        1
176
     0
 90
        6
176
     0
 90
        2
176
     0
 62
     7
176
     0
 90
        5
176
     0
 90
        0
176
     0
 90
        0
176
     0
290
     0
176
     0
 90
        1
176
     0
 40
0.0
176
     0
 90
        0
176
     0
290
     0
176
     0
290
     1
176
     0
290
     1
176
     0
290
     0
176
     0
290
     0
176
     0
290
     0
176
     0
290
     0
176
     0
290
     0
176
     0
290
     0
176
     0
 90
       50
176
     0
 40
0.0
176
     0
 40
1.0
176
     0
 90
        0
176
     0
 62
    18
420
        0
176
     0
 90
       50
176
     0
 90
        3
176
     0
 62
     5
420
      255
176
     0
290
     0
176
     0
 90
       50
176
     0
 90
       50
176
     0
 90
       50
176
     0
290
     0
176
     0
 90
       50
176
     0
 62
   256
176
     0
 40
1.0
176
     0
 90
        2
176
     0
  1
strokes_ogs.tif
176
     0
290
     0
176
     0
 40
1.0
176
     0
 40
1.0
176
     0
  0
VISUALSTYLE
  5
25F
102
{ACAD_REACTORS
330
251
102
}
330
251
100
AcDbVisualStyle
  2
Linepattern
 70
    14
177
     3
291
     1
 70
    58
 90
        2
176
     1
 90
        2
176
     1
 90
        0
176
     1
 90
        0
176
     1
 40
0.6
176
     1
 40
30.0
176
     1
 62
     7
420
 16777215
176
     1
 90
        1
176
     1
 90
        4
176
     1
 62
     7
176
     1
 62
   257
176
     1
 90
        7
176
     1
 90
        7
176
     1
 40
1.0
176
     1
 90
        8
176
     1
 62
     7
176
     1
 40
1.0
176
     1
 90
        1
176
     1
 90
        6
176
     1
 90
        2
176
     1
 62
     7
176
     1
 90
        5
176
     1
 90
        0
176
     1
 90
        0
176
     1
290
     0
176
     1
 90
        1
176
     1
 40
0.0
176
     1
 90
        0
176
     1
290
     0
176
     1
290
     1
176
     1
290
     1
176
     1
290
     0
176
     1
290
     0
176
     1
290
     0
176
     1
290
     0
176
     1
290
     0
176
     1
290
     0
176
     1
 90
       50
176
     1
 40
0.0
176
     1
 40
1.0
176
     1
 90
        0
176
     1
 62
    18
420
        0
176
     1
 90
       50
176
     1
 90
        3
176
     1
 62
     5
420
      255
176
     1
290
     0
176
     1
 90
       50
176
     1
 90
       50
176
     1
 90
       50
176
     1
290
     0
176
     1
 90
       50
176
     1
 62
   256
176
     0
 40
1.0
176
     0
 90
        2
176
     1
  1
strokes_ogs.tif
176
     1
290
     0
176
     1
 40
1.0
176
     1
 40
1.0
176
     1
  0
VISUALSTYLE
  5
263
102
{ACAD_REACTORS
330
251
102
}
330
251
100
AcDbVisualStyle
  2
OverhangOff
 70
    21
177
     3
291
     1
 70
    58
 90
        2
176
     0
 90
        2
176
     0
 90
        0
176
     0
 90
        0
176
     0
 40
0.6
176
     0
 40
30.0
176
     0
 62
     7
420
 16777215
176
     0
 90
        1
176
     0
 90
        4
176
     0
 62
     7
176
     0
 62
   257
176
     0
 90
        1
176
     0
 90
        1
176
     0
 40
1.0
176
     0
 90
        9
176
     2
 62
     7
176
     0
 40
1.0
176
     0
 90
        1
176
     0
 90
        6
176
     0
 90
        2
176
     0
 62
     7
176
     0
 90
        5
176
     0
 90
        0
176
     0
 90
        0
176
     0
290
     0
176
     0
 90
        1
176
     0
 40
0.0
176
     0
 90
        0
176
     0
290
     0
176
     0
290
     1
176
     0
290
     1
176
     0
290
     0
176
     0
290
     0
176
     0
290
     0
176
     0
290
     0
176
     0
290
     0
176
     0
290
     0
176
     0
 90
       50
176
     0
 40
0.0
176
     0
 40
1.0
176
     0
 90
        0
176
     0
 62
    18
420
        0
176
     0
 90
       50
176
     0
 90
        3
176
     0
 62
     5
420
      255
176
     0
290
     0
176
     0
 90
       50
176
     0
 90
       50
176
     0
 90
       50
176
     0
290
     0
176
     0
 90
       50
176
     0
 62
   256
176
     0
 40
1.0
176
     0
 90
        2
176
     0
  1
strokes_ogs.tif
176
     0
290
     0
176
     0
 40
1.0
176
     0
 40
1.0
176
     0
  0
VISUALSTYLE
  5
25A
102
{ACAD_REACTORS
330
251
102
}
330
251
100
AcDbVisualStyle
  2
Realistic
 70
     8
177
     3
291
     0
 70
    58
 90
        2
176
     1
 90
        3
176
     1
 90
        0
176
     1
 90
        2
176
     1
 40
0.6
176
     1
 40
30.0
176
     1
 62
     7
420
 16777215
176
     1
 90
        0
176
     1
 90
        0
176
     1
 62
     7
176
     1
 62
   257
176
     1
 90
        1
176
     1
 90
        1
176
     1
 40
1.0
176
     1
 90
        8
176
     1
 62
   257
176
     1
 40
1.0
176
     1
 90
        1
176
     1
 90
        6
176
     1
 90
        2
176
     1
 62
     7
176
     1
 90
        3
176
     1
 90
        0
176
     1
 90
        0
176
     1
290
     0
176
     1
 90
       13
176
     1
 40
0.0
176
     1
 90
        0
176
     1
290
     0
176
     1
290
     1
176
     1
290
     1
176
     1
290
     0
176
     1
290
     0
176
     1
290
     0
176
     1
290
     0
176
     1
290
     0
176
     1
290
     0
176
     1
 90
       50
176
     1
 40
0.0
176
     1
 40
1.0
176
     1
 90
        0
176
     1
 62
    18
420
        0
176
     1
 90
       50
176
     1
 90
        3
176
     1
 62
     5
420
      255
176
     1
290
     0
176
     1
 90
       50
176
     1
 90
       50
176
     1
 90
       50
176
     1
290
     0
176
     1
 90
       50
176
     1
 62
   256
176
     0
 40
1.0
176
     0
 90
        2
176
     1
  1
strokes_ogs.tif
176
     1
290
     0
176
     1
 40
1.0
176
     1
 40
1.0
176
     1
  0
VISUALSTYLE
  5
269
102
{ACAD_REACTORS
330
251
102
}
330
251
100
AcDbVisualStyle
  2
Shaded
 70
    27
177
     3
291
     0
 70
    58
 90
        2
176
     1
 90
        2
176
     1
 90
        1
176
     1
 90
        2
176
     1
 40
0.6
176
     1
 40
30.0
176
     1
 62
     7
420
 16777215
176
     1
 90
        0
176
     1
 90
        4
176
     1
 62
     7
176
     1
 62
   257
176
     1
 90
        1
176
     1
 90
        1
176
     1
 40
1.0
176
     1
 90
        8
176
     1
 62
   257
176
     1
 40
1.0
176
     1
 90
        1
176
     1
 90
        6
176
     1
 90
        2
176
     1
 62
     8
420
  7895160
176
     1
 90
        3
176
     1
 90
        0
176
     1
 90
        0
176
     1
290
     0
176
     1
 90
        5
176
     1
 40
0.0
176
     1
 90
        0
176
     1
290
     0
176
     1
290
     1
176
     1
290
     1
176
     1
290
     0
176
     1
290
     0
176
     1
290
     0
176
     1
290
     0
176
     1
290
     0
176
     1
290
     0
176
     1
 90
       50
176
     1
 40
0.0
176
     1
 40
1.0
176
     1
 90
        0
176
     1
 62
    18
420
        0
176
     1
 90
       50
176
     1
 90
        3
176
     1
 62
     5
420
      255
176
     1
290
     0
176
     1
 90
       50
176
     1
 90
       50
176
     1
 90
       50
176
     1
290
     0
176
     1
 90
       50
176
     1
 62
   256
176
     0
 40
1.0
176
     0
 90
        2
176
     1
  1
strokes_ogs.tif
176
     1
290
     0
176
     1
 40
1.0
176
     1
 40
1.0
176
     1
  0
VISUALSTYLE
  5
268
102
{ACAD_REACTORS
330
251
102
}
330
251
100
AcDbVisualStyle
  2
Shaded with edges
 70
    26
177
     3
291
     0
 70
    58
 90
        2
176
     1
 90
        2
176
     1
 90
        1
176
     1
 90
        2
176
     1
 40
0.6
176
     1
 40
30.0
176
     1
 62
     7
420
 16777215
176
     1
 90
        1
176
     1
 90
       10
176
     1
 62
     7
176
     1
 62
   257
176
     1
 90
        2
176
     1
 90
        1
176
     1
 40
1.0
176
     1
 90
        8
176
     1
 62
   257
176
     1
 40
1.0
176
     1
 90
        1
176
     1
 90
        6
176
     1
 90
        2
176
     1
 62
     7
176
     1
 90
        3
176
     1
 90
        0
176
     1
 90
        0
176
     1
290
     0
176
     1
 90
        5
176
     1
 40
0.0
176
     1
 90
        0
176
     1
290
     0
176
     1
290
     1
176
     1
290
     1
176
     1
290
     0
176
     1
290
     0
176
     1
290
     0
176
     1
290
     0
176
     1
290
     0
176
     1
290
     0
176
     1
 90
       50
176
     1
 40
0.0
176
     1
 40
1.0
176
     1
 90
        0
176
     1
 62
    18
420
        0
176
     1
 90
       50
176
     1
 90
        3
176
     1
 62
     5
420
      255
176
     1
290
     0
176
     1
 90
       50
176
     1
 90
       50
176
     1
 90
       50
176
     1
290
     0
176
     1
 90
       50
176
     1
 62
   256
176
     0
 40
1.0
176
     0
 90
        2
176
     1
  1
strokes_ogs.tif
176
     1
290
     0
176
     1
 40
1.0
176
     1
 40
1.0
176
     1
  0
VISUALSTYLE
  5
265
102
{ACAD_REACTORS
330
251
102
}
330
251
100
AcDbVisualStyle
  2
Shades of Gray
 70
    23
177
     3
291
     0
 70
    58
 90
        2
176
     1
 90
        2
176
     1
 90
        3
176
     1
 90
        0
176
     1
 40
0.6
176
     1
 40
30.0
176
     1
 62
     7
420
 16777215
176
     1
 90
        2
176
     1
 90
        2
176
     1
 62
     7
176
     1
 62
     7
176
     1
 90
        1
176
     1
 90
        1
176
     1
 40
40.0
176
     1
 90
        8
176
     1
 62
     7
176
     1
 40
1.0
176
     1
 90
        1
176
     1
 90
        6
176
     1
 90
        2
176
     1
 62
     7
176
     1
 90
        3
176
     1
 90
        0
176
     1
 90
        0
176
     1
290
     0
176
     1
 90
        1
176
     1
 40
0.0
176
     1
 90
        0
176
     1
290
     0
176
     1
290
     1
176
     1
290
     1
176
     1
290
     0
176
     1
290
     0
176
     1
290
     0
176
     1
290
     0
176
     1
290
     0
176
     1
290
     0
176
     1
 90
       50
176
     1
 40
0.0
176
     1
 40
1.0
176
     1
 90
        0
176
     1
 62
    18
420
        0
176
     1
 90
       50
176
     1
 90
        3
176
     1
 62
     5
420
      255
176
     1
290
     0
176
     1
 90
       50
176
     1
 90
       50
176
     1
 90
       50
176
     1
290
     0
176
     1
 90
       50
176
     1
 62
   256
176
     0
 40
1.0
176
     0
 90
        2
176
     1
  1
strokes_ogs.tif
176
     1
290
     0
176
     1
 40
1.0
176
     1
 40
1.0
176
     1
  0
VISUALSTYLE
  5
266
102
{ACAD_REACTORS
330
251
102
}
330
251
100
AcDbVisualStyle
  2
Sketchy
 70
    24
177
     3
291
     0
 70
    58
 90
        1
176
     1
 90
        2
176
     1
 90
        2
176
     1
 90
        0
176
     1
 40
0.6
176
     1
 40
30.0
176
     1
 62
     7
420
 16777215
176
     1
 90
        2
176
     1
 90
        2
176
     1
 62
     7
176
     1
 62
     7
176
     1
 90
        1
176
     1
 90
        1
176
     1
 40
40.0
176
     1
 90
       11
176
     1
 62
     7
176
     1
 40
1.0
176
     1
 90
        1
176
     1
 90
        6
176
     1
 90
        2
176
     1
 62
     7
176
     1
 90
        6
176
     1
 90
        0
176
     1
 90
        0
176
     1
290
     0
176
     1
 90
        1
176
     1
 40
0.0
176
     1
 90
        0
176
     1
290
     0
176
     1
290
     1
176
     1
290
     1
176
     1
290
     0
176
     1
290
     0
176
     1
290
     0
176
     1
290
     0
176
     1
290
     0
176
     1
290
     0
176
     1
 90
       50
176
     1
 40
0.0
176
     1
 40
1.0
176
     1
 90
        0
176
     1
 62
    18
420
        0
176
     1
 90
       50
176
     1
 90
        3
176
     1
 62
     5
420
      255
176
     1
290
     0
176
     1
 90
       50
176
     1
 90
       50
176
     1
 90
       50
176
     1
290
     0
176
     1
 90
       50
176
     1
 62
   256
176
     0
 40
1.0
176
     0
 90
        2
176
     1
  1
strokes_ogs.tif
176
     1
290
     0
176
     1
 40
1.0
176
     1
 40
1.0
176
     1
  0
VISUALSTYLE
  5
25E
102
{ACAD_REACTORS
330
251
102
}
330
251
100
AcDbVisualStyle
  2
Thicken
 70
    13
177
     3
291
     1
 70
    58
 90
        2
176
     1
 90
        2
176
     1
 90
        0
176
     1
 90
        0
176
     1
 40
0.6
176
     1
 40
30.0
176
     1
 62
     7
420
 16777215
176
     1
 90
        1
176
     1
 90
        4
176
     1
 62
     7
176
     1
 62
   257
176
     1
 90
        1
176
     1
 90
        1
176
     1
 40
1.0
176
     1
 90
       12
176
     1
 62
     7
176
     1
 40
1.0
176
     1
 90
        1
176
     1
 90
        6
176
     1
 90
        2
176
     1
 62
     7
176
     1
 90
        5
176
     1
 90
        0
176
     1
 90
        0
176
     1
290
     0
176
     1
 90
        1
176
     1
 40
0.0
176
     1
 90
        0
176
     1
290
     0
176
     1
290
     1
176
     1
290
     1
176
     1
290
     0
176
     1
290
     0
176
     1
290
     0
176
     1
290
     0
176
     1
290
     0
176
     1
290
     0
176
     1
 90
       50
176
     1
 40
0.0
176
     1
 40
1.0
176
     1
 90
        0
176
     1
 62
    18
420
        0
176
     1
 90
       50
176
     1
 90
        3
176
     1
 62
     5
420
      255
176
     1
290
     0
176
     1
 90
       50
176
     1
 90
       50
176
     1
 90
       50
176
     1
290
     0
176
     1
 90
       50
176
     1
 62
   256
176
     0
 40
1.0
176
     0
 90
        2
176
     1
  1
strokes_ogs.tif
176
     1
290
     0
176
     1
 40
1.0
176
     1
 40
1.0
176
     1
  0
VISUALSTYLE
  5
257
102
{ACAD_REACTORS
330
251
102
}
330
251
100
AcDbVisualStyle
  2
Wireframe
 70
     5
177
     3
291
     0
 70
    58
 90
        0
176
     1
 90
        2
176
     1
 90
        0
176
     1
 90
        0
176
     1
 40
0.6
176
     1
 40
30.0
176
     1
 62
     7
420
 16777215
176
     1
 90
        1
176
     1
 90
        4
176
     1
 62
     7
176
     1
 62
   257
176
     1
 90
        1
176
     1
 90
        1
176
     1
 40
1.0
176
     1
 90
        0
176
     1
 62
   257
176
     1
 40
1.0
176
     1
 90
        1
176
     1
 90
        6
176
     1
 90
        2
176
     1
 62
     7
176
     1
 90
        3
176
     1
 90
        0
176
     1
 90
        0
176
     1
290
     0
176
     1
 90
        1
176
     1
 40
0.0
176
     1
 90
        0
176
     1
290
     0
176
     1
290
     1
176
     1
290
     1
176
     1
290
     0
176
     1
290
     0
176
     1
290
     0
176
     1
290
     0
176
     1
290
     0
176
     1
290
     0
176
     1
 90
       50
176
     1
 40
0.0
176
     1
 40
1.0
176
     1
 90
        0
176
     1
 62
    18
420
        0
176
     1
 90
       50
176
     1
 90
        3
176
     1
 62
     5
420
      255
176
     1
290
     0
176
     1
 90
       50
176
     1
 90
       50
176
     1
 90
       50
176
     1
290
     0
176
     1
 90
       50
176
     1
 62
   256
176
     0
 40
1.0
176
     0
 90
        2
176
     1
  1
strokes_ogs.tif
176
     1
290
     0
176
     1
 40
1.0
176
     1
 40
1.0
176
     1
  0
VISUALSTYLE
  5
267
102
{ACAD_REACTORS
330
251
102
}
330
251
100
AcDbVisualStyle
  2
X-Ray
 70
    25
177
     3
291
     0
 70
    58
 90
        2
176
     1
 90
        2
176
     1
 90
        1
176
     1
 90
        1
176
     1
 40
0.5
176
     1
 40
30.0
176
     1
 62
     7
420
 16777215
176
     1
 90
        1
176
     1
 90
        0
176
     1
 62
     7
176
     1
 62
   257
176
     1
 90
        1
176
     1
 90
        1
176
     1
 40
1.0
176
     1
 90
        8
176
     1
 62
     7
176
     1
 40
1.0
176
     1
 90
        1
176
     1
 90
        6
176
     1
 90
        2
176
     1
 62
     7
176
     1
 90
        3
176
     1
 90
        0
176
     1
 90
        0
176
     1
290
     0
176
     1
 90
       13
176
     1
 40
0.0
176
     1
 90
        0
176
     1
290
     0
176
     1
290
     1
176
     1
290
     1
176
     1
290
     0
176
     1
290
     0
176
     1
290
     0
176
     1
290
     0
176
     1
290
     0
176
     1
290
     0
176
     1
 90
       50
176
     1
 40
0.0
176
     1
 40
1.0
176
     1
 90
        0
176
     1
 62
    18
420
        0
176
     1
 90
       50
176
     1
 90
        3
176
     1
 62
     5
420
      255
176
     1
290
     0
176
     1
 90
       50
176
     1
 90
       50
176
     1
 90
       50
176
     1
290
     0
176
     1
 90
       50
176
     1
 62
   256
176
     0
 40
1.0
176
     0
 90
        2
176
     1
  1
strokes_ogs.tif
176
     1
290
     0
176
     1
 40
1.0
176
     1
 40
1.0
176
     1
  0
DICTIONARYVAR
  5
3E2
102
{ACAD_REACTORS
330
3E1
102
}
330
3E1
100
DictionaryVariables
280
     0
  1
1:1
  0
XRECORD
  5
293
102
{ACAD_REACTORS
330
292
102
}
330
292
100
AcDbXrecord
280
     1
1000
Grayscale
  0
XRECORD
  5
294
102
{ACAD_REACTORS
330
292
102
}
330
292
100
AcDbXrecord
280
     1
 40
0.0
  0
XRECORD
  5
295
102
{ACAD_REACTORS
330
292
102
}
330
292
100
AcDbXrecord
280
     1
 40
0.0
  0
XRECORD
  5
296
102
{ACAD_REACTORS
330
292
102
}
330
292
100
AcDbXrecord
280
     1
290
     0
  0
XRECORD
  5
297
102
{ACAD_REACTORS
330
292
102
}
330
292
100
AcDbXrecord
280
     1
 40
2.0
  0
XRECORD
  5
298
102
{ACAD_REACTORS
330
292
102
}
330
292
100
AcDbXrecord
280
     1
 40
4.0
  0
XRECORD
  5
299
102
{ACAD_REACTORS
330
292
102
}
330
292
100
AcDbXrecord
280
     1
290
     1
  0
XRECORD
  5
29A
102
{ACAD_REACTORS
330
292
102
}
330
292
100
AcDbXrecord
280
     1
290
     1
  0
XRECORD
  5
29B
102
{ACAD_REACTORS
330
292
102
}
330
292
100
AcDbXrecord
280
     1
290
     1
  0
XRECORD
  5
29C
102
{ACAD_REACTORS
330
292
102
}
330
292
100
AcDbXrecord
280
     1
290
     1
  0
XRECORD
  5
29D
102
{ACAD_REACTORS
330
292
102
}
330
292
100
AcDbXrecord
280
     1
290
     1
  0
XRECORD
  5
29E
102
{ACAD_REACTORS
330
292
102
}
330
292
100
AcDbXrecord
280
     1
1000
auto
  0
XRECORD
  5
29F
102
{ACAD_REACTORS
330
292
102
}
330
292
100
AcDbXrecord
280
     1
1000
auto
  0
XRECORD
  5
2A0
102
{ACAD_REACTORS
330
292
102
}
330
292
100
AcDbXrecord
280
     1
1000
auto
  0
XRECORD
  5
2A1
102
{ACAD_REACTORS
330
292
102
}
330
292
100
AcDbXrecord
280
     1
1000
auto
  0
XRECORD
  5
2A2
102
{ACAD_REACTORS
330
292
102
}
330
292
100
AcDbXrecord
280
     1
1000
auto
  0
XRECORD
  5
2A3
102
{ACAD_REACTORS
330
292
102
}
330
292
100
AcDbXrecord
280
     1
1000
auto
  0
XRECORD
  5
2A4
102
{ACAD_REACTORS
330
292
102
}
330
292
100
AcDbXrecord
280
     1
1000
auto
  0
XRECORD
  5
2A5
102
{ACAD_REACTORS
330
292
102
}
330
292
100
AcDbXrecord
280
     1
1000
auto
  0
XRECORD
  5
2A6
102
{ACAD_REACTORS
330
292
102
}
330
292
100
AcDbXrecord
280
     1
1000
auto
  0
XRECORD
  5
2A7
102
{ACAD_REACTORS
330
292
102
}
330
292
100
AcDbXrecord
280
     1
1000
auto
  0
XRECORD
  5
2A8
102
{ACAD_REACTORS
330
292
102
}
330
292
100
AcDbXrecord
280
     1
290
     0
  0
XRECORD
  5
2A9
102
{ACAD_REACTORS
330
292
102
}
330
292
100
AcDbXrecord
280
     1
290
     0
  0
XRECORD
  5
2AA
102
{ACAD_REACTORS
330
292
102
}
330
292
100
AcDbXrecord
280
     1
290
     0
  0
XRECORD
  5
2AB
102
{ACAD_REACTORS
330
292
102
}
330
292
100
AcDbXrecord
280
     1
290
     0
  0
XRECORD
  5
2AC
102
{ACAD_REACTORS
330
292
102
}
330
292
100
AcDbXrecord
280
     1
 90
        0
  0
XRECORD
  5
2AD
102
{ACAD_REACTORS
330
292
102
}
330
292
100
AcDbXrecord
280
     1
 90
        0
  0
XRECORD
  5
2AE
102
{ACAD_REACTORS
330
292
102
}
330
292
100
AcDbXrecord
280
     1
 90
        0
  0
XRECORD
  5
2AF
102
{ACAD_REACTORS
330
292
102
}
330
292
100
AcDbXrecord
280
     1
 90
        0
  0
XRECORD
  5
2B0
102
{ACAD_REACTORS
330
292
102
}
330
292
100
AcDbXrecord
280
     1
1000
auto
  0
XRECORD
  5
2B1
102
{ACAD_REACTORS
330
292
102
}
330
292
100
AcDbXrecord
280
     1
1000
auto
  0
XRECORD
  5
2B2
102
{ACAD_REACTORS
330
292
102
}
330
292
100
AcDbXrecord
280
     1
1000
auto
  0
XRECORD
  5
2B3
102
{ACAD_REACTORS
330
292
102
}
330
292
100
AcDbXrecord
280
     1
1000
auto
  0
XRECORD
  5
2B4
102
{ACAD_REACTORS
330
292
102
}
330
292
100
AcDbXrecord
280
     1
1000
auto
  0
XRECORD
  5
2B5
102
{ACAD_REACTORS
330
292
102
}
330
292
100
AcDbXrecord
280
     1
1000
auto
  0
XRECORD
  5
2B6
102
{ACAD_REACTORS
330
292
102
}
330
292
100
AcDbXrecord
280
     1
1000
auto
  0
XRECORD
  5
2B7
102
{ACAD_REACTORS
330
292
102
}
330
292
100
AcDbXrecord
280
     1
1000
auto
  0
XRECORD
  5
2B8
102
{ACAD_REACTORS
330
292
102
}
330
292
100
AcDbXrecord
280
     1
1000
auto
  0
XRECORD
  5
2B9
102
{ACAD_REACTORS
330
292
102
}
330
292
100
AcDbXrecord
280
     1
1000
auto
  0
XRECORD
  5
2BA
102
{ACAD_REACTORS
330
292
102
}
330
292
100
AcDbXrecord
280
     1
 90
        1
  0
XRECORD
  5
2BB
102
{ACAD_REACTORS
330
292
102
}
330
292
100
AcDbXrecord
280
     1
 40
10.0
  0
XRECORD
  5
2BC
102
{ACAD_REACTORS
330
292
102
}
330
292
100
AcDbXrecord
280
     1
 40
10.0
  0
XRECORD
  5
2BD
102
{ACAD_REACTORS
330
292
102
}
330
292
100
AcDbXrecord
280
     1
 40
10.0
  0
XRECORD
  5
2BE
102
{ACAD_REACTORS
330
292
102
}
330
292
100
AcDbXrecord
280
     1
 40
10.0
  0
XRECORD
  5
2BF
102
{ACAD_REACTORS
330
292
102
}
330
292
100
AcDbXrecord
280
     1
 40
10.0
  0
XRECORD
  5
2C0
102
{ACAD_REACTORS
330
292
102
}
330
292
100
AcDbXrecord
280
     1
290
     1
  0
XRECORD
  5
2C1
102
{ACAD_REACTORS
330
292
102
}
330
292
100
AcDbXrecord
280
     1
 90
        1
  0
XRECORD
  5
2C2
102
{ACAD_REACTORS
330
292
102
}
330
292
100
AcDbXrecord
280
     1
 40
-83.21273349431135
  0
XRECORD
  5
2C3
102
{ACAD_REACTORS
330
292
102
}
330
292
100
AcDbXrecord
280
     1
 40
-187.3190423083268
  0
XRECORD
  5
2C4
102
{ACAD_REACTORS
330
292
102
}
330
292
100
AcDbXrecord
280
     1
1000
Landscape
  0
XRECORD
  5
2C5
102
{ACAD_REACTORS
330
292
102
}
330
292
100
AcDbXrecord
280
     1
 40
297.0
  0
XRECORD
  5
2C6
102
{ACAD_REACTORS
330
292
102
}
330
292
100
AcDbXrecord
280
     1
 40
210.0
  0
XRECORD
  5
2C7
102
{ACAD_REACTORS
330
292
102
}
330
292
100
AcDbXrecord
280
     1
1000
1:2
  0
XRECORD
  5
2C8
102
{ACAD_REACTORS
330
292
102
}
330
292
100
AcDbXrecord
280
     1
290
     0
  0
XRECORD
  5
2C9
102
{ACAD_REACTORS
330
292
102
}
330
292
100
AcDbXrecord
280
     1
290
     1
  0
XRECORD
  5
2CA
102
{ACAD_REACTORS
330
292
102
}
330
292
100
AcDbXrecord
280
     1
290
     1
  0
XRECORD
  5
2CB
102
{ACAD_REACTORS
330
292
102
}
330
292
100
AcDbXrecord
280
     1
 90
        4
  0
ENDSEC
  0
EOF
