  0
SECTION
  2
HEADER
  9
$ACADVER
  1
AC1027
  9
$ACADMAINTVER
 70
     8
  9
$DWGCODEPAGE
  3
ANSI_1252
  9
$REQUIREDVERSIONS
160
                 0
  9
$INSBASE
 10
0.0
 20
0.0
 30
0.0
  9
$EXTMIN
 10
1.000000000000000E+20
 20
1.000000000000000E+20
 30
1.000000000000000E+20
  9
$EXTMAX
 10
-1.000000000000000E+20
 20
-1.000000000000000E+20
 30
-1.000000000000000E+20
  9
$LIMMIN
 10
0.0
 20
0.0
  9
$LIMMAX
 10
12.0
 20
9.0
  9
$ORTHOMODE
 70
     0
  9
$REGENMODE
 70
     1
  9
$FILLMODE
 70
     1
  9
$QTEXTMODE
 70
     0
  9
$MIRRTEXT
 70
     1
  9
$LTSCALE
 40
1.0
  9
$ATTMODE
 70
     1
  9
$TEXTSIZE
 40
0.2
  9
$TRACEWID
 40
0.05
  9
$TEXTSTYLE
  7
Standard
  9
$CLAYER
  8
0
  9
$CELTYPE
  6
ByLayer
  9
$CECOLOR
 62
   256
  9
$CELTSCALE
 40
1.0
  9
$DISPSILH
 70
     0
  9
$DIMSCALE
 40
1.0
  9
$DIMASZ
 40
2.5
  9
$DIMEXO
 40
0.625
  9
$DIMDLI
 40
0.38
  9
$DIMRND
 40
0.0
  9
$DIMDLE
 40
0.0
  9
$DIMEXE
 40
1.25
  9
$DIMTP
 40
0.0
  9
$DIMTM
 40
0.0
  9
$DIMTXT
 40
2.5
  9
$DIMCEN
 40
0.09
  9
$DIMTSZ
 40
0.0
  9
$DIMTOL
 70
     0
  9
$DIMLIM
 70
     0
  9
$DIMTIH
 70
     1
  9
$DIMTOH
 70
     1
  9
$DIMSE1
 70
     0
  9
$DIMSE2
 70
     0
  9
$DIMTAD
 70
     0
  9
$DIMZIN
 70
     8
  9
$DIMBLK
  1

  9
$DIMASO
 70
     1
  9
$DIMSHO
 70
     1
  9
$DIMPOST
  1

  9
$DIMAPOST
  1

  9
$DIMALT
 70
     0
  9
$DIMALTD
 70
     2
  9
$DIMALTF
 40
25.4
  9
$DIMLFAC
 40
1.0
  9
$DIMTOFL
 70
     0
  9
$DIMTVP
 40
0.0
  9
$DIMTIX
 70
     0
  9
$DIMSOXD
 70
     0
  9
$DIMSAH
 70
     0
  9
$DIMBLK1
  1

  9
$DIMBLK2
  1

  9
$DIMSTYLE
  2
Standard
  9
$DIMCLRD
 70
     0
  9
$DIMCLRE
 70
     0
  9
$DIMCLRT
 70
     0
  9
$DIMTFAC
 40
1.0
  9
$DIMGAP
 40
0.625
  9
$DIMJUST
 70
     0
  9
$DIMSD1
 70
     0
  9
$DIMSD2
 70
     0
  9
$DIMTOLJ
 70
     1
  9
$DIMTZIN
 70
     0
  9
$DIMALTZ
 70
     0
  9
$DIMALTTZ
 70
     0
  9
$DIMUPT
 70
     0
  9
$DIMDEC
 70
     1
  9
$DIMTDEC
 70
     4
  9
$DIMALTU
 70
     2
  9
$DIMALTTD
 70
     2
  9
$DIMTXSTY
  7
Standard
  9
$DIMAUNIT
 70
     0
  9
$DIMADEC
 70
     1
  9
$DIMALTRND
 40
0.0
  9
$DIMAZIN
 70
     2
  9
$DIMDSEP
 70
    46
  9
$DIMATFIT
 70
     3
  9
$DIMFRAC
 70
     0
  9
$DIMLDRBLK
  1

  9
$DIMLUNIT
 70
     2
  9
$DIMLWD
 70
    -2
  9
$DIMLWE
 70
    -2
  9
$DIMTMOVE
 70
     0
  9
$DIMFXL
 40
1.0
  9
$DIMFXLON
 70
     0
  9
$DIMJOGANG
 40
0.7853981633974483
  9
$DIMTFILL
 70
     0
  9
$DIMTFILLCLR
 70
     0
  9
$DIMARCSYM
 70
     0
  9
$DIMLTYPE
  6

  9
$DIMLTEX1
  6

  9
$DIMLTEX2
  6

  9
$DIMTXTDIRECTION
 70
     0
  9
$LUNITS
 70
     2
  9
$LUPREC
 70
     4
  9
$SKETCHINC
 40
0.1
  9
$FILLETRAD
 40
0.5
  9
$AUNITS
 70
     0
  9
$AUPREC
 70
     0
  9
$MENU
  1
.
  9
$ELEVATION
 40
0.0
  9
$PELEVATION
 40
0.0
  9
$THICKNESS
 40
0.0
  9
$LIMCHECK
 70
     0
  9
$CHAMFERA
 40
0.0
  9
$CHAMFERB
 40
0.0
  9
$CHAMFERC
 40
0.0
  9
$CHAMFERD
 40
0.0
  9
$SKPOLY
 70
     0
  9
$TDCREATE
 40
2456706.550253599
  9
$TDUCREATE
 40
2456706.508586933
  9
$TDUPDATE
 40
2456706.550253773
  9
$TDUUPDATE
 40
2456706.508587107
  9
$TDINDWG
 40
0.0000000116
  9
$TDUSRTIMER
 40
0.0000000116
  9
$USRTIMER
 70
     1
  9
$ANGBASE
 50
0.0
  9
$ANGDIR
 70
     0
  9
$PDMODE
 70
     0
  9
$PDSIZE
 40
0.0
  9
$PLINEWID
 40
0.0
  9
$SPLFRAME
 70
     0
  9
$SPLINETYPE
 70
     6
  9
$SPLINESEGS
 70
     8
  9
$HANDSEED
  5
347
  9
$SURFTAB1
 70
     6
  9
$SURFTAB2
 70
     6
  9
$SURFTYPE
 70
     6
  9
$SURFU
 70
     6
  9
$SURFV
 70
     6
  9
$UCSBASE
  2

  9
$UCSNAME
  2

  9
$UCSORG
 10
0.0
 20
0.0
 30
0.0
  9
$UCSXDIR
 10
1.0
 20
0.0
 30
0.0
  9
$UCSYDIR
 10
0.0
 20
1.0
 30
0.0
  9
$UCSORTHOREF
  2

  9
$UCSORTHOVIEW
 70
     0
  9
$UCSORGTOP
 10
0.0
 20
0.0
 30
0.0
  9
$UCSORGBOTTOM
 10
0.0
 20
0.0
 30
0.0
  9
$UCSORGLEFT
 10
0.0
 20
0.0
 30
0.0
  9
$UCSORGRIGHT
 10
0.0
 20
0.0
 30
0.0
  9
$UCSORGFRONT
 10
0.0
 20
0.0
 30
0.0
  9
$UCSORGBACK
 10
0.0
 20
0.0
 30
0.0
  9
$PUCSBASE
  2

  9
$PUCSNAME
  2

  9
$PUCSORG
 10
0.0
 20
0.0
 30
0.0
  9
$PUCSXDIR
 10
1.0
 20
0.0
 30
0.0
  9
$PUCSYDIR
 10
0.0
 20
1.0
 30
0.0
  9
$PUCSORTHOREF
  2

  9
$PUCSORTHOVIEW
 70
     0
  9
$PUCSORGTOP
 10
0.0
 20
0.0
 30
0.0
  9
$PUCSORGBOTTOM
 10
0.0
 20
0.0
 30
0.0
  9
$PUCSORGLEFT
 10
0.0
 20
0.0
 30
0.0
  9
$PUCSORGRIGHT
 10
0.0
 20
0.0
 30
0.0
  9
$PUCSORGFRONT
 10
0.0
 20
0.0
 30
0.0
  9
$PUCSORGBACK
 10
0.0
 20
0.0
 30
0.0
  9
$USERI1
 70
     0
  9
$USERI2
 70
     0
  9
$USERI3
 70
     0
  9
$USERI4
 70
     0
  9
$USERI5
 70
     0
  9
$USERR1
 40
0.0
  9
$USERR2
 40
0.0
  9
$USERR3
 40
0.0
  9
$USERR4
 40
0.0
  9
$USERR5
 40
0.0
  9
$WORLDVIEW
 70
     1
  9
$SHADEDGE
 70
     3
  9
$SHADEDIF
 70
    70
  9
$TILEMODE
 70
     1
  9
$MAXACTVP
 70
    64
  9
$PINSBASE
 10
0.0
 20
0.0
 30
0.0
  9
$PLIMCHECK
 70
     0
  9
$PEXTMIN
 10
1.000000000000000E+20
 20
1.000000000000000E+20
 30
1.000000000000000E+20
  9
$PEXTMAX
 10
-1.000000000000000E+20
 20
-1.000000000000000E+20
 30
-1.000000000000000E+20
  9
$PLIMMIN
 10
0.0
 20
0.0
  9
$PLIMMAX
 10
12.0
 20
9.0
  9
$UNITMODE
 70
     0
  9
$VISRETAIN
 70
     1
  9
$PLINEGEN
 70
     0
  9
$PSLTSCALE
 70
     1
  9
$TREEDEPTH
 70
  3020
  9
$CMLSTYLE
  2
Standard
  9
$CMLJUST
 70
     0
  9
$CMLSCALE
 40
1.0
  9
$PROXYGRAPHICS
 70
     1
  9
$MEASUREMENT
 70
     1
  9
$CELWEIGHT
370
    -1
  9
$ENDCAPS
280
     0
  9
$JOINSTYLE
280
     0
  9
$LWDISPLAY
290
     0
  9
$INSUNITS
 70
     4
  9
$HYPERLINKBASE
  1

  9
$STYLESHEET
  1

  9
$XEDIT
290
     1
  9
$CEPSNTYPE
380
     0
  9
$PSTYLEMODE
290
     1
  9
$FINGERPRINTGUID
  2
{046E4638-E0B4-44B2-84BD-5581E553783E}
  9
$VERSIONGUID
  2
{FAEB1C32-E019-11D5-929B-00C0DF256EC4}
  9
$EXTNAMES
290
     1
  9
$PSVPSCALE
 40
0.0
  9
$OLESTARTUP
290
     0
  9
$SORTENTS
280
   127
  9
$INDEXCTL
280
     0
  9
$HIDETEXT
280
     1
  9
$XCLIPFRAME
280
     2
  9
$HALOGAP
280
     0
  9
$OBSCOLOR
 70
   257
  9
$OBSLTYPE
280
     0
  9
$INTERSECTIONDISPLAY
280
     0
  9
$INTERSECTIONCOLOR
 70
   257
  9
$DIMASSOC
280
     2
  9
$PROJECTNAME
  1

  9
$CAMERADISPLAY
290
     0
  9
$LENSLENGTH
 40
50.0
  9
$CAMERAHEIGHT
 40
0.0
  9
$STEPSPERSEC
 40
2.0
  9
$STEPSIZE
 40
6.0
  9
$3DDWFPREC
 40
2.0
  9
$PSOLWIDTH
 40
0.25
  9
$PSOLHEIGHT
 40
4.0
  9
$LOFTANG1
 40
1.570796326794897
  9
$LOFTANG2
 40
1.570796326794897
  9
$LOFTMAG1
 40
0.0
  9
$LOFTMAG2
 40
0.0
  9
$LOFTPARAM
 70
     7
  9
$LOFTNORMALS
280
     1
  9
$LATITUDE
 40
37.795
  9
$LONGITUDE
 40
-122.394
  9
$NORTHDIRECTION
 40
0.0
  9
$TIMEZONE
 70
 -8000
  9
$LIGHTGLYPHDISPLAY
280
     1
  9
$TILEMODELIGHTSYNCH
280
     1
  9
$CMATERIAL
347
2C7
  9
$SOLIDHIST
280
     1
  9
$SHOWHIST
280
     1
  9
$DWFFRAME
280
     2
  9
$DGNFRAME
280
     2
  9
$REALWORLDSCALE
290
     1
  9
$INTERFERECOLOR
 62
   256
  9
$CSHADOW
280
     0
  9
$SHADOWPLANELOCATION
 40
0.0
  0
ENDSEC
  0
SECTION
  2
CLASSES
  0
CLASS
  1
ACDBDICTIONARYWDFLT
  2
AcDbDictionaryWithDefault
  3
ObjectDBX Classes
 90
        0
 91
        4
280
     0
281
     0
  0
CLASS
  1
VISUALSTYLE
  2
AcDbVisualStyle
  3
ObjectDBX Classes
 90
     4095
 91
        4
280
     0
281
     0
  0
CLASS
  1
MATERIAL
  2
AcDbMaterial
  3
ObjectDBX Classes
 90
     1153
 91
        4
280
     0
281
     0
  0
CLASS
  1
SCALE
  2
AcDbScale
  3
ObjectDBX Classes
 90
     1153
 91
        4
280
     0
281
     0
  0
CLASS
  1
SUN
  2
AcDbSun
  3
SCENEOE
 90
     1153
 91
        4
280
     0
281
     0
  0
CLASS
  1
DICTIONARYVAR
  2
AcDbDictionaryVar
  3
ObjectDBX Classes
 90
        0
 91
        4
280
     0
281
     0
  0
ENDSEC
  0
SECTION
  2
TABLES
  0
TABLE
  2
VPORT
  5
28C
330
0
100
AcDbSymbolTable
 70
     1
  0
VPORT
  5
2AC
330
28C
100
AcDbSymbolTableRecord
100
AcDbViewportTableRecord
  2
*Active
 70
     0
 10
0.0
 20
0.0
 11
1.0
 21
1.0
 12
10.42990654205607
 22
4.5
 13
0.0
 23
0.0
 14
0.5
 24
0.5
 15
0.5
 25
0.5
 16
0.0
 26
0.0
 36
1.0
 17
0.0
 27
0.0
 37
0.0
 40
9.0
 41
1.972972972850329
 42
50.0
 43
0.0
 44
0.0
 50
0.0
 51
0.0
 71
     0
 72
   100
 73
     1
 74
     3
 75
     0
 76
     0
 77
     0
 78
     0
281
     0
 65
     1
110
0.0
120
0.0
130
0.0
111
1.0
121
0.0
131
0.0
112
0.0
122
1.0
132
0.0
 79
     0
146
0.0
 60
     3
 61
     5
292
     1
282
     1
141
0.0
142
0.0
 63
   250
361
2EC
  0
ENDTAB
  0
TABLE
  2
LTYPE
  5
289
330
0
100
AcDbSymbolTable
 70
    19
  0
LTYPE
  5
297
330
289
100
AcDbSymbolTableRecord
100
AcDbLinetypeTableRecord
  2
ByBlock
 70
     0
  3

 72
    65
 73
     0
 40
0.0
  0
LTYPE
  5
298
330
289
100
AcDbSymbolTableRecord
100
AcDbLinetypeTableRecord
  2
ByLayer
 70
     0
  3

 72
    65
 73
     0
 40
0.0
  0
LTYPE
  5
299
330
289
100
AcDbSymbolTableRecord
100
AcDbLinetypeTableRecord
  2
Continuous
 70
     0
  3
Solid line
 72
    65
 73
     0
 40
0.0
  0
LTYPE
  5
31B
330
289
100
AcDbSymbolTableRecord
100
AcDbLinetypeTableRecord
  2
BORDER
 70
     0
  3

 72
    65
 73
     6
 40
42.00000000000001
 49
12.0
 74
     0
 49
-6.0
 74
     0
 49
12.0
 74
     0
 49
-5.95
 74
     0
 49
0.1
 74
     0
 49
-5.95
 74
     0
  0
LTYPE
  5
31C
330
289
100
AcDbSymbolTableRecord
100
AcDbLinetypeTableRecord
  2
BORDER2
 70
     0
  3

 72
    65
 73
     6
 40
21.0
 49
6.0
 74
     0
 49
-3.0
 74
     0
 49
6.0
 74
     0
 49
-2.95
 74
     0
 49
0.1
 74
     0
 49
-2.95
 74
     0
  0
LTYPE
  5
31D
330
289
100
AcDbSymbolTableRecord
100
AcDbLinetypeTableRecord
  2
BORDERX2
 70
     0
  3

 72
    65
 73
     6
 40
84.0
 49
24.0
 74
     0
 49
-12.0
 74
     0
 49
24.0
 74
     0
 49
-11.95
 74
     0
 49
0.1
 74
     0
 49
-11.95
 74
     0
  0
LTYPE
  5
31E
330
289
100
AcDbSymbolTableRecord
100
AcDbLinetypeTableRecord
  2
CENTER
 70
     0
  3

 72
    65
 73
     4
 40
50.0
 49
32.0
 74
     0
 49
-6.0
 74
     0
 49
6.0
 74
     0
 49
-6.0
 74
     0
  0
LTYPE
  5
31F
330
289
100
AcDbSymbolTableRecord
100
AcDbLinetypeTableRecord
  2
CENTER2
 70
     0
  3

 72
    65
 73
     4
 40
25.0
 49
16.0
 74
     0
 49
-3.0
 74
     0
 49
3.0
 74
     0
 49
-3.0
 74
     0
  0
LTYPE
  5
320
330
289
100
AcDbSymbolTableRecord
100
AcDbLinetypeTableRecord
  2
CENTERX2
 70
     0
  3

 72
    65
 73
     4
 40
100.0
 49
64.0
 74
     0
 49
-12.0
 74
     0
 49
12.0
 74
     0
 49
-12.0
 74
     0
  0
LTYPE
  5
321
330
289
100
AcDbSymbolTableRecord
100
AcDbLinetypeTableRecord
  2
DASHDOT
 70
     0
  3

 72
    65
 73
     4
 40
24.0
 49
12.0
 74
     0
 49
-5.95
 74
     0
 49
0.1
 74
     0
 49
-5.95
 74
     0
  0
LTYPE
  5
322
330
289
100
AcDbSymbolTableRecord
100
AcDbLinetypeTableRecord
  2
DASHDOT2
 70
     0
  3

 72
    65
 73
     4
 40
12.0
 49
6.0
 74
     0
 49
-2.95
 74
     0
 49
0.1
 74
     0
 49
-2.95
 74
     0
  0
LTYPE
  5
323
330
289
100
AcDbSymbolTableRecord
100
AcDbLinetypeTableRecord
  2
DASHDOTX2
 70
     0
  3

 72
    65
 73
     4
 40
48.0
 49
24.0
 74
     0
 49
-11.95
 74
     0
 49
0.1
 74
     0
 49
-11.95
 74
     0
  0
LTYPE
  5
324
330
289
100
AcDbSymbolTableRecord
100
AcDbLinetypeTableRecord
  2
DASHED
 70
     0
  3

 72
    65
 73
     2
 40
18.0
 49
12.0
 74
     0
 49
-6.0
 74
     0
  0
LTYPE
  5
325
330
289
100
AcDbSymbolTableRecord
100
AcDbLinetypeTableRecord
  2
DASHED2
 70
     0
  3

 72
    65
 73
     2
 40
9.0
 49
6.0
 74
     0
 49
-3.0
 74
     0
  0
LTYPE
  5
326
330
289
100
AcDbSymbolTableRecord
100
AcDbLinetypeTableRecord
  2
DASHEDX2
 70
     0
  3

 72
    65
 73
     2
 40
36.0
 49
24.0
 74
     0
 49
-12.0
 74
     0
  0
LTYPE
  5
327
330
289
100
AcDbSymbolTableRecord
100
AcDbLinetypeTableRecord
  2
DIVIDE
 70
     0
  3

 72
    65
 73
     6
 40
29.99999999999999
 49
12.0
 74
     0
 49
-5.9
 74
     0
 49
0.15
 74
     0
 49
-5.9
 74
     0
 49
0.15
 74
     0
 49
-5.9
 74
     0
  0
LTYPE
  5
328
330
289
100
AcDbSymbolTableRecord
100
AcDbLinetypeTableRecord
  2
DIVIDE2
 70
     0
  3

 72
    65
 73
     6
 40
15.0
 49
6.0
 74
     0
 49
-2.9
 74
     0
 49
0.15
 74
     0
 49
-2.9
 74
     0
 49
0.15
 74
     0
 49
-2.9
 74
     0
  0
LTYPE
  5
329
330
289
100
AcDbSymbolTableRecord
100
AcDbLinetypeTableRecord
  2
DIVIDEX2
 70
     0
  3

 72
    65
 73
     6
 40
59.99999999999999
 49
24.0
 74
     0
 49
-11.9
 74
     0
 49
0.15
 74
     0
 49
-11.9
 74
     0
 49
0.15
 74
     0
 49
-11.9
 74
     0
  0
LTYPE
  5
32A
330
289
100
AcDbSymbolTableRecord
100
AcDbLinetypeTableRecord
  2
DOT
 70
     0
  3

 72
    65
 73
     2
 40
6.3
 49
0.1
 74
     0
 49
-6.2
 74
     0
  0
LTYPE
  5
32B
330
289
100
AcDbSymbolTableRecord
100
AcDbLinetypeTableRecord
  2
DOT2
 70
     0
  3

 72
    65
 73
     2
 40
3.2
 49
0.1
 74
     0
 49
-3.1
 74
     0
  0
LTYPE
  5
32C
330
289
100
AcDbSymbolTableRecord
100
AcDbLinetypeTableRecord
  2
DOTX2
 70
     0
  3

 72
    65
 73
     2
 40
12.5
 49
0.1
 74
     0
 49
-12.4
 74
     0
  0
ENDTAB
  0
TABLE
  2
LAYER
  5
286
330
0
100
AcDbSymbolTable
 70
     2
  0
LAYER
  5
294
330
286
100
AcDbSymbolTableRecord
100
AcDbLayerTableRecord
  2
0
 70
     0
 62
     7
420
 16777215
  6
Continuous
370
    25
390
293
347
2C9
348
0
  0
LAYER
  5
335
330
286
100
AcDbSymbolTableRecord
100
AcDbLayerTableRecord
  2
Defpoints
 70
     0
 62
     7
  6
Continuous
290
     0
370
    -3
390
293
347
2C9
348
0
  0
ENDTAB
  0
TABLE
  2
STYLE
  5
287
330
0
100
AcDbSymbolTable
 70
     3
  0
STYLE
  5
295
330
287
100
AcDbSymbolTableRecord
100
AcDbTextStyleTableRecord
  2
Standard
 70
     0
 40
0.0
 41
1.0
 50
0.0
 71
     0
 42
0.2
  3
txt
  4

  0
STYLE
  5
333
330
287
100
AcDbSymbolTableRecord
100
AcDbTextStyleTableRecord
  2
textstyle0
 70
     0
 40
0.0
 41
1.0
 50
0.0
 71
     0
 42
0.2
  3
Standard
  4

1001
ACAD
1000
Standard
1071
        0
  0
STYLE
  5
334
330
287
100
AcDbSymbolTableRecord
100
AcDbTextStyleTableRecord
  2
textstyle1
 70
     0
 40
0.0
 41
1.0
 50
0.0
 71
     0
 42
0.2
  3
Standard
  4

1001
ACAD
1000
Standard
1071
        0
  0
ENDTAB
  0
TABLE
  2
VIEW
  5
28A
330
0
100
AcDbSymbolTable
 70
     0
  0
ENDTAB
  0
TABLE
  2
UCS
  5
28B
330
0
100
AcDbSymbolTable
 70
     0
  0
ENDTAB
  0
TABLE
  2
APPID
  5
28D
330
0
100
AcDbSymbolTable
 70
     2
  0
APPID
  5
296
330
28D
100
AcDbSymbolTableRecord
100
AcDbRegAppTableRecord
  2
ACAD
 70
     0
  0
APPID
  5
2ED
330
28D
100
AcDbSymbolTableRecord
100
AcDbRegAppTableRecord
  2
QCAD
 70
     0
  0
ENDTAB
  0
TABLE
  2
DIMSTYLE
  5
28E
330
0
100
AcDbSymbolTable
 70
     2
100
AcDbDimStyleTable
  0
DIMSTYLE
105
2AA
330
28E
100
AcDbSymbolTableRecord
100
AcDbDimStyleTableRecord
  2
Standard
 70
     0
178
     0
340
295
  0
DIMSTYLE
105
31A
102
{ACAD_REACTORS
330
283
102
}
330
28E
100
AcDbSymbolTableRecord
100
AcDbDimStyleTableRecord
  2
QCADDimStyle
 70
     0
 41
2.5
 42
0.625
 44
1.25
 73
     0
 77
     1
140
2.5
147
0.625
178
     0
340
295
  0
ENDTAB
  0
TABLE
  2
BLOCK_RECORD
  5
285
330
0
100
AcDbSymbolTable
 70
     4
  0
BLOCK_RECORD
  5
2A2
330
285
100
AcDbSymbolTableRecord
100
AcDbBlockTableRecord
  2
*Model_Space
340
2A5
 70
     0
280
     1
281
     0
  0
BLOCK_RECORD
  5
29E
330
285
100
AcDbSymbolTableRecord
100
AcDbBlockTableRecord
  2
*Paper_Space
340
2A1
 70
     0
280
     1
281
     0
  0
BLOCK_RECORD
  5
2A6
330
285
100
AcDbSymbolTableRecord
100
AcDbBlockTableRecord
  2
*Paper_Space0
340
2A9
 70
     0
280
     1
281
     0
  0
BLOCK_RECORD
  5
32D
330
285
100
AcDbSymbolTableRecord
100
AcDbBlockTableRecord
  2
demi
340
0
 70
     0
280
     1
281
     0
  0
BLOCK_RECORD
  5
330
330
285
100
AcDbSymbolTableRecord
100
AcDbBlockTableRecord
  2
De_a_lire_bague_de_lecture_v2
340
0
 70
     0
280
     1
281
     0
  0
BLOCK_RECORD
  5
336
330
285
100
AcDbSymbolTableRecord
100
AcDbBlockTableRecord
  2
*D3
340
0
 70
     0
280
     1
281
     0
  0
ENDTAB
  0
ENDSEC
  0
SECTION
  2
BLOCKS
  0
BLOCK
  5
2A3
330
2A2
100
AcDbEntity
  8
0
100
AcDbBlockBegin
  2
*Model_Space
 70
     0
 10
0.0
 20
0.0
 30
0.0
  3
*Model_Space
  1
*Model_Space
  0
ENDBLK
  5
2A4
330
2A2
100
AcDbEntity
  8
0
100
AcDbBlockEnd
  0
BLOCK
  5
29F
330
29E
100
AcDbEntity
 67
     1
  8
0
100
AcDbBlockBegin
  2
*Paper_Space
 70
     0
 10
0.0
 20
0.0
 30
0.0
  3
*Paper_Space
  1
*Paper_Space
  0
ENDBLK
  5
2A0
330
29E
100
AcDbEntity
 67
     1
  8
0
100
AcDbBlockEnd
  0
BLOCK
  5
2A7
330
2A6
100
AcDbEntity
  8
0
100
AcDbBlockBegin
  2
*Paper_Space0
 70
     0
 10
0.0
 20
0.0
 30
0.0
  3
*Paper_Space0
  1
*Paper_Space0
  0
ENDBLK
  5
2A8
330
2A6
100
AcDbEntity
  8
0
100
AcDbBlockEnd
  0
BLOCK
  5
32E
330
32D
100
AcDbEntity
  8
0
100
AcDbBlockBegin
  2
demi
 70
     0
 10
0.0
 20
0.0
 30
0.0
  3
demi
  1
demi
  0
ENDBLK
  5
32F
330
32D
100
AcDbEntity
  8
0
100
AcDbBlockEnd
  0
BLOCK
  5
331
330
330
100
AcDbEntity
  8
0
100
AcDbBlockBegin
  2
De_a_lire_bague_de_lecture_v2
 70
     0
 10
0.0
 20
0.0
 30
0.0
  3
De_a_lire_bague_de_lecture_v2
  1
De_a_lire_bague_de_lecture_v2
  0
SPLINE
  5
18
330
330
100
AcDbEntity
  8
0
 62
    18
420
        0
100
AcDbSpline
210
0.0
220
0.0
230
1.0
 70
     8
 71
     3
 72
     8
 73
     4
 74
     0
 42
0.000000001
 43
0.001
 40
0.0
 40
0.0
 40
0.0
 40
0.0
 40
1.0
 40
1.0
 40
1.0
 40
1.0
 10
82.68929924444444
 20
-41.36863286666667
 30
0.0
 10
79.27860417777777
 20
-41.97301457777778
 30
0.0
 10
76.2131064
 20
-41.95998437777777
 30
0.0
 10
72.31602955555556
 20
-42.15568008888889
 30
0.0
  0
SPLINE
  5
19
330
330
100
AcDbEntity
  8
0
 62
    18
420
        0
100
AcDbSpline
210
0.0
220
0.0
230
1.0
 70
     8
 71
     3
 72
     8
 73
     4
 74
     0
 42
0.000000001
 43
0.001
 40
0.0
 40
0.0
 40
0.0
 40
0.0
 40
1.0
 40
1.0
 40
1.0
 40
1.0
 10
72.31602955555556
 20
-42.15568008888889
 30
0.0
 10
68.41895271111112
 20
-42.35137862222222
 30
0.0
 10
61.9457486
 20
-41.71536544444444
 30
0.0
 10
60.67402986666667
 20
-42.31357213333333
 30
0.0
  0
SPLINE
  5
1A
330
330
100
AcDbEntity
  8
0
 62
    18
420
        0
100
AcDbSpline
210
0.0
220
0.0
230
1.0
 70
     8
 71
     3
 72
     8
 73
     4
 74
     0
 42
0.000000001
 43
0.001
 40
0.0
 40
0.0
 40
0.0
 40
0.0
 40
1.0
 40
1.0
 40
1.0
 40
1.0
 10
60.67402986666667
 20
-42.31357213333333
 30
0.0
 10
59.40231113333333
 20
-42.91178446666667
 30
0.0
 10
59.37589231111111
 20
-43.82250993333333
 30
0.0
 10
59.37589231111111
 20
-43.82250993333333
 30
0.0
  0
ARC
  5
1B
330
330
100
AcDbEntity
  8
0
 62
    18
420
        0
100
AcDbCircle
 10
118.9593623377235
 20
-64.35460528117206
 30
0.0
 40
10.85906403685745
100
AcDbArc
 50
146.8364923795413
 51
151.9276040290235
  0
ARC
  5
1C
330
330
100
AcDbEntity
  8
0
 62
    18
420
        0
100
AcDbCircle
 10
125.4733208843673
 20
-71.13134898105447
 30
0.0
 40
20.1299100305704
100
AcDbArc
 50
129.6527150602722
 51
140.820982713502
  0
SPLINE
  5
1D
330
330
100
AcDbEntity
  8
0
 62
    18
420
        0
100
AcDbSpline
210
0.0
220
0.0
230
1.0
 70
     8
 71
     3
 72
     8
 73
     4
 74
     0
 42
0.000000001
 43
0.001
 40
0.0
 40
0.0
 40
0.0
 40
0.0
 40
1.0
 40
1.0
 40
1.0
 40
1.0
 10
112.6277684222222
 20
-55.63279873333333
 30
0.0
 10
114.5990680666667
 20
-53.94376646666667
 30
0.0
 10
116.5588050666667
 20
-53.11675375555555
 30
0.0
 10
119.0898642666667
 20
-51.99199377777778
 30
0.0
  0
SPLINE
  5
1E
330
330
100
AcDbEntity
  8
0
 62
    18
420
        0
100
AcDbSpline
210
0.0
220
0.0
230
1.0
 70
     8
 71
     3
 72
     8
 73
     4
 74
     0
 42
0.000000001
 43
0.001
 40
0.0
 40
0.0
 40
0.0
 40
0.0
 40
1.0
 40
1.0
 40
1.0
 40
1.0
 10
119.0898642666667
 20
-51.99199377777778
 30
0.0
 10
126.5805528666667
 20
-49.21463077777778
 30
0.0
 10
135.4636553555555
 20
-47.52899364444444
 30
0.0
 10
141.7260846222222
 20
-46.79292704444445
 30
0.0
  0
SPLINE
  5
1F
330
330
100
AcDbEntity
  8
0
 62
    18
420
        0
100
AcDbSpline
210
0.0
220
0.0
230
1.0
 70
     8
 71
     3
 72
     8
 73
     4
 74
     0
 42
0.000000001
 43
0.001
 40
0.0
 40
0.0
 40
0.0
 40
0.0
 40
1.0
 40
1.0
 40
1.0
 40
1.0
 10
141.7260846222222
 20
-46.79292704444445
 30
0.0
 10
147.9885138888889
 20
-46.05686326666667
 30
0.0
 10
157.0725303777778
 20
-45.89285546666667
 30
0.0
 10
158.2939796888889
 20
-45.20054177777778
 30
0.0
  0
ARC
  5
20
330
330
100
AcDbEntity
  8
0
 62
    18
420
        0
100
AcDbCircle
 10
157.5592481966991
 20
-43.63535260716328
 30
0.0
 40
1.729059717140212
100
AcDbArc
 50
295.1463113004101
 51
8.00045003991321
  0
ARC
  5
21
330
330
100
AcDbEntity
  8
0
 62
    18
420
        0
100
AcDbCircle
 10
109.0195354454203
 20
-45.97843892483343
 30
0.0
 40
15.49734218595124
100
AcDbArc
 50
61.05348227338538
 51
88.41899865050492
  0
SPLINE
  5
22
330
330
100
AcDbEntity
  8
0
 62
    18
420
        0
100
AcDbSpline
210
0.0
220
0.0
230
1.0
 70
     8
 71
     3
 72
     8
 73
     4
 74
     0
 42
0.000000001
 43
0.001
 40
0.0
 40
0.0
 40
0.0
 40
0.0
 40
1.0
 40
1.0
 40
1.0
 40
1.0
 10
116.5201406222222
 20
-32.41715075555555
 30
0.0
 10
119.6932638444444
 20
-34.33891193333333
 30
0.0
 10
122.0363630444444
 20
-36.82142326666666
 30
0.0
 10
125.2370368
 20
-38.30411157777777
 30
0.0
  0
SPLINE
  5
23
330
330
100
AcDbEntity
  8
0
 62
    18
420
        0
100
AcDbSpline
210
0.0
220
0.0
230
1.0
 70
     8
 71
     3
 72
     8
 73
     4
 74
     0
 42
0.000000001
 43
0.001
 40
0.0
 40
0.0
 40
0.0
 40
0.0
 40
1.0
 40
1.0
 40
1.0
 40
1.0
 10
125.2370368
 20
-38.30411157777777
 30
0.0
 10
128.6301889333333
 20
-39.87597082222222
 30
0.0
 10
132.3764095333333
 20
-40.71145302222222
 30
0.0
 10
136.0827718888889
 20
-41.36822928888889
 30
0.0
  0
SPLINE
  5
24
330
330
100
AcDbEntity
  8
0
 62
    18
420
        0
100
AcDbSpline
210
0.0
220
0.0
230
1.0
 70
     8
 71
     3
 72
     8
 73
     4
 74
     0
 42
0.000000001
 43
0.001
 40
0.0
 40
0.0
 40
0.0
 40
0.0
 40
1.0
 40
1.0
 40
1.0
 40
1.0
 10
136.0827718888889
 20
-41.36822928888889
 30
0.0
 10
139.4934669555556
 20
-41.972611
 30
0.0
 10
142.5589647333333
 20
-41.95958362222222
 30
0.0
 10
146.4560415777778
 20
-42.15527933333333
 30
0.0
  0
SPLINE
  5
25
330
330
100
AcDbEntity
  8
0
 62
    18
420
        0
100
AcDbSpline
210
0.0
220
0.0
230
1.0
 70
     8
 71
     3
 72
     8
 73
     4
 74
     0
 42
0.000000001
 43
0.001
 40
0.0
 40
0.0
 40
0.0
 40
0.0
 40
1.0
 40
1.0
 40
1.0
 40
1.0
 10
146.4560415777778
 20
-42.15527933333333
 30
0.0
 10
150.3531184222222
 20
-42.35097504444445
 30
0.0
 10
156.8263225333333
 20
-41.71496468888889
 30
0.0
 10
158.0980412666667
 20
-42.31317137777778
 30
0.0
  0
SPLINE
  5
26
330
330
100
AcDbEntity
  8
0
 62
    18
420
        0
100
AcDbSpline
210
0.0
220
0.0
230
1.0
 70
     8
 71
     3
 72
     8
 73
     4
 74
     0
 42
0.000000001
 43
0.001
 40
0.0
 40
0.0
 40
0.0
 40
0.0
 40
1.0
 40
1.0
 40
1.0
 40
1.0
 10
158.0980412666667
 20
-42.31317137777778
 30
0.0
 10
159.36976
 20
-42.91137806666666
 30
0.0
 10
159.3961788222222
 20
-43.82210635555555
 30
0.0
 10
159.3961788222222
 20
-43.82210635555555
 30
0.0
  0
LINE
  5
27
330
330
100
AcDbEntity
  8
0
 62
    18
420
        0
100
AcDbLine
 10
49.93460788888888
 20
-43.91010324444444
 30
0.0
 11
169.0727039333333
 21
-43.91010324444444
 31
0.0
  0
ELLIPSE
  5
28
330
330
100
AcDbEntity
  8
0
 62
    28
420
   855309
100
AcDbEllipse
 10
109.3365759459063
 20
-43.2065114999817
 30
0.0
 11
10.00045531557651
 21
0.0
 31
0.0
210
0.0
220
0.0
230
1.0
 40
0.9989000588281144
 41
3.141150831262649
 42
6.283627129506479
  0
ELLIPSE
  5
29
330
330
100
AcDbEntity
  8
0
 62
    28
420
   855309
100
AcDbEllipse
 10
109.3365759459061
 20
-43.19768437140514
 30
0.0
 11
10.00045531557651
 21
0.0
 31
0.0
210
0.0
220
0.0
230
1.0
 40
0.9989000588281405
 41
6.282743484852693
 42
9.42521978309627
  0
LINE
  5
2A
330
330
100
AcDbEntity
  8
0
 62
    28
420
   855309
100
AcDbLine
 10
119.3370302854031
 20
-43.2020979356934
 30
0.0
 11
119.3370302854031
 21
-43.2020979356934
 31
0.0
  0
LINE
  5
2B
330
330
100
AcDbEntity
  8
0
 62
    18
420
        0
100
AcDbLine
 10
109.3863107333333
 20
-63.57123571111111
 30
0.0
 11
109.3863107333333
 21
-23.63827406222222
 31
0.0
  0
ARC
  5
2C
330
330
100
AcDbEntity
  8
0
 62
    18
420
        0
100
AcDbCircle
 10
99.81321162732276
 20
-64.35481780427614
 30
0.0
 40
10.85849310080923
100
AcDbArc
 50
28.07235383290388
 51
33.16372051947754
  0
ARC
  5
2D
330
330
100
AcDbEntity
  8
0
 62
    18
420
        0
100
AcDbCircle
 10
93.2986108525176
 20
-71.13194964508475
 30
0.0
 40
20.13008951269368
100
AcDbArc
 50
39.17900337172574
 51
50.3471825923351
  0
SPLINE
  5
2E
330
330
100
AcDbEntity
  8
0
 62
    18
420
        0
100
AcDbSpline
210
0.0
220
0.0
230
1.0
 70
     8
 71
     3
 72
     8
 73
     4
 74
     0
 42
0.000000001
 43
0.001
 40
0.0
 40
0.0
 40
0.0
 40
0.0
 40
1.0
 40
1.0
 40
1.0
 40
1.0
 10
106.1443055333333
 20
-55.63328415555555
 30
0.0
 10
104.1730058888889
 20
-53.94425188888889
 30
0.0
 10
102.2132688888889
 20
-53.11723917777778
 30
0.0
 10
99.68220968888889
 20
-51.9924792
 30
0.0
  0
SPLINE
  5
2F
330
330
100
AcDbEntity
  8
0
 62
    18
420
        0
100
AcDbSpline
210
0.0
220
0.0
230
1.0
 70
     8
 71
     3
 72
     8
 73
     4
 74
     0
 42
0.000000001
 43
0.001
 40
0.0
 40
0.0
 40
0.0
 40
0.0
 40
1.0
 40
1.0
 40
1.0
 40
1.0
 10
99.68220968888889
 20
-51.9924792
 30
0.0
 10
92.19151826666666
 20
-49.21511902222223
 30
0.0
 10
83.30841577777777
 20
-47.52947906666667
 30
0.0
 10
77.04598651111111
 20
-46.79341528888889
 30
0.0
  0
SPLINE
  5
30
330
330
100
AcDbEntity
  8
0
 62
    18
420
        0
100
AcDbSpline
210
0.0
220
0.0
230
1.0
 70
     8
 71
     3
 72
     8
 73
     4
 74
     0
 42
0.000000001
 43
0.001
 40
0.0
 40
0.0
 40
0.0
 40
0.0
 40
1.0
 40
1.0
 40
1.0
 40
1.0
 10
77.04598651111111
 20
-46.79341528888889
 30
0.0
 10
70.78355724444444
 20
-46.05735151111111
 30
0.0
 10
61.69954075555555
 20
-45.89334088888889
 30
0.0
 10
60.47809144444444
 20
-45.2010272
 30
0.0
  0
ARC
  5
31
330
330
100
AcDbEntity
  8
0
 62
    18
420
        0
100
AcDbCircle
 10
61.21282293663698
 20
-43.63583802938309
 30
0.0
 40
1.729059717142556
100
AcDbArc
 50
171.9995499601787
 51
244.8536886995407
  0
ARC
  5
32
330
330
100
AcDbEntity
  8
0
 62
    18
420
        0
100
AcDbCircle
 10
109.7525381433639
 20
-45.9788609875787
 30
0.0
 40
15.49736065376253
100
AcDbArc
 50
91.58099810846016
 51
118.9464784132341
  0
SPLINE
  5
33
330
330
100
AcDbEntity
  8
0
 62
    18
420
        0
100
AcDbSpline
210
0.0
220
0.0
230
1.0
 70
     8
 71
     3
 72
     8
 73
     4
 74
     0
 42
0.000000001
 43
0.001
 40
0.0
 40
0.0
 40
0.0
 40
0.0
 40
1.0
 40
1.0
 40
1.0
 40
1.0
 10
102.2519333333333
 20
-32.41755151111111
 30
0.0
 10
99.0788101111111
 20
-34.3393155111111
 30
0.0
 10
96.7357109111111
 20
-36.82182402222222
 30
0.0
 10
93.53503433333334
 20
-38.30451515555556
 30
0.0
  0
SPLINE
  5
34
330
330
100
AcDbEntity
  8
0
 62
    18
420
        0
100
AcDbSpline
210
0.0
220
0.0
230
1.0
 70
     8
 71
     3
 72
     8
 73
     4
 74
     0
 42
0.000000001
 43
0.001
 40
0.0
 40
0.0
 40
0.0
 40
0.0
 40
1.0
 40
1.0
 40
1.0
 40
1.0
 10
93.53503433333334
 20
-38.30451515555556
 30
0.0
 10
90.1418822
 20
-39.8763744
 30
0.0
 10
86.39566160000001
 20
-40.7118566
 30
0.0
 10
82.68929924444444
 20
-41.36863286666667
 30
0.0
  0
ENDBLK
  5
332
330
330
100
AcDbEntity
  8
0
100
AcDbBlockEnd
  0
BLOCK
  5
337
330
336
100
AcDbEntity
  8
0
100
AcDbBlockBegin
  2
*D3
 70
     1
 10
0.0
 20
0.0
 30
0.0
  3
*D3
  1
*D3
  0
LINE
  5
339
330
336
100
AcDbEntity
  8
0
 62
     0
370
    -2
100
AcDbLine
 10
-9.446265698759131
 20
-3.633132849379551
 30
0.0
 11
-9.266265698759131
 21
-3.633132849379551
 31
0.0
  0
LINE
  5
33A
330
336
100
AcDbEntity
  8
0
 62
     0
370
    -2
100
AcDbLine
 10
-9.105268804379147
 20
-3.552634402189559
 30
0.0
 11
-9.266265698759131
 21
-3.633132849379551
 31
0.0
  0
MTEXT
  5
33B
330
336
100
AcDbEntity
  8
0
 62
     0
100
AcDbMText
 10
-10.14912284161628
 20
-3.633132849379552
 30
0.0
 40
0.18
 41
0.0
 46
0.0
 71
     5
 72
     1
  1
\A1;%%c20.0000
 73
     1
 44
1.0
  0
SOLID
  5
33C
330
336
100
AcDbEntity
  8
0
 62
     0
100
AcDbTrace
 10
-9.091852396514149
 20
-3.579467217919557
 30
0.0
 11
-9.118685212244145
 21
-3.525801586459562
 31
0.0
 12
-8.944271909999163
 22
-3.472135954999567
 32
0.0
 13
-8.944271909999163
 23
-3.472135954999567
 33
0.0
  0
LINE
  5
33D
330
336
100
AcDbEntity
  8
0
 62
     0
100
AcDbLine
 10
-0.09
 20
1.000000000000004
 30
0.0
 11
0.09
 21
1.000000000000004
 31
0.0
  0
LINE
  5
33E
330
336
100
AcDbEntity
  8
0
 62
     0
100
AcDbLine
 10
0.0
 20
0.9100000000000045
 30
0.0
 11
0.0
 21
1.090000000000005
 31
0.0
  0
POINT
  5
33F
330
336
100
AcDbEntity
  8
Defpoints
 62
     0
100
AcDbPoint
 10
-8.944271909999163
 20
-3.472135954999567
 30
0.0
  0
POINT
  5
340
330
336
100
AcDbEntity
  8
Defpoints
 62
     0
100
AcDbPoint
 10
8.944271909999163
 20
5.472135954999577
 30
0.0
  0
ENDBLK
  5
338
330
336
100
AcDbEntity
  8
0
100
AcDbBlockEnd
  0
ENDSEC
  0
SECTION
  2
ENTITIES
  0
LINE
  5
3A
330
2A2
100
AcDbEntity
  8
0
  6
DASHDOT
 62
    96
420
    32768
370
    13
100
AcDbLine
 10
-59.45170284444445
 20
0.305348357777782
 30
0.0
 11
59.68639319999998
 21
0.305348357777782
 31
0.0
  0
LINE
  5
3D
330
2A2
100
AcDbEntity
  8
0
 62
    28
420
   855309
100
AcDbLine
 10
9.950719552069728
 20
0.7080053087510478
 30
0.0
 11
9.950719552069728
 21
0.7080053087510478
 31
0.0
  0
LINE
  5
3E
330
2A2
100
AcDbEntity
  8
0
  6
DASHDOT
 62
    96
420
    32768
370
    13
100
AcDbLine
 10
0.0
 20
-19.66113246666666
 30
0.0
 11
0.0
 21
20.27182918222223
 31
0.0
  0
ARC
  5
44
330
2A2
100
AcDbEntity
  8
0
 62
    18
420
        0
100
AcDbCircle
 10
-48.17348779669636
 20
0.2742652150613551
 30
0.0
 40
1.729059717142556
100
AcDbArc
 50
171.9995499601787
 51
244.8536886995407
  0
ARC
  5
45
330
2A2
100
AcDbEntity
  8
0
 62
    18
420
        0
100
AcDbCircle
 10
0.3662274100306178
 20
-2.068757743134249
 30
0.0
 40
15.49736065376253
100
AcDbArc
 50
91.58099810846016
 51
118.9464784132341
  0
ARC
  5
50
330
2A2
100
AcDbEntity
  8
0
 62
    18
420
        0
100
AcDbCircle
 10
48.17293746336576
 20
0.2747506372811728
 30
0.0
 40
1.729059717140212
100
AcDbArc
 50
295.1463113004101
 51
8.00045003991321
  0
ARC
  5
51
330
2A2
100
AcDbEntity
  8
0
 62
    18
420
        0
100
AcDbCircle
 10
-0.3667752879130006
 20
-2.068335680388977
 30
0.0
 40
15.49734218595124
100
AcDbArc
 50
61.05348227338538
 51
88.41899865050492
  0
CIRCLE
  5
56
330
2A2
100
AcDbEntity
  8
0
100
AcDbCircle
 10
0.0
 20
1.000000000000004
 30
0.0
 40
10.0
  0
LWPOLYLINE
  5
5F
330
2A2
100
AcDbEntity
  8
0
 62
    18
420
        0
100
AcDbPolyline
 90
      257
 70
     0
 43
0.0
 10
-48.71228086666666
 20
1.596531111111119
 10
-48.72712688791789
 20
1.589506577524629
 10
-48.741859334463
 20
1.582453869970468
 10
-48.75647864220781
 20
1.575373425912848
 10
-48.77098524705818
 20
1.568265682815983
 10
-48.78537958491995
 20
1.561131078144088
 10
-48.79966209169899
 20
1.553970049361374
 10
-48.81383320330112
 20
1.546783033932057
 10
-48.82789335563218
 20
1.539570469320347
 10
-48.84184298459805
 20
1.532332792990461
 10
-48.85568252610453
 20
1.525070442406609
 10
-48.8694124160575
 20
1.517783855033007
 10
-48.8830330903628
 20
1.510473468333867
 10
-48.89654498492627
 20
1.503139719773402
 10
-48.90994853565376
 20
1.495783046815827
 10
-48.92324417845111
 20
1.488403886925354
 10
-48.93643234922416
 20
1.481002677566197
 10
-48.94951348387879
 20
1.473579856202569
 10
-48.96248801832081
 20
1.466135860298684
 10
-48.97535638845608
 20
1.458671127318754
 10
-48.98811903019044
 20
1.451186094726994
 10
-49.00077637942974
 20
1.443681199987616
 10
-49.01332887207982
 20
1.436156880564835
 10
-49.02577694404656
 20
1.428613573922863
 10
-49.03812103123576
 20
1.421051717525913
 10
-49.05036156955328
 20
1.4134717488382
 10
-49.06249899490497
 20
1.405874105323937
 10
-49.07453374319667
 20
1.398259224447336
 10
-49.08646625033425
 20
1.390627543672611
 10
-49.09829695222352
 20
1.382979500463977
 10
-49.11002628477036
 20
1.375315532285645
 10
-49.12165468388059
 20
1.367636076601829
 10
-49.13318258546006
 20
1.359941570876743
 10
-49.14461042541463
 20
1.352232452574601
 10
-49.15593863965014
 20
1.344509159159615
 10
-49.16716766407242
 20
1.336772128095998
 10
-49.17829793458736
 20
1.329021796847965
 10
-49.18932988710074
 20
1.321258602879729
 10
-49.20026395751846
 20
1.313482983655502
 10
-49.21110058174634
 20
1.305695376639499
 10
-49.22184019569023
 20
1.297896219295933
 10
-49.23248323525599
 20
1.290085949089016
 10
-49.24303013634945
 20
1.282265003482963
 10
-49.25348133487646
 20
1.274433819941987
 10
-49.26383726674287
 20
1.266592835930302
 10
-49.27409836785452
 20
1.258742488912119
 10
-49.28426507411726
 20
1.250883216351654
 10
-49.29433782143694
 20
1.243015455713119
 10
-49.30431704571939
 20
1.235139644460727
 10
-49.31420318287049
 20
1.227256220058693
 10
-49.32399666879603
 20
1.219365619971229
 10
-49.33369793940192
 20
1.211468281662549
 10
-49.34330743059395
 20
1.203564642596867
 10
-49.352825578278
 20
1.195655140238394
 10
-49.36225281835991
 20
1.187740212051346
 10
-49.37158958674552
 20
1.179820295499935
 10
-49.38083631934067
 20
1.171895828048374
 10
-49.38999345205124
 20
1.163967247160878
 10
-49.39906142078303
 20
1.156034990301659
 10
-49.4080406614419
 20
1.14809949493493
 10
-49.41693160993372
 20
1.140161198524906
 10
-49.42573470216432
 20
1.132220538535799
 10
-49.43445037403954
 20
1.124277952431824
 10
-49.44307906146522
 20
1.116333877677192
 10
-49.45162120034722
 20
1.108388751736118
 10
-49.46007722659138
 20
1.100443012072815
 10
-49.46844757610355
 20
1.092497096151497
 10
-49.47673268478958
 20
1.084551441436376
 10
-49.48493298855531
 20
1.076606485391666
 10
-49.49304892330659
 20
1.068662665481581
 10
-49.50108092494925
 20
1.060720419170334
 10
-49.50902942938916
 20
1.052780183922138
 10
-49.51689487253213
 20
1.044842397201206
 10
-49.52467769028406
 20
1.036907496471753
 10
-49.53237831855076
 20
1.02897591919799
 10
-49.53999719323807
 20
1.021048102844133
 10
-49.54753475025186
 20
1.013124484874393
 10
-49.55499142549795
 20
1.005205502752985
 10
-49.56236765488221
 20
0.9972915939441221
 10
-49.56966387431046
 20
0.9893831959120174
 10
-49.57688051968857
 20
0.9814807461208838
 10
-49.58401802692239
 20
0.9735846820349354
 10
-49.59107683191775
 20
0.9656954411183853
 10
-49.59805737058049
 20
0.9578134608354468
 10
-49.60496007881648
 20
0.9499391786503333
 10
-49.61178539253154
 20
0.9420730320272583
 10
-49.61853374763153
 20
0.934215458430435
 10
-49.6252055800223
 20
0.9263668953240771
 10
-49.63180132560967
 20
0.9185277801723977
 10
-49.63832142029952
 20
0.9106985504396101
 10
-49.64476629999768
 20
0.9028796435899277
 10
-49.65113640061
 20
0.8950714970875642
 10
-49.65743215804231
 20
0.8872745483967324
 10
-49.66365400820048
 20
0.8794892349816461
 10
-49.66980238699034
 20
0.8717159943065186
 10
-49.67587773031775
 20
0.8639552638355632
 10
-49.68188047408854
 20
0.8562074810329934
 10
-49.68781105420857
 20
0.8484730833630223
 10
-49.69366990658367
 20
0.8407525082898637
 10
-49.69945746711969
 20
0.8330461932777307
 10
-49.70517417172249
 20
0.8253545757908365
 10
-49.71082045629791
 20
0.8176780932933947
 10
-49.71639675675179
 20
0.8100171832496186
 10
-49.72190350898998
 20
0.8023722831237217
 10
-49.72734114891831
 20
0.7947438303799172
 10
-49.73271011244266
 20
0.7871322624824186
 10
-49.73801083546886
 20
0.7795380168954393
 10
-49.74324375390273
 20
0.7719615310831927
 10
-49.74840930365016
 20
0.7644032425098919
 10
-49.75350792061695
 20
0.7568635886397502
 10
-49.75854004070899
 20
0.7493430069369815
 10
-49.76350609983211
 20
0.7418419348657989
 10
-49.76840653389214
 20
0.7343608098904154
 10
-49.77324177879494
 20
0.7269000694750449
 10
-49.77801227044636
 20
0.7194601510839008
 10
-49.78271844475223
 20
0.7120414921811962
 10
-49.78736073761841
 20
0.7046445302311444
 10
-49.79193958495076
 20
0.6972697026979588
 10
-49.7964554226551
 20
0.689917447045853
 10
-49.80090868663727
 20
0.6825882007390405
 10
-49.80529981280314
 20
0.675282401241734
 10
-49.80962923705854
 20
0.6680004860181474
 10
-49.81389739530933
 20
0.6607428925324941
 10
-49.81810472346135
 20
0.6535100582489872
 10
-49.82225165742043
 20
0.6463024206318402
 10
-49.82633863309245
 20
0.6391204171452666
 10
-49.83036608638321
 20
0.6319644852534796
 10
-49.83433445319861
 20
0.6248350624206926
 10
-49.83824416944444
 20
0.6177325861111189
 10
-49.84209567102658
 20
0.6106574937889722
 10
-49.84588939385088
 20
0.6036102229184653
 10
-49.84962577382318
 20
0.5965912109638121
 10
-49.85330524684932
 20
0.5896008953892257
 10
-49.85692824883513
 20
0.5826397136589196
 10
-49.86049521568649
 20
0.5757081032371071
 10
-49.86400658330922
 20
0.5688065015880015
 10
-49.86746278760918
 20
0.5619353461758163
 10
-49.87086426449221
 20
0.5550950744647649
 10
-49.87421144986416
 20
0.5482861239190605
 10
-49.87750477963088
 20
0.5415089320029167
 10
-49.8807446896982
 20
0.5347639361805466
 10
-49.88393161597197
 20
0.5280515739161639
 10
-49.88706599435805
 20
0.5213722826739815
 10
-49.89014826076227
 20
0.5147264999182133
 10
-49.8931788510905
 20
0.5081146631130724
 10
-49.89615820124855
 20
0.5015372097227722
 10
-49.89908674714229
 20
0.494994577211526
 10
-49.90196492467757
 20
0.4884872030435471
 10
-49.90479316976021
 20
0.4820155246830493
 10
-49.90757191829609
 20
0.4755799795942455
 10
-49.91030160619103
 20
0.4691810052413493
 10
-49.9129826693509
 20
0.462819039088574
 10
-49.9156155436815
 20
0.456494518600133
 10
-49.91820066508872
 20
0.4502078812402398
 10
-49.92073846947841
 20
0.4439595644731075
 10
-49.92322939275638
 20
0.4377500057629496
 10
-49.9256738708285
 20
0.4315796425739796
 10
-49.92807233960061
 20
0.4254489123704107
 10
-49.93042523497856
 20
0.4193582526164563
 10
-49.93273299286819
 20
0.4133081007763298
 10
-49.93499604917535
 20
0.4072988943142445
 10
-49.93721483980588
 20
0.401331070694414
 10
-49.93938980066563
 20
0.3954050673810514
 10
-49.94152136766044
 20
0.3895213218383702
 10
-49.94360997669618
 20
0.3836802715305838
 10
-49.94565606367867
 20
0.3778823539219054
 10
-49.94766006451376
 20
0.3721280064765486
 10
-49.94962241510732
 20
0.3664176666587267
 10
-49.95154355136516
 20
0.360751771932653
 10
-49.95342390919313
 20
0.3551307597625408
 10
-49.9552639244971
 20
0.3495550676126037
 10
-49.9570640331829
 20
0.3440251329470549
 10
-49.9588246711564
 20
0.3385413932301078
 10
-49.96054627432341
 20
0.3331042859259759
 10
-49.96222927858979
 20
0.3277142484988724
 10
-49.96387411986139
 20
0.3223717184130107
 10
-49.96548123404405
 20
0.3170771331326043
 10
-49.96705105704363
 20
0.3118309301218664
 10
-49.96858402476596
 20
0.3066335468450105
 10
-49.97008057311689
 20
0.3014854207662499
 10
-49.97154113800227
 20
0.296386989349798
 10
-49.97296615532794
 20
0.2913386900598681
 10
-49.97435606099975
 20
0.2863409603606737
 10
-49.97571129092356
 20
0.2813942377164281
 10
-49.97703228100518
 20
0.2764989595913446
 10
-49.97831946715049
 20
0.2716555634496368
 10
-49.97957328526532
 20
0.2668644867555179
 10
-49.98079417125552
 20
0.2621261669732011
 10
-49.98198256102692
 20
0.2574410415669002
 10
-49.98313889048541
 20
0.2528095480008282
 10
-49.98426359553679
 20
0.2482321237391986
 10
-49.98535711208693
 20
0.2437092062462248
 10
-49.98641987604167
 20
0.2392412329861202
 10
-49.98745232330685
 20
0.2348286414230981
 10
-49.98845488978832
 20
0.2304718690213719
 10
-49.98942801139193
 20
0.2261713532451549
 10
-49.99037212402352
 20
0.2219275315586606
 10
-49.99128766358894
 20
0.2177408414261022
 10
-49.99217506599404
 20
0.2136117203116933
 10
-49.99303476714465
 20
0.2095406056796471
 10
-49.99386720294664
 20
0.205527934994177
 10
-49.99467280930584
 20
0.2015741457194964
 10
-49.9954520221281
 20
0.1976796753198187
 10
-49.99620527731926
 20
0.1938449612593572
 10
-49.99693301078516
 20
0.1900704410023252
 10
-49.99763565843167
 20
0.1863565520129363
 10
-49.99831365616463
 20
0.1827037317554037
 10
-49.99896743988987
 20
0.1791124176939409
 10
-49.99959744551324
 20
0.1755830472927611
 10
-50.00020410894059
 20
0.1721160580160778
 10
-50.00078786607776
 20
0.1687118873281043
 10
-50.00134915283063
 20
0.165370972693054
 10
-50.001888405105
 20
0.1620937515751403
 10
-50.00240605880673
 20
0.1588806614385765
 10
-50.00290254984168
 20
0.1557321397475761
 10
-50.00337831411569
 20
0.1526486239663523
 10
-50.00383378753459
 20
0.1496305515591186
 10
-50.00426940600425
 20
0.1466783599900884
 10
-50.00468560543049
 20
0.1437924867234749
 10
-50.00508282171917
 20
0.1409733692234916
 10
-50.00546149077615
 20
0.1382214449543518
 10
-50.00582204850726
 20
0.135537151380269
 10
-50.00616493081834
 20
0.1329209259654565
 10
-50.00649057361524
 20
0.1303732061741276
 10
-50.00679941280382
 20
0.1278944294704957
 10
-50.00709188428992
 20
0.1254850333187743
 10
-50.00736842397937
 20
0.1231454551831765
 10
-50.00762946777802
 20
0.120876132527916
 10
-50.00787545159174
 20
0.118677502817206
 10
-50.00810681132636
 20
0.1165500035152598
 10
-50.00832398288773
 20
0.1144940720862909
 10
-50.00852740218168
 20
0.1125101459945126
 10
-50.00871750511406
 20
0.1105986627041384
 10
-50.00889472759074
 20
0.1087600596793815
 10
-50.00905950551754
 20
0.1069947743844553
 10
-50.00921227480033
 20
0.1053032442835733
 10
-50.00935347134492
 20
0.1036859068409487
 10
-50.00948353105719
 20
0.102143199520795
 10
-50.00960288984297
 20
0.1006755597873255
 10
-50.00971198360811
 20
0.0992834251047536
 10
-50.00981124825847
 20
0.0979672329372927
 10
-50.00990111969986
 20
0.0967274207491561
 10
-50.00998203383816
 20
0.0955644260045573
 10
-50.01005442657919
 20
0.0944786861677095
 10
-50.01011873382883
 20
0.0934706387028262
 10
-50.01017539149289
 20
0.0925407210741207
 10
-50.01022483547722
 20
0.0916893707458064
 10
-50.01026750168769
 20
0.0909170251820967
 10
-50.01030382603013
 20
0.0902241218472049
 10
-50.0103342444104
 20
0.0896110982053444
 10
-50.01035919273433
 20
0.0890783917207286
 10
-50.01037910690776
 20
0.0886264398575708
 10
-50.01039442283655
 20
0.0882556800800845
 10
-50.01040557642655
 20
0.087966549852483
 10
-50.01041300358361
 20
0.0877594866389796
 10
-50.01041714021354
 20
0.0876349279037878
 10
-50.01041842222222
 20
0.0875933111111209
  0
LWPOLYLINE
  5
60
330
2A2
100
AcDbEntity
  8
0
 62
    18
420
        0
100
AcDbPolyline
 90
      257
 70
     0
 43
0.0
 10
9.703553533333334
 20
-8.081890533333329
 10
9.791398540815408
 20
-8.049393277448102
 10
9.879369592404597
 20
-8.016995921212446
 10
9.96746525290912
 20
-7.984698413787656
 10
10.05568408713718
 20
-7.952500704335018
 10
10.14402465989699
 20
-7.920402742015828
 10
10.23248553599676
 20
-7.888404475991372
 10
10.32106528024469
 20
-7.856505855422945
 10
10.409762457449
 20
-7.824706829471838
 10
10.4985756324179
 20
-7.793007347299342
 10
10.5875033699596
 20
-7.761407358066744
 10
10.6765442348823
 20
-7.729906810935342
 10
10.76569679199422
 20
-7.698505655066421
 10
10.85495960610357
 20
-7.667203839621278
 10
10.94433124201855
 20
-7.636001313761199
 10
11.03381026454738
 20
-7.604898026647476
 10
11.12339523849826
 20
-7.573893927441401
 10
11.21308472867941
 20
-7.542988965304268
 10
11.30287729989904
 20
-7.512183089397363
 10
11.39277151696535
 20
-7.481476248881979
 10
11.48276594468655
 20
-7.450868392919408
 10
11.57285914787086
 20
-7.420359470670942
 10
11.66304969132648
 20
-7.38994943129787
 10
11.75333613986163
 20
-7.359638223961484
 10
11.84371705828451
 20
-7.329425797823075
 10
11.93419101140333
 20
-7.299312102043935
 10
12.0247565640263
 20
-7.269297085785354
 10
12.11541228096164
 20
-7.23938069820862
 10
12.20615672701755
 20
-7.209562888475031
 10
12.29698846700224
 20
-7.179843605745874
 10
12.38790606572393
 20
-7.150222799182442
 10
12.47890808799081
 20
-7.120700417946024
 10
12.56999309861111
 20
-7.091276411197912
 10
12.66115966239303
 20
-7.061950728099397
 10
12.75240634414478
 20
-7.03272331781177
 10
12.84373170867457
 20
-7.003594129496323
 10
12.93513432079061
 20
-6.974563112314347
 10
13.02661274530111
 20
-6.945630215427132
 10
13.11816554701428
 20
-6.916795387995968
 10
13.20979129073833
 20
-6.88805857918215
 10
13.30148854128147
 20
-6.859419738146968
 10
13.39325586345191
 20
-6.830878814051711
 10
13.48509182205785
 20
-6.802435756057671
 10
13.57699498190751
 20
-6.774090513326139
 10
13.66896390780911
 20
-6.745843035018408
 10
13.76099716457084
 20
-6.717693270295766
 10
13.85309331700092
 20
-6.689641168319506
 10
13.94525092990756
 20
-6.66168667825092
 10
14.03746856809896
 20
-6.633829749251298
 10
14.12974479638334
 20
-6.60607033048193
 10
14.2220781795689
 20
-6.578408371104108
 10
14.31446728246387
 20
-6.550843820279124
 10
14.40691066987644
 20
-6.523376627168268
 10
14.49940690661482
 20
-6.496006740932833
 10
14.59195455748723
 20
-6.468734110734108
 10
14.68455218730188
 20
-6.441558685733384
 10
14.77719836086697
 20
-6.414480415091955
 10
14.86989164299071
 20
-6.387499247971109
 10
14.96263059848132
 20
-6.360615133532137
 10
15.05541379214701
 20
-6.333828020936332
 10
15.14823978879598
 20
-6.307137859344985
 10
15.24110715323644
 20
-6.280544597919387
 10
15.33401445027661
 20
-6.254048185820828
 10
15.42696024472469
 20
-6.2276485722106
 10
15.51994310138889
 20
-6.201345706249995
 10
15.61296158507742
 20
-6.175139537100302
 10
15.7060142605985
 20
-6.149030013922813
 10
15.79909969276033
 20
-6.12301708587882
 10
15.89221644637112
 20
-6.097100702129613
 10
15.98536308623908
 20
-6.071280811836484
 10
16.07853817717243
 20
-6.045557364160723
 10
16.17174028397936
 20
-6.019930308263621
 10
16.2649679714681
 20
-5.994399593306471
 10
16.35821980444685
 20
-5.968965168450565
 10
16.45149434772381
 20
-5.943626982857189
 10
16.54479016610721
 20
-5.91838498568764
 10
16.63810582440524
 20
-5.893239126103206
 10
16.73143988742613
 20
-5.868189353265176
 10
16.82479091997808
 20
-5.843235616334846
 10
16.91815748686929
 20
-5.818377864473505
 10
17.01153815290798
 20
-5.793616046842443
 10
17.10493148290237
 20
-5.768950112602951
 10
17.19833604166065
 20
-5.744380010916323
 10
17.29175039399103
 20
-5.719905690943847
 10
17.38517310470174
 20
-5.695527101846817
 10
17.47860273860097
 20
-5.671244192786521
 10
17.57203786049694
 20
-5.647056912924253
 10
17.66547703519786
 20
-5.622965211421301
 10
17.75891882751193
 20
-5.598969037438959
 10
17.85236180224737
 20
-5.575068340138517
 10
17.94580452421239
 20
-5.551263068681267
 10
18.03924555821519
 20
-5.527553172228497
 10
18.13268346906399
 20
-5.503938599941502
 10
18.226116821567
 20
-5.480419300981572
 10
18.31954418053241
 20
-5.456995224509996
 10
18.41296411076846
 20
-5.433666319688068
 10
18.50637517708333
 20
-5.410432535677077
 10
18.59977594428526
 20
-5.387293821638315
 10
18.69316497718243
 20
-5.364250126733074
 10
18.78654084058307
 20
-5.341301400122645
 10
18.87990209929538
 20
-5.318447590968317
 10
18.97324731812758
 20
-5.295688648431382
 10
19.06657506188787
 20
-5.273024521673133
 10
19.15988389538446
 20
-5.250455159854859
 10
19.25317238342556
 20
-5.227980512137853
 10
19.34643909081939
 20
-5.205600527683403
 10
19.43968258237415
 20
-5.183315155652803
 10
19.53290142289805
 20
-5.161124345207343
 10
19.6260941771993
 20
-5.139028045508315
 10
19.71925941008611
 20
-5.117026205717009
 10
19.81239568636669
 20
-5.095118774994717
 10
19.90550157084926
 20
-5.073305702502729
 10
19.99857562834201
 20
-5.051586937402337
 10
20.09161642365316
 20
-5.029962428854833
 10
20.18462252159093
 20
-5.008432126021505
 10
20.27759248696351
 20
-4.986995978063648
 10
20.37052488457913
 20
-4.965653934142551
 10
20.46341827924598
 20
-4.944405943419506
 10
20.55627123577228
 20
-4.923251955055803
 10
20.64908231896624
 20
-4.902191918212733
 10
20.74185009363607
 20
-4.881225782051589
 10
20.83457312458997
 20
-4.86035349573366
 10
20.92724997663616
 20
-4.839575008420239
 10
21.01987921458285
 20
-4.818890269272615
 10
21.11245940323825
 20
-4.798299227452081
 10
21.20498910741057
 20
-4.777801832119927
 10
21.29746689190801
 20
-4.757398032437445
 10
21.38989132153878
 20
-4.737087777565926
 10
21.48226096111111
 20
-4.71687101666666
 10
21.57457437543319
 20
-4.69674769890094
 10
21.66683012931323
 20
-4.676717773430055
 10
21.75902678755946
 20
-4.656781189415297
 10
21.85116291498006
 20
-4.636937896017958
 10
21.94323707638326
 20
-4.617187842399328
 10
22.03524783657726
 20
-4.597530977720699
 10
22.12719376037029
 20
-4.577967251143361
 10
22.21907341257053
 20
-4.558496611828607
 10
22.3108853579862
 20
-4.539119008937726
 10
22.40262816142553
 20
-4.51983439163201
 10
22.4943003876967
 20
-4.50064270907275
 10
22.58590060160794
 20
-4.481543910421238
 10
22.67742736796745
 20
-4.462537944838764
 10
22.76887925158344
 20
-4.443624761486619
 10
22.86025481726412
 20
-4.424804309526095
 10
22.95155262981771
 20
-4.406076538118484
 10
23.0427712540524
 20
-4.387441396425073
 10
23.13390925477642
 20
-4.368898833607159
 10
23.22496519679797
 20
-4.350448798826029
 10
23.31593764492526
 20
-4.332091241242975
 10
23.40682516396651
 20
-4.313826110019289
 10
23.49762631872991
 20
-4.29565335431626
 10
23.58833967402368
 20
-4.277572923295182
 10
23.67896379465603
 20
-4.259584766117344
 10
23.76949724543517
 20
-4.241688831944038
 10
23.85993859116931
 20
-4.223885069936555
 10
23.95028639666666
 20
-4.206173429256188
 10
24.04053922673543
 20
-4.188553859064223
 10
24.13069564618383
 20
-4.171026308521956
 10
24.22075421982006
 20
-4.153590726790676
 10
24.31071351245235
 20
-4.136247063031676
 10
24.40057208888889
 20
-4.118995266406244
 10
24.4903285139379
 20
-4.101835286075673
 10
24.57998135240758
 20
-4.084767071201254
 10
24.66952916910616
 20
-4.067790570944279
 10
24.75897052884183
 20
-4.050905734466038
 10
24.8483039964228
 20
-4.034112510927821
 10
24.93752813665729
 20
-4.017410849490923
 10
25.02664151435351
 20
-4.00080069931663
 10
25.11564269431966
 20
-3.984282009566237
 10
25.20453024136396
 20
-3.967854729401034
 10
25.29330272029462
 20
-3.951518807982311
 10
25.38195869591983
 20
-3.935274194471361
 10
25.47049673304782
 20
-3.919120838029474
 10
25.5589153964868
 20
-3.903058687817941
 10
25.64721325104497
 20
-3.887087692998053
 10
25.73538886153055
 20
-3.871207802731103
 10
25.82344079275174
 20
-3.855418966178379
 10
25.91136760951675
 20
-3.839721132501174
 10
25.99916787663379
 20
-3.82411425086078
 10
26.08684015891108
 20
-3.808598270418487
 10
26.17438302115682
 20
-3.793173140335585
 10
26.26179502817922
 20
-3.777838809773368
 10
26.3490747447865
 20
-3.762595227893124
 10
26.43622073578685
 20
-3.747442343856146
 10
26.5232315659885
 20
-3.732380106823724
 10
26.61010580019965
 20
-3.71740846595715
 10
26.69684200322851
 20
-3.702527370417716
 10
26.78343873988328
 20
-3.687736769366711
 10
26.8698945749722
 20
-3.673036611965428
 10
26.95620807330345
 20
-3.658426847375156
 10
27.04237779968524
 20
-3.643907424757189
 10
27.1284023189258
 20
-3.629478293272815
 10
27.21428019583333
 20
-3.615139402083328
 10
27.30000999521604
 20
-3.600890700350017
 10
27.38559028188214
 20
-3.586732137234173
 10
27.47101962063983
 20
-3.572663661897089
 10
27.55629657629734
 20
-3.558685223500055
 10
27.64141971366286
 20
-3.544796771204363
 10
27.72638759754461
 20
-3.530998254171302
 10
27.81119879275079
 20
-3.517289621562165
 10
27.89585186408963
 20
-3.503670822538243
 10
27.98034537636932
 20
-3.490141806260826
 10
28.06467789439807
 20
-3.476702521891206
 10
28.14884798298411
 20
-3.463352918590675
 10
28.23285420693563
 20
-3.450092945520523
 10
28.31669513106085
 20
-3.43692255184204
 10
28.40036932016796
 20
-3.42384168671652
 10
28.4838753390652
 20
-3.410850299305251
 10
28.56721175256077
 20
-3.397948338769526
 10
28.65037712546286
 20
-3.385135754270635
 10
28.73337002257971
 20
-3.372412494969871
 10
28.8161890087195
 20
-3.359778510028524
 10
28.89883264869046
 20
-3.347233748607885
 10
28.98129950730079
 20
-3.334778159869245
 10
29.06358814935871
 20
-3.322411692973895
 10
29.14569713967242
 20
-3.310134297083126
 10
29.22762504305014
 20
-3.29794592135823
 10
29.30937042430006
 20
-3.285846514960499
 10
29.39093184823041
 20
-3.273836027051221
 10
29.47230787964939
 20
-3.261914406791689
 10
29.55349708336521
 20
-3.250081603343196
 10
29.63449802418609
 20
-3.23833756586703
 10
29.71530926692022
 20
-3.226682243524483
 10
29.79592937637583
 20
-3.215115585476847
 10
29.87635691736111
 20
-3.203637540885412
 10
29.9565904546843
 20
-3.19224805891147
 10
30.03662855315357
 20
-3.180947088716311
 10
30.11646977757717
 20
-3.169734579461228
 10
30.19611269276327
 20
-3.158610480307511
 10
30.27555586352011
 20
-3.147574740416451
 10
30.35479785465589
 20
-3.136627308949339
 10
30.43383723097881
 20
-3.125768135067466
 10
30.51267255729709
 20
-3.114997167932125
 10
30.59130239841895
 20
-3.104314356704604
 10
30.66972531915258
 20
-3.093719650546197
 10
30.74793988430621
 20
-3.083212998618193
 10
30.82594465868802
 20
-3.072794350081884
 10
30.90373820710625
 20
-3.062463654098563
 10
30.98131909436909
 20
-3.052220859829518
 10
31.05868588528476
 20
-3.04206591643604
 10
31.13583714466146
 20
-3.031998773079423
 10
31.21277143730742
 20
-3.022019378920957
 10
31.28948732803083
 20
-3.012127683121931
 10
31.3659833816399
 20
-3.00232363484364
 10
31.44225816294286
 20
-2.992607183247372
 10
31.51831023674789
 20
-2.982978277494419
 10
31.59413816786322
 20
-2.973436866746072
 10
31.66974052109705
 20
-2.963982900163623
 10
31.7451158612576
 20
-2.954616326908362
 10
31.82026275315307
 20
-2.945337096141581
 10
31.89517976159168
 20
-2.936145157024571
 10
31.96986545138164
 20
-2.927040458718622
 10
32.04431838733115
 20
-2.918022950385027
 10
32.11853713424842
 20
-2.909092581185076
 10
32.19252025694166
 20
-2.90024930028006
 10
32.26626632021908
 20
-2.891493056831269
 10
32.3397738888889
 20
-2.882823799999997
  0
LWPOLYLINE
  5
61
330
2A2
100
AcDbEntity
  8
0
 62
    18
420
        0
100
AcDbPolyline
 90
      257
 70
     0
 43
0.0
 10
32.3397738888889
 20
-2.882823799999997
 10
32.41329025704515
 20
-2.874224173661976
 10
32.48706112827552
 20
-2.865676527092868
 10
32.56108268162863
 20
-2.857180466772602
 10
32.6353510961531
 20
-2.848735599181109
 10
32.70986255089758
 20
-2.840341530798321
 10
32.78461322491071
 20
-2.831997868104169
 10
32.8595992972411
 20
-2.823704217578583
 10
32.9348169469374
 20
-2.815460185701494
 10
33.01026235304825
 20
-2.807265378952834
 10
33.08593169462226
 20
-2.799119403812532
 10
33.16182115070809
 20
-2.791021866760521
 10
33.23792690035436
 20
-2.78297237427673
 10
33.3142451226097
 20
-2.774970532841091
 10
33.39077199652274
 20
-2.767015948933534
 10
33.46750370114214
 20
-2.759108229033992
 10
33.54443641551651
 20
-2.751246979622393
 10
33.62156631869448
 20
-2.743431807178669
 10
33.6988895897247
 20
-2.735662318182751
 10
33.77640240765579
 20
-2.727938119114571
 10
33.85410095153641
 20
-2.720258816454058
 10
33.93198140041515
 20
-2.712624016681143
 10
34.01003993334068
 20
-2.705033326275759
 10
34.08827272936162
 20
-2.697486351717834
 10
34.1666759675266
 20
-2.689982699487301
 10
34.24524582688426
 20
-2.68252197606409
 10
34.32397848648323
 20
-2.675103787928133
 10
34.40287012537214
 20
-2.667727741559359
 10
34.48191692259964
 20
-2.6603934434377
 10
34.56111505721434
 20
-2.653100500043086
 10
34.6404607082649
 20
-2.64584851785545
 10
34.71995005479993
 20
-2.638637103354721
 10
34.79957927586807
 20
-2.63146586302083
 10
34.87934455051796
 20
-2.624334403333708
 10
34.95924205779823
 20
-2.617242330773286
 10
35.03926797675751
 20
-2.610189251819496
 10
35.11941848644445
 20
-2.603174772952267
 10
35.19968976590766
 20
-2.596198500651531
 10
35.28007799419579
 20
-2.589260041397218
 10
35.36057935035745
 20
-2.58235900166926
 10
35.44119001344131
 20
-2.575494987947587
 10
35.52190616249598
 20
-2.568667606712131
 10
35.60272397657011
 20
-2.561876464442821
 10
35.68363963471231
 20
-2.55512116761959
 10
35.76464931597122
 20
-2.548401322722368
 10
35.84574919939549
 20
-2.541716536231085
 10
35.92693546403374
 20
-2.535066414625673
 10
36.00820428893461
 20
-2.528450564386062
 10
36.08955185314672
 20
-2.521868591992184
 10
36.17097433571872
 20
-2.515320103923969
 10
36.25246791569923
 20
-2.508804706661348
 10
36.3340287721369
 20
-2.502322006684252
 10
36.41565308408035
 20
-2.495871610472612
 10
36.49733703057822
 20
-2.489453124506358
 10
36.57907679067914
 20
-2.483066155265423
 10
36.66086854343175
 20
-2.476710309229735
 10
36.74270846788468
 20
-2.470385192879228
 10
36.82459274308655
 20
-2.46409041269383
 10
36.90651754808601
 20
-2.457825575153474
 10
36.9884790619317
 20
-2.45159028673809
 10
37.07047346367223
 20
-2.445384153927608
 10
37.15249693235625
 20
-2.439206783201961
 10
37.23454564703239
 20
-2.433057781041078
 10
37.3166157867493
 20
-2.42693675392489
 10
37.39870353055558
 20
-2.420843308333329
 10
37.48080505749988
 20
-2.414777050746326
 10
37.56291654663084
 20
-2.40873758764381
 10
37.64503417699708
 20
-2.402724525505714
 10
37.72715412764725
 20
-2.396737470811967
 10
37.80927257762998
 20
-2.390776030042501
 10
37.89138570599388
 20
-2.384839809677247
 10
37.97348969178762
 20
-2.378928416196135
 10
38.05558071405981
 20
-2.373041456079097
 10
38.13765495185909
 20
-2.367178535806064
 10
38.21970858423409
 20
-2.361339261856965
 10
38.30173779023345
 20
-2.355523240711733
 10
38.38373874890578
 20
-2.349730078850297
 10
38.46570763929977
 20
-2.343959382752589
 10
38.547640640464
 20
-2.33821075889854
 10
38.62953393144711
 20
-2.332483813768081
 10
38.71138369129775
 20
-2.326778153841142
 10
38.79318609906456
 20
-2.321093385597654
 10
38.87493733379615
 20
-2.315429115517548
 10
38.95663357454118
 20
-2.309784950080756
 10
39.03827100034826
 20
-2.304160495767207
 10
39.11984579026603
 20
-2.298555359056834
 10
39.20135412334312
 20
-2.292969146429567
 10
39.28279217862818
 20
-2.287401464365335
 10
39.36415613516984
 20
-2.281851919344071
 10
39.44544217201671
 20
-2.276320117845706
 10
39.52664646821744
 20
-2.27080566635017
 10
39.60776520282067
 20
-2.265308171337393
 10
39.68879455487503
 20
-2.259827239287309
 10
39.76973070342915
 20
-2.254362476679845
 10
39.85056982753166
 20
-2.248913489994935
 10
39.93130810623121
 20
-2.243479885712508
 10
40.0119417185764
 20
-2.238061270312496
 10
40.0924668436159
 20
-2.232657250274829
 10
40.17287966039832
 20
-2.227267432079438
 10
40.25317634797232
 20
-2.221891422206254
 10
40.33335308538651
 20
-2.216528827135209
 10
40.41340605168952
 20
-2.211179253346232
 10
40.49333142592999
 20
-2.205842307319255
 10
40.57312538715657
 20
-2.200517595534209
 10
40.65278411441788
 20
-2.195204724471024
 10
40.73230378676254
 20
-2.189903300609632
 10
40.81168058323921
 20
-2.184612930429963
 10
40.8909106828965
 20
-2.179333220411948
 10
40.96999026478306
 20
-2.174063777035518
 10
41.04891550794753
 20
-2.168804206780604
 10
41.12768259143853
 20
-2.163554116127137
 10
41.20628769430468
 20
-2.158313111555047
 10
41.28472699559464
 20
-2.153080799544266
 10
41.36299667435702
 20
-2.147856786574725
 10
41.44109290964047
 20
-2.142640679126354
 10
41.51901188049364
 20
-2.137432083679084
 10
41.59674976596511
 20
-2.132230606712845
 10
41.67430274510357
 20
-2.12703585470757
 10
41.75166699695762
 20
-2.121847434143189
 10
41.82883870057591
 20
-2.116664951499633
 10
41.90581403500707
 20
-2.111488013256832
 10
41.98258917929972
 20
-2.106316225894717
 10
42.05916031250252
 20
-2.101149195893219
 10
42.13552361366408
 20
-2.09598652973227
 10
42.21167526183304
 20
-2.0908278338918
 10
42.28761143605803
 20
-2.085672714851741
 10
42.3633283153877
 20
-2.080520779092021
 10
42.43882207887066
 20
-2.075371633092574
 10
42.51408890555557
 20
-2.070224883333329
 10
42.58912497449104
 20
-2.065080136294217
 10
42.66392646472572
 20
-2.05993699845517
 10
42.73848955530823
 20
-2.054795076296118
 10
42.81281042528722
 20
-2.049653976296993
 10
42.88688525371131
 20
-2.044513304937724
 10
42.96071021962913
 20
-2.039372668698243
 10
43.03428150208933
 20
-2.03423167405848
 10
43.10759528014053
 20
-2.029089927498368
 10
43.18064773283137
 20
-2.023947035497836
 10
43.25343503921048
 20
-2.018802604536815
 10
43.3259533783265
 20
-2.013656241095236
 10
43.39819892922806
 20
-2.008507551653031
 10
43.47016787096378
 20
-2.003356142690129
 10
43.54185638258232
 20
-1.998201620686463
 10
43.61326064313229
 20
-1.993043592121962
 10
43.68437683166235
 20
-1.987881663476558
 10
43.7552011272211
 20
-1.982715441230181
 10
43.82572970885718
 20
-1.977544531862763
 10
43.89595875561925
 20
-1.972368541854234
 10
43.96588444655593
 20
-1.967187077684525
 10
44.03550296071585
 20
-1.961999745833567
 10
44.10481047714764
 20
-1.956806152781291
 10
44.17380317489995
 20
-1.951605905007628
 10
44.24247723302139
 20
-1.946398608992509
 10
44.31082883056061
 20
-1.941183871215863
 10
44.37885414656624
 20
-1.935961298157624
 10
44.44654936008691
 20
-1.93073049629772
 10
44.51391065017125
 20
-1.925491072116084
 10
44.5809341958679
 20
-1.920242632092646
 10
44.6476161762255
 20
-1.914984782707337
 10
44.71395277029269
 20
-1.909717130440087
 10
44.77994015711806
 20
-1.904439281770829
 10
44.8455745157503
 20
-1.899150843179491
 10
44.91085202523801
 20
-1.893851421146007
 10
44.97576886462983
 20
-1.888540622150305
 10
45.04032121297439
 20
-1.883218052672318
 10
45.10450524932033
 20
-1.877883319191976
 10
45.16831715271629
 20
-1.872536028189209
 10
45.23175310221089
 20
-1.86717578614395
 10
45.29480927685277
 20
-1.861802199536128
 10
45.35748185569056
 20
-1.856414874845675
 10
45.4197670177729
 20
-1.851013418552521
 10
45.48166094214842
 20
-1.845597437136598
 10
45.54315980786575
 20
-1.840166537077836
 10
45.60425979397353
 20
-1.834720324856165
 10
45.66495707952038
 20
-1.829258406951518
 10
45.72524784355496
 20
-1.823780389843825
 10
45.78512826512588
 20
-1.818285880013017
 10
45.84459452328178
 20
-1.812774483939023
 10
45.9036427970713
 20
-1.807245808101777
 10
45.96226926554306
 20
-1.801699458981207
 10
46.02047010774572
 20
-1.796135043057246
 10
46.07824150272788
 20
-1.790552166809825
 10
46.13557962953819
 20
-1.784950436718873
 10
46.19248066722528
 20
-1.779329459264322
 10
46.24894079483779
 20
-1.773688840926102
 10
46.30495619142436
 20
-1.768028188184145
 10
46.3605230360336
 20
-1.762347107518382
 10
46.41563750771416
 20
-1.756645205408744
 10
46.47029578551468
 20
-1.75092208833516
 10
46.52449404848377
 20
-1.745177362777563
 10
46.57822847567009
 20
-1.739410635215882
 10
46.63149524612225
 20
-1.733621512130049
 10
46.6842905388889
 20
-1.727809599999996
 10
46.73661053301867
 20
-1.721974505305651
 10
46.78845140756019
 20
-1.716115834526948
 10
46.83980934156209
 20
-1.710233194143815
 10
46.89068051407303
 20
-1.704326190636185
 10
46.9410611041416
 20
-1.698394430483988
 10
46.99094729081646
 20
-1.692437520167155
 10
47.04033525314625
 20
-1.686455066165617
 10
47.08922117017959
 20
-1.680446674959306
 10
47.13760122096511
 20
-1.67441195302815
 10
47.18547158455146
 20
-1.668350506852082
 10
47.23282843998726
 20
-1.662261942911032
 10
47.27966796632114
 20
-1.656145867684932
 10
47.32598634260176
 20
-1.650001887653712
 10
47.37177974787772
 20
-1.643829609297303
 10
47.41704436119768
 20
-1.637628639095636
 10
47.46177636161026
 20
-1.631398583528642
 10
47.50597192816409
 20
-1.625139049076251
 10
47.54962723990781
 20
-1.618849642218395
 10
47.59273847589005
 20
-1.612529969435004
 10
47.63530181515945
 20
-1.60617963720601
 10
47.67731343676463
 20
-1.599798252011342
 10
47.71876951975425
 20
-1.593385420330933
 10
47.75966624317692
 20
-1.586940748644713
 10
47.79999978608128
 20
-1.580463843432613
 10
47.83976632751597
 20
-1.573954311174563
 10
47.87896204652961
 20
-1.567411758350495
 10
47.91758312217084
 20
-1.56083579144034
 10
47.9556257334883
 20
-1.554226016924027
 10
47.99308605953063
 20
-1.547582041281489
 10
48.02996027934643
 20
-1.540903470992656
 10
48.06624457198437
 20
-1.534189912537459
 10
48.10193511649306
 20
-1.527440972395829
 10
48.13702809192115
 20
-1.520656257047697
 10
48.17151967731726
 20
-1.513835372972993
 10
48.20540605173004
 20
-1.506977926651648
 10
48.23868339420811
 20
-1.500083524563594
 10
48.2713478838001
 20
-1.493151773188762
 10
48.30339569955467
 20
-1.486182279007081
 10
48.33482302052042
 20
-1.479174648498484
 10
48.36562602574599
 20
-1.4721284881429
 10
48.39580089428004
 20
-1.46504340442026
 10
48.42534380517117
 20
-1.457919003810497
 10
48.45425093746803
 20
-1.45075489279354
 10
48.48251847021926
 20
-1.44355067784932
 10
48.51014258247348
 20
-1.436305965457769
 10
48.53711945327933
 20
-1.429020362098817
 10
48.56344526168545
 20
-1.421693474252395
 10
48.58911618674047
 20
-1.414324908398433
 10
48.614128407493
 20
-1.406914271016864
 10
48.63847810299171
 20
-1.399461168587617
 10
48.66216145228521
 20
-1.391965207590624
 10
48.68517463442215
 20
-1.384425994505815
 10
48.70751382845113
 20
-1.376843135813121
 10
48.72917521342084
 20
-1.369216237992473
 10
48.75015496837985
 20
-1.361544907523803
 10
48.77044927237686
 20
-1.35382875088704
 10
48.79005430446044
 20
-1.346067374562116
 10
48.80896624367927
 20
-1.338260385028962
 10
48.82718126908195
 20
-1.330407388767509
 10
48.84469555971715
 20
-1.322507992257687
 10
48.86150529463346
 20
-1.314561801979427
 10
48.87760665287956
 20
-1.30656842441266
 10
48.89299581350404
 20
-1.298527466037317
 10
48.90766895555556
 20
-1.290438533333329
  0
LWPOLYLINE
  5
62
330
2A2
100
AcDbEntity
  8
0
 62
    18
420
        0
100
AcDbPolyline
 90
      257
 70
     0
 43
0.0
 10
7.133829888888869
 20
11.4929524888889
 10
7.170977031753583
 20
11.4704062739992
 10
7.20804878718175
 20
11.44780927900392
 10
7.245045758705649
 20
11.42516206200752
 10
7.281968549857566
 20
11.40246518111446
 10
7.318817764169779
 20
11.37971919442919
 10
7.355594005174575
 20
11.35692466005617
 10
7.392297876404234
 20
11.33408213609988
 10
7.42892998139104
 20
11.31119218066475
 10
7.465490923667273
 20
11.28825535185526
 10
7.50198130676522
 20
11.26527220777586
 10
7.538401734217159
 20
11.24224330653101
 10
7.574752809555373
 20
11.21916920622517
 10
7.611035136312148
 20
11.1960504649628
 10
7.647249318019763
 20
11.17288764084837
 10
7.683395958210503
 20
11.14968129198632
 10
7.719475660416647
 20
11.12643197648113
 10
7.755489028170483
 20
11.10314025243724
 10
7.791436665004288
 20
11.07980667795912
 10
7.827319174450348
 20
11.05643181115123
 10
7.863137160040943
 20
11.03301621011803
 10
7.898891225308357
 20
11.00956043296397
 10
7.934581973784873
 20
10.98606503779352
 10
7.970210009002773
 20
10.96253058271113
 10
8.00577593449434
 20
10.93895762582127
 10
8.041280353791855
 20
10.91534672522839
 10
8.0767238704276
 20
10.89169843903696
 10
8.112107087933861
 20
10.86801332535143
 10
8.147430609842917
 20
10.84429194227626
 10
8.182695039687054
 20
10.82053484791592
 10
8.21790098099855
 20
10.79674260037486
 10
8.253049037309692
 20
10.77291575775753
 10
8.28813981215276
 20
10.74905487816841
 10
8.323173909060037
 20
10.72516051971195
 10
8.358151931563805
 20
10.70123324049261
 10
8.393074483196347
 20
10.67727359861484
 10
8.427942167489945
 20
10.65328215218312
 10
8.462755587976883
 20
10.62925945930189
 10
8.497515348189442
 20
10.60520607807562
 10
8.532222051659906
 20
10.58112256660876
 10
8.566876301920555
 20
10.55700948300579
 10
8.601478702503673
 20
10.53286738537114
 10
8.636029856941544
 20
10.5086968318093
 10
8.67053036876645
 20
10.4844983804247
 10
8.70498084151067
 20
10.46027258932182
 10
8.73938187870649
 20
10.43602001660512
 10
8.773734083886191
 20
10.41174122037904
 10
8.808038060582058
 20
10.38743675874806
 10
8.842294412326371
 20
10.36310718981663
 10
8.876503742651412
 20
10.33875307168922
 10
8.910666655089468
 20
10.31437496247027
 10
8.944783753172814
 20
10.28997342026425
 10
8.97885564043374
 20
10.26554900317562
 10
9.012882920404522
 20
10.24110226930884
 10
9.046866196617447
 20
10.21663377676836
 10
9.080806072604798
 20
10.19214408365866
 10
9.114703151898855
 20
10.16763374808418
 10
9.148558038031897
 20
10.14310332814939
 10
9.182371334536217
 20
10.11855338195875
 10
9.216143644944086
 20
10.09398446761671
 10
9.249875572787797
 20
10.06939714322773
 10
9.283567721599624
 20
10.04479196689629
 10
9.317220694911853
 20
10.02016949672682
 10
9.350835096256768
 20
9.995530290823794
 10
9.384411529166648
 20
9.970874907291675
 10
9.41795059717378
 20
9.946203904234917
 10
9.451452903810443
 20
9.92151783975798
 10
9.484919052608918
 20
9.896817271965325
 10
9.518349647101491
 20
9.872102758961411
 10
9.551745290820442
 20
9.847374858850696
 10
9.585106587298057
 20
9.822634129737638
 10
9.618434140066617
 20
9.797881129726703
 10
9.651728552658401
 20
9.773116416922345
 10
9.684990428605698
 20
9.748340549429024
 10
9.718220371440786
 20
9.7235540853512
 10
9.751418984695945
 20
9.698757582793334
 10
9.784586871903464
 20
9.673951599859883
 10
9.817724636595623
 20
9.649136694655308
 10
9.850832882304704
 20
9.624313425284067
 10
9.883912212562988
 20
9.599482349850621
 10
9.916963230902759
 20
9.574644026459428
 10
9.949986540856301
 20
9.54979901321495
 10
9.982982745955894
 20
9.524947868221641
 10
10.01595244973382
 20
9.500091149583968
 10
10.04889625572237
 20
9.475229415406384
 10
10.08181476745381
 20
9.450363223793351
 10
10.11470858846044
 20
9.425493132849331
 10
10.14757832227453
 20
9.40061970067878
 10
10.18042457242837
 20
9.375743485386158
 10
10.21324794245423
 20
9.350865045075924
 10
10.24604903588441
 20
9.325984937852539
 10
10.27882845625119
 20
9.301103721820462
 10
10.31158680708684
 20
9.276221955084154
 10
10.34432469192365
 20
9.251340195748071
 10
10.37704271429391
 20
9.226459001916671
 10
10.40974147772988
 20
9.201578931694419
 10
10.44242158576387
 20
9.176700543185774
 10
10.47508364192815
 20
9.15182439449519
 10
10.50772824975499
 20
9.126951043727132
 10
10.5403560127767
 20
9.102081048986054
 10
10.57296753452554
 20
9.077214968376424
 10
10.60556341853379
 20
9.052353360002693
 10
10.63814426833376
 20
9.027496781969322
 10
10.6707106874577
 20
9.002645792380775
 10
10.70326327943792
 20
8.977800949341509
 10
10.73580264780668
 20
8.95296281095598
 10
10.76832939609627
 20
8.928131935328652
 10
10.80084412783899
 20
8.903308880563984
 10
10.83334744656709
 20
8.878494204766431
 10
10.86583995581288
 20
8.853688466040458
 10
10.89832225910863
 20
8.82889222249052
 10
10.93079495998662
 20
8.804106032221082
 10
10.96325866197915
 20
8.779330453336598
 10
10.99571396861848
 20
8.75456604394153
 10
11.0281614834369
 20
8.729813362140336
 10
11.06060180996671
 20
8.705072966037477
 10
11.09303555174016
 20
8.680345413737411
 10
11.12546331228956
 20
8.6556312633446
 10
11.15788569514718
 20
8.6309310729635
 10
11.1903033038453
 20
8.606245400698576
 10
11.22271674191621
 20
8.581574804654279
 10
11.25512661289219
 20
8.556919842935075
 10
11.28753352030553
 20
8.53228107364542
 10
11.3199380676885
 20
8.507659054889777
 10
11.35234085857338
 20
8.483054344772603
 10
11.38474249649247
 20
8.458467501398356
 10
11.41714358497804
 20
8.433899082871498
 10
11.44954472756238
 20
8.409349647296489
 10
11.48194652777776
 20
8.384819752777787
 10
11.51434958915647
 20
8.360309957419851
 10
11.54675451523079
 20
8.335820819327141
 10
11.57916190953301
 20
8.311352896604117
 10
11.61157237559541
 20
8.286906747355237
 10
11.64398651695027
 20
8.26248292968496
 10
11.67640493712987
 20
8.238082001697752
 10
11.7088282396665
 20
8.213704521498064
 10
11.74125702809243
 20
8.189351047190357
 10
11.77369190593995
 20
8.165022136879095
 10
11.80613347674135
 20
8.140718348668733
 10
11.8385823440289
 20
8.116440240663731
 10
11.87103911133489
 20
8.092188370968552
 10
11.9035043821916
 20
8.067963297687651
 10
11.93597876013131
 20
8.043765578925491
 10
11.9684628486863
 20
8.019595772786529
 10
12.00095725138887
 20
7.995454437375226
 10
12.03346257177128
 20
7.971342130796041
 10
12.06597941336583
 20
7.947259411153432
 10
12.09850837970479
 20
7.923206836551859
 10
12.13105007432046
 20
7.899184965095785
 10
12.16360510074509
 20
7.875194354889663
 10
12.196174062511
 20
7.851235564037958
 10
12.22875756315045
 20
7.827309150645126
 10
12.26135620619573
 20
7.803415672815628
 10
12.29397059517911
 20
7.779555688653925
 10
12.32660133363289
 20
7.755729756264474
 10
12.35924902508935
 20
7.731938433751735
 10
12.39191427308076
 20
7.708182279220166
 10
12.42459768113942
 20
7.684461850774229
 10
12.4572998527976
 20
7.660777706518384
 10
12.49002139158758
 20
7.637130404557087
 10
12.52276290104165
 20
7.613520502994801
 10
12.55552498469209
 20
7.589948559935983
 10
12.58830824607118
 20
7.566415133485093
 10
12.62111328871121
 20
7.542920781746592
 10
12.65394071614446
 20
7.519466062824937
 10
12.6867911319032
 20
7.496051534824588
 10
12.71966513951974
 20
7.472677755850007
 10
12.75256334252633
 20
7.449345284005649
 10
12.78548634445528
 20
7.426054677395978
 10
12.81843474883885
 20
7.402806494125451
 10
12.85140915920933
 20
7.379601292298528
 10
12.88441017909902
 20
7.356439630019667
 10
12.91743841204018
 20
7.333322065393329
 10
12.9504944615651
 20
7.310249156523975
 10
12.98357893120607
 20
7.287221461516061
 10
13.01669242449536
 20
7.264239538474048
 10
13.04983554496526
 20
7.241303945502396
 10
13.08300889614805
 20
7.218415240705564
 10
13.11621308157601
 20
7.19557398218801
 10
13.14944870478143
 20
7.172780728054198
 10
13.18271636929658
 20
7.150036036408583
 10
13.21601667865376
 20
7.127340465355624
 10
13.24935023638524
 20
7.104694572999783
 10
13.28271764602331
 20
7.082098917445519
 10
13.31611951110024
 20
7.059554056797291
 10
13.34955643514832
 20
7.037060549159559
 10
13.38302902169984
 20
7.014618952636781
 10
13.41653787428708
 20
6.992229825333418
 10
13.45008359644231
 20
6.969893725353928
 10
13.48366679169782
 20
6.947611210802773
 10
13.5172880635859
 20
6.925382839784408
 10
13.55094801563882
 20
6.903209170403298
 10
13.58464725138887
 20
6.881090760763898
 10
13.61838637436833
 20
6.859028168970669
 10
13.65216598810948
 20
6.837021953128071
 10
13.68598669614461
 20
6.815072671340563
 10
13.719849102006
 20
6.793180881712604
 10
13.75375380922593
 20
6.771347142348654
 10
13.78770142133668
 20
6.749572011353174
 10
13.82169254187054
 20
6.727856046830619
 10
13.85572777435979
 20
6.706199806885452
 10
13.88980772233671
 20
6.684603849622132
 10
13.92393298933358
 20
6.663068733145119
 10
13.95810417888269
 20
6.64159501555887
 10
13.99232189451631
 20
6.620183254967848
 10
14.02658673976673
 20
6.598834009476508
 10
14.06089931816625
 20
6.577547837189313
 10
14.09526023324712
 20
6.55632529621072
 10
14.12967008854165
 20
6.535166944645191
 10
14.1641294875821
 20
6.514073340597184
 10
14.19863903390077
 20
6.493045042171159
 10
14.23319933102994
 20
6.472082607471575
 10
14.26781098250188
 20
6.45118659460289
 10
14.30247459184888
 20
6.430357561669566
 10
14.33719076260323
 20
6.409596066776063
 10
14.37196009829721
 20
6.388902668026837
 10
14.40678320246309
 20
6.36827792352635
 10
14.44166067863316
 20
6.34772239137906
 10
14.47659313033971
 20
6.327236629689426
 10
14.51158116111501
 20
6.30682119656191
 10
14.54662537449135
 20
6.286476650100971
 10
14.58172637400102
 20
6.266203548411067
 10
14.61688476317628
 20
6.246002449596658
 10
14.65210114554944
 20
6.225873911762203
 10
14.68737612465276
 20
6.205818493012162
 10
14.72271030401853
 20
6.185836751450995
 10
14.75810428717904
 20
6.165929245183159
 10
14.79355867766656
 20
6.146096532313115
 10
14.82907407901338
 20
6.126339170945325
 10
14.86465109475178
 20
6.106657719184245
 10
14.90029032841405
 20
6.087052735134336
 10
14.93599238353247
 20
6.067524776900055
 10
14.9717578636393
 20
6.048074402585865
 10
15.00758737226686
 20
6.028702170296223
 10
15.0434815129474
 20
6.00940863813559
 10
15.07944088921323
 20
5.990194364208425
 10
15.11546610459661
 20
5.971059906619187
 10
15.15155776262983
 20
5.952005823472335
 10
15.18771646684518
 20
5.933032672872329
 10
15.22394282077493
 20
5.914141012923629
 10
15.26023742795137
 20
5.895331401730695
 10
15.29660089190678
 20
5.876604397397984
 10
15.33303381617345
 20
5.857960558029957
 10
15.36953680428366
 20
5.839400441731074
 10
15.40611045976968
 20
5.820924606605791
 10
15.4427553861638
 20
5.802533610758573
 10
15.47947218699831
 20
5.784228012293877
 10
15.51626146580548
 20
5.766008369316161
 10
15.55312382611761
 20
5.747875239929886
 10
15.59005987146696
 20
5.72982918223951
 10
15.62707020538583
 20
5.711870754349494
 10
15.6641554314065
 20
5.694000514364297
 10
15.70131615306124
 20
5.67621902038838
 10
15.73855297388234
 20
5.658526830526197
 10
15.77586649740209
 20
5.640924502882214
 10
15.81325732715277
 20
5.623412595560886
 10
15.85072606666665
 20
5.605991666666675
  0
LWPOLYLINE
  5
63
330
2A2
100
AcDbEntity
  8
0
 62
    18
420
        0
100
AcDbPolyline
 90
      257
 70
     0
 43
0.0
 10
15.85072606666665
 20
5.605991666666675
 10
15.89050570700067
 20
5.587605116572028
 10
15.93031753119669
 20
5.5692857843706
 10
15.97016139873316
 20
5.551033470623661
 10
16.01003716908856
 20
5.532847975892478
 10
16.04994470174134
 20
5.514729100738322
 10
16.08988385616994
 20
5.496676645722461
 10
16.12985449185284
 20
5.478690411406165
 10
16.16985646826849
 20
5.460770198350702
 10
16.20988964489534
 20
5.442915807117344
 10
16.24995388121187
 20
5.425127038267355
 10
16.29004903669651
 20
5.40740369236201
 10
16.33017497082772
 20
5.389745569962574
 10
16.37033154308399
 20
5.372152471630317
 10
16.41051861294374
 20
5.354624197926507
 10
16.45073603988545
 20
5.337160549412418
 10
16.49098368338757
 20
5.319761326649314
 10
16.53126140292857
 20
5.302426330198466
 10
16.57156905798688
 20
5.285155360621143
 10
16.61190650804098
 20
5.267948218478613
 10
16.65227361256933
 20
5.250804704332148
 10
16.69267023105038
 20
5.233724618743015
 10
16.73309622296258
 20
5.216707762272483
 10
16.7735514477844
 20
5.19975393548182
 10
16.81403576499429
 20
5.1828629389323
 10
16.85454903407072
 20
5.166034573185187
 10
16.89509111449213
 20
5.149268638801752
 10
16.93566186573699
 20
5.132564936343264
 10
16.97626114728376
 20
5.115923266370994
 10
17.01688881861088
 20
5.099343429446207
 10
17.05754473919683
 20
5.082825226130177
 10
17.09822876852006
 20
5.066368456984168
 10
17.13894076605902
 20
5.049972922569452
 10
17.17968059129217
 20
5.033638423447298
 10
17.22044810369798
 20
5.017364760178976
 10
17.26124316275489
 20
5.001151733325754
 10
17.30206562794137
 20
4.984999143448902
 10
17.34291535873588
 20
4.968906791109686
 10
17.38379221461687
 20
4.952874476869379
 10
17.4246960550628
 20
4.936902001289249
 10
17.46562673955213
 20
4.920989164930563
 10
17.50658412756331
 20
4.905135768354594
 10
17.54756807857481
 20
4.889341612122608
 10
17.58857845206508
 20
4.873606496795874
 10
17.62961510751257
 20
4.857930222935662
 10
17.67067790439575
 20
4.842312591103244
 10
17.71176670219308
 20
4.826753401859884
 10
17.75288136038301
 20
4.811252455766856
 10
17.794021738444
 20
4.795809553385425
 10
17.83518769585451
 20
4.780424495276861
 10
17.87637909209299
 20
4.765097082002436
 10
17.91759578663791
 20
4.749827114123415
 10
17.95883763896772
 20
4.734614392201071
 10
18.00010450856087
 20
4.719458716796671
 10
18.04139625489584
 20
4.704359888471484
 10
18.08271273745106
 20
4.68931770778678
 10
18.12405381570501
 20
4.674331975303827
 10
18.16541934913614
 20
4.659402491583895
 10
18.20680919722291
 20
4.644529057188254
 10
18.24822321944378
 20
4.629711472678172
 10
18.28966127527719
 20
4.614949538614916
 10
18.33112322420162
 20
4.600243055559759
 10
18.37260892569552
 20
4.585591824073969
 10
18.41411823923734
 20
4.570995644718813
 10
18.45565102430555
 20
4.556454318055564
 10
18.4972071403786
 20
4.541967644645487
 10
18.53878644693495
 20
4.527535425049853
 10
18.58038880345305
 20
4.513157459829932
 10
18.62201406941138
 20
4.498833549546991
 10
18.66366210428837
 20
4.484563494762302
 10
18.7053327675625
 20
4.470347096037131
 10
18.74702591871221
 20
4.45618415393275
 10
18.78874141721597
 20
4.442074469010424
 10
18.83047912255224
 20
4.428017841831427
 10
18.87223889419947
 20
4.414014072957025
 10
18.91402059163612
 20
4.400062962948489
 10
18.95582407434064
 20
4.386164312367087
 10
18.99764920179151
 20
4.372317921774088
 10
19.03949583346716
 20
4.358523591730762
 10
19.08136382884606
 20
4.344781122798376
 10
19.12325304740667
 20
4.331090315538202
 10
19.16516334862745
 20
4.317450970511508
 10
19.20709459198686
 20
4.303862888279563
 10
19.24904663696335
 20
4.290325869403635
 10
19.29101934303537
 20
4.276839714444995
 10
19.3330125696814
 20
4.26340422396491
 10
19.37502617637987
 20
4.250019198524653
 10
19.41706002260926
 20
4.236684438685488
 10
19.45911396784803
 20
4.223399745008689
 10
19.50118787157462
 20
4.210164918055521
 10
19.5432815932675
 20
4.196979758387256
 10
19.58539499240511
 20
4.183844066565161
 10
19.62752792846594
 20
4.170757643150507
 10
19.66968026092842
 20
4.157720288704563
 10
19.71185184927102
 20
4.144731803788596
 10
19.7540425529722
 20
4.131791988963877
 10
19.79625223151041
 20
4.118900644791675
 10
19.83848074436411
 20
4.106057571833258
 10
19.88072795101176
 20
4.093262570649896
 10
19.92299371093181
 20
4.080515441802859
 10
19.96527788360272
 20
4.067815985853416
 10
20.00758032850297
 20
4.055164003362833
 10
20.04990090511098
 20
4.042559294892383
 10
20.09223947290524
 20
4.030001661003332
 10
20.13459589136419
 20
4.017490902256952
 10
20.1769700199663
 20
4.005026819214511
 10
20.21936171819001
 20
3.992609212437277
 10
20.2617708455138
 20
3.980237882486521
 10
20.30419726141611
 20
3.967912629923511
 10
20.3466408253754
 20
3.955633255309516
 10
20.38910139687014
 20
3.943399559205806
 10
20.43157883537877
 20
3.931211342173648
 10
20.47407300037976
 20
3.919068404774314
 10
20.51658375135157
 20
3.906970547569071
 10
20.55911094777265
 20
3.894917571119189
 10
20.60165444912146
 20
3.882909275985938
 10
20.64421411487646
 20
3.870945462730585
 10
20.68678980451611
 20
3.859025931914402
 10
20.72938137751886
 20
3.847150484098655
 10
20.77198869336317
 20
3.835318919844614
 10
20.8146116115275
 20
3.82353103971355
 10
20.85724999149031
 20
3.81178664426673
 10
20.89990369273005
 20
3.800085534065424
 10
20.94257257472518
 20
3.788427509670901
 10
20.98525649695416
 20
3.776812371644431
 10
21.02795531889546
 20
3.765239920547282
 10
21.07066890002752
 20
3.753709956940723
 10
21.11339709982881
 20
3.742222281386023
 10
21.15613977777777
 20
3.730776694444453
 10
21.19889679335287
 20
3.71937299667728
 10
21.24166800603258
 20
3.708010988645774
 10
21.28445327529533
 20
3.696690470911204
 10
21.3272524606196
 20
3.685411244034839
 10
21.37006542148384
 20
3.674173108577949
 10
21.41289201736651
 20
3.662975865101801
 10
21.45573210774606
 20
3.651819314167667
 10
21.49858555210096
 20
3.640703256336813
 10
21.54145220990966
 20
3.629627492170512
 10
21.58433194065061
 20
3.618591822230029
 10
21.62722460380229
 20
3.607596047076636
 10
21.67013005884314
 20
3.596639967271601
 10
21.71304816525162
 20
3.585723383376194
 10
21.75597878250619
 20
3.574846095951682
 10
21.79892177008531
 20
3.564007905559336
 10
21.84187698746744
 20
3.553208612760425
 10
21.88484429413103
 20
3.542448018116217
 10
21.92782354955454
 20
3.531725922187983
 10
21.97081461321643
 20
3.52104212553699
 10
22.01381734459516
 20
3.510396428724509
 10
22.05683160316918
 20
3.499788632311808
 10
22.09985724841696
 20
3.489218536860156
 10
22.14289413981694
 20
3.478685942930823
 10
22.18594213684759
 20
3.468190651085078
 10
22.22900109898737
 20
3.457732461884189
 10
22.27207088571473
 20
3.447311175889426
 10
22.31515135650814
 20
3.436926593662058
 10
22.35824237084604
 20
3.426578515763355
 10
22.4013437882069
 20
3.416266742754584
 10
22.44445546806917
 20
3.405991075197016
 10
22.48757726991132
 20
3.395751313651919
 10
22.53070905321179
 20
3.385547258680564
 10
22.57385067744906
 20
3.375378710844218
 10
22.61700200210157
 20
3.36524547070415
 10
22.66016288664778
 20
3.355147338821631
 10
22.70333319056616
 20
3.345084115757929
 10
22.74651277333516
 20
3.335055602074313
 10
22.78970149443322
 20
3.325061598332053
 10
22.83289921333883
 20
3.315101905092417
 10
22.87610578953043
 20
3.305176322916675
 10
22.91932108248648
 20
3.295284652366095
 10
22.96254495168543
 20
3.285426694001948
 10
23.00577725660575
 20
3.275602248385501
 10
23.04901785672589
 20
3.265811116078024
 10
23.09226661152432
 20
3.256053097640788
 10
23.13552338047948
 20
3.246327993635058
 10
23.17878802306985
 20
3.236635604622107
 10
23.22206039877386
 20
3.226975731163203
 10
23.26534036706999
 20
3.217348173819613
 10
23.30862778743668
 20
3.207752733152609
 10
23.35192251935241
 20
3.198189209723459
 10
23.39522442229562
 20
3.188657404093432
 10
23.43853335574478
 20
3.179157116823798
 10
23.48184917917834
 20
3.169688148475824
 10
23.52517175207475
 20
3.160250299610781
 10
23.56850093391248
 20
3.150843370789938
 10
23.61183658416999
 20
3.141467162574564
 10
23.65517856232572
 20
3.132121475525928
 10
23.69852672785815
 20
3.122806110205298
 10
23.74188094024572
 20
3.113520867173944
 10
23.78524105896691
 20
3.104265546993136
 10
23.82860694350015
 20
3.095039950224142
 10
23.87197845332391
 20
3.085843877428232
 10
23.91535544791666
 20
3.076677129166674
 10
23.95873778675684
 20
3.067539506000738
 10
24.00212532932292
 20
3.058430808491693
 10
24.04551793509334
 20
3.049350837200808
 10
24.08891546354658
 20
3.040299392689352
 10
24.13231777416108
 20
3.031276275518594
 10
24.17572472641531
 20
3.022281286249804
 10
24.21913617978772
 20
3.01331422544425
 10
24.26255199375677
 20
3.004374893663202
 10
24.30597202780093
 20
2.995463091467928
 10
24.34939614139863
 20
2.986578619419698
 10
24.39282419402836
 20
2.977721278079782
 10
24.43625604516856
 20
2.968890868009447
 10
24.47969155429768
 20
2.960087189769963
 10
24.52313058089419
 20
2.951310043922601
 10
24.56657298443654
 20
2.942559231028627
 10
24.6100186244032
 20
2.933834551649313
 10
24.65346736027263
 20
2.925135806345925
 10
24.69691905152327
 20
2.916462795679735
 10
24.74037355763358
 20
2.907815320212011
 10
24.78383073808203
 20
2.899193180504021
 10
24.82729045234707
 20
2.890596177117036
 10
24.87075255990717
 20
2.882024110612325
 10
24.91421692024077
 20
2.873476781551155
 10
24.95768339282633
 20
2.864953990494798
 10
25.00115183714232
 20
2.856455538004521
 10
25.04462211266718
 20
2.847981224641595
 10
25.08809407887939
 20
2.839530850967287
 10
25.13156759525739
 20
2.831104217542867
 10
25.17504252127965
 20
2.822701124929604
 10
25.21851871642462
 20
2.814321373688768
 10
25.26199604017076
 20
2.805964764381627
 10
25.30547435199653
 20
2.79763109756945
 10
25.34895351138038
 20
2.789320173813508
 10
25.39243337780076
 20
2.781031793675068
 10
25.43591381073616
 20
2.7727657577154
 10
25.47939466966501
 20
2.764521866495774
 10
25.52287581406578
 20
2.756299920577458
 10
25.56635710341692
 20
2.74809972052172
 10
25.6098383971969
 20
2.739921066889832
 10
25.65331955488417
 20
2.731763760243061
 10
25.69680043595718
 20
2.723627601142677
 10
25.74028089989439
 20
2.715512390149948
 10
25.78376080617427
 20
2.707417927826145
 10
25.82724001427527
 20
2.699344014732536
 10
25.87071838367585
 20
2.691290451430389
 10
25.91419577385446
 20
2.683257038480976
 10
25.95767204428957
 20
2.675243576445564
 10
26.00114705445963
 20
2.667249865885422
 10
26.0446206638431
 20
2.659275707361819
 10
26.08809273191844
 20
2.651320901436026
 10
26.1315631181641
 20
2.643385248669311
 10
26.17503168205854
 20
2.635468549622943
 10
26.21849828308023
 20
2.627570604858191
 10
26.26196278070761
 20
2.619691214936324
 10
26.30542503441915
 20
2.611830180418612
 10
26.3488849036933
 20
2.603987301866323
 10
26.39234224800853
 20
2.596162379840727
 10
26.43579692684328
 20
2.588355214903094
 10
26.47924879967602
 20
2.580565607614691
 10
26.5226977259852
 20
2.572793358536787
 10
26.56614356524929
 20
2.565038268230653
 10
26.60958617694675
 20
2.557300137257558
 10
26.65302542055601
 20
2.549578766178771
 10
26.69646115555555
 20
2.541873955555559
  0
LWPOLYLINE
  5
64
330
2A2
100
AcDbEntity
  8
0
 62
    18
420
        0
100
AcDbPolyline
 90
      257
 70
     0
 43
0.0
 10
26.69646115555555
 20
2.541873955555559
 10
26.73641450663154
 20
2.534819570882319
 10
26.77633667479986
 20
2.527821416251504
 10
26.81622808090851
 20
2.520879196215225
 10
26.85608914580553
 20
2.513992615325592
 10
26.89592029033892
 20
2.507161378134716
 10
26.93572193535673
 20
2.500385189194704
 10
26.97549450170696
 20
2.493663753057668
 10
27.01523841023763
 20
2.48699677427572
 10
27.05495408179676
 20
2.480383957400966
 10
27.09464193723238
 20
2.473825006985519
 10
27.1343023973925
 20
2.467319627581488
 10
27.17393588312514
 20
2.460867523740984
 10
27.21354281527832
 20
2.454468400016116
 10
27.25312361470006
 20
2.448121960958993
 10
27.29267870223839
 20
2.441827911121727
 10
27.33220849874132
 20
2.435585955056427
 10
27.37171342505687
 20
2.429395797315204
 10
27.41119390203306
 20
2.423257142450167
 10
27.45065035051792
 20
2.417169695013426
 10
27.49008319135945
 20
2.411133159557092
 10
27.5294928454057
 20
2.405147240633275
 10
27.56887973350466
 20
2.399211642794083
 10
27.60824427650436
 20
2.393326070591628
 10
27.64758689525282
 20
2.38749022857802
 10
27.68690801059807
 20
2.381703821305369
 10
27.72620804338811
 20
2.375966553325784
 10
27.76548741447098
 20
2.370278129191376
 10
27.80474654469469
 20
2.364638253454255
 10
27.84398585490726
 20
2.35904663066653
 10
27.88320576595671
 20
2.353502965380312
 10
27.92240669869106
 20
2.348006962147711
 10
27.96158907395833
 20
2.342558325520837
 10
28.00075331260654
 20
2.337156760051801
 10
28.03989983548372
 20
2.33180197029271
 10
28.07902906343787
 20
2.326493660795677
 10
28.11814141731703
 20
2.321231536112811
 10
28.15723731796921
 20
2.316015300796222
 10
28.19631718624242
 20
2.31084465939802
 10
28.2353814429847
 20
2.305719316470314
 10
28.27443050904405
 20
2.300638976565217
 10
28.31346480526851
 20
2.295603344234837
 10
28.35248475250609
 20
2.290612124031283
 10
28.3914907716048
 20
2.285665020506667
 10
28.43048328341268
 20
2.280761738213099
 10
28.46946270877773
 20
2.275901981702687
 10
28.50842946854799
 20
2.271085455527543
 10
28.54738398357147
 20
2.266311864239777
 10
28.58632667469618
 20
2.261580912391497
 10
28.62525796277016
 20
2.256892304534816
 10
28.6641782686414
 20
2.252245745221842
 10
28.70308801315796
 20
2.247640939004685
 10
28.74198761716783
 20
2.243077590435457
 10
28.78087750151904
 20
2.238555404066266
 10
28.81975808705961
 20
2.234074084449222
 10
28.85862979463757
 20
2.229633336136436
 10
28.89749304510091
 20
2.225232863680017
 10
28.93634825929768
 20
2.220872371632077
 10
28.97519585807589
 20
2.216551564544725
 10
29.01403626228355
 20
2.21227014697007
 10
29.05286989276869
 20
2.208027823460224
 10
29.09169717037933
 20
2.203824298567294
 10
29.13051851596349
 20
2.199659276843394
 10
29.16933435036919
 20
2.195532462840631
 10
29.20814509444445
 20
2.191443561111116
 10
29.24695116903727
 20
2.18739227620696
 10
29.28575299499571
 20
2.18337831268027
 10
29.32455099316776
 20
2.17940137508316
 10
29.36334558440145
 20
2.175461167967737
 10
29.4021371895448
 20
2.171557395886113
 10
29.44092622944582
 20
2.167689763390397
 10
29.47971312495254
 20
2.1638579750327
 10
29.51849829691297
 20
2.160061735365131
 10
29.55728216617515
 20
2.1563007489398
 10
29.59606515358709
 20
2.152574720308817
 10
29.6348476799968
 20
2.148883354024294
 10
29.6736301662523
 20
2.145226354638338
 10
29.71241303320163
 20
2.141603426703061
 10
29.75119670169279
 20
2.138014274770572
 10
29.78998159257381
 20
2.134458603392982
 10
29.8287681266927
 20
2.130936117122401
 10
29.8675567248975
 20
2.127446520510938
 10
29.90634780803621
 20
2.123989518110704
 10
29.94514179695685
 20
2.120564814473809
 10
29.98393911250746
 20
2.117172114152362
 10
30.02274017553604
 20
2.113811121698475
 10
30.06154540689061
 20
2.110481541664256
 10
30.10035522741921
 20
2.107183078601816
 10
30.13917005796983
 20
2.103915437063265
 10
30.17799031939052
 20
2.100678321600713
 10
30.21681643252928
 20
2.09747143676627
 10
30.25564881823414
 20
2.094294487112045
 10
30.29448789735311
 20
2.09114717719015
 10
30.33333409073422
 20
2.088029211552695
 10
30.37218781922548
 20
2.084940294751787
 10
30.41104950367491
 20
2.08188013133954
 10
30.44991956493055
 20
2.078848425868061
 10
30.4887984238404
 20
2.075844882889462
 10
30.52768650125249
 20
2.072869206955852
 10
30.56658421801483
 20
2.069921102619341
 10
30.60549199497545
 20
2.06700027443204
 10
30.64441025298236
 20
2.064106426946058
 10
30.68333941288358
 20
2.061239264713505
 10
30.72227989552715
 20
2.058398492286492
 10
30.76123212176106
 20
2.055583814217128
 10
30.80019651243335
 20
2.052794935057524
 10
30.83917348839205
 20
2.050031559359789
 10
30.87816347048514
 20
2.047293391676035
 10
30.91716687956068
 20
2.044580136558369
 10
30.95618413646667
 20
2.041891498558904
 10
30.99521566205113
 20
2.039227182229747
 10
31.03426187716209
 20
2.036586892123011
 10
31.07332320264756
 20
2.033970332790804
 10
31.11240005935557
 20
2.031377208785238
 10
31.15149286813413
 20
2.028807224658421
 10
31.19060204983127
 20
2.026260084962464
 10
31.229728025295
 20
2.023735494249477
 10
31.26887121537334
 20
2.02123315707157
 10
31.30803204091432
 20
2.018752777980853
 10
31.34721092276595
 20
2.016294061529436
 10
31.38640828177626
 20
2.013856712269429
 10
31.42562453879325
 20
2.011440434752942
 10
31.46486011466497
 20
2.009044933532086
 10
31.50411543023941
 20
2.006669913158968
 10
31.54339090636461
 20
2.004315078185702
 10
31.58268696388858
 20
2.001980133164396
 10
31.62200402365934
 20
1.99966478264716
 10
31.66134250652492
 20
1.997368731186105
 10
31.70070283333333
 20
1.99509168333334
 10
31.74008542493259
 20
1.992833343640975
 10
31.77949070217073
 20
1.99059341666112
 10
31.81891908589575
 20
1.988371606945887
 10
31.85837099695569
 20
1.986167619047383
 10
31.89784685619857
 20
1.98398115751772
 10
31.9373470844724
 20
1.981811926909008
 10
31.97687210262519
 20
1.979659631773357
 10
32.01642233150498
 20
1.977523976662876
 10
32.05599819195979
 20
1.975404666129675
 10
32.09560010483762
 20
1.973301404725865
 10
32.13522849098651
 20
1.971213897003556
 10
32.17488377125447
 20
1.969141847514858
 10
32.21456636648953
 20
1.967084960811881
 10
32.25427669753968
 20
1.965042941446735
 10
32.29401518525297
 20
1.963015493971529
 10
32.33378225047743
 20
1.961002322938375
 10
32.37357831406104
 20
1.959003132899381
 10
32.41340379685185
 20
1.957017628406658
 10
32.45325911969787
 20
1.955045514012317
 10
32.49314470344711
 20
1.953086494268466
 10
32.53306096894762
 20
1.951140273727217
 10
32.5730083370474
 20
1.949206556940679
 10
32.61298722859446
 20
1.947285048460962
 10
32.65299806443684
 20
1.945375452840176
 10
32.69304126542255
 20
1.943477474630431
 10
32.73311725239961
 20
1.941590818383838
 10
32.77322644621604
 20
1.939715188652506
 10
32.81336926771985
 20
1.937850289988545
 10
32.85354613775908
 20
1.935995826944067
 10
32.89375747718175
 20
1.934151504071179
 10
32.93400370683585
 20
1.932317025921993
 10
32.97428524756944
 20
1.930492097048618
 10
33.0146025202305
 20
1.928676422003165
 10
33.05495594566709
 20
1.926869705337743
 10
33.09534594472719
 20
1.925071651604463
 10
33.13577293825886
 20
1.923281965355435
 10
33.1762373471101
 20
1.921500351142768
 10
33.21673959212891
 20
1.919726513518573
 10
33.25728009416335
 20
1.91796015703496
 10
33.29785927406141
 20
1.916200986244039
 10
33.33847755267111
 20
1.914448705697919
 10
33.3791353508405
 20
1.912703019948712
 10
33.41983308941757
 20
1.910963633548526
 10
33.46057118925035
 20
1.909230251049473
 10
33.50135007118686
 20
1.90750257700366
 10
33.54217015607511
 20
1.905780315963201
 10
33.58303186476314
 20
1.904063172480203
 10
33.62393561809895
 20
1.902350851106778
 10
33.66488183693057
 20
1.900643056395034
 10
33.70587094210602
 20
1.898939492897083
 10
33.74690335447333
 20
1.897239865165034
 10
33.7879794948805
 20
1.895543877750997
 10
33.82909978417555
 20
1.893851235207082
 10
33.87026464320653
 20
1.8921616420854
 10
33.91147449282142
 20
1.89047480293806
 10
33.95272975386827
 20
1.888790422317173
 10
33.99403084719508
 20
1.887108204774848
 10
34.03537819364988
 20
1.885427854863195
 10
34.07677221408068
 20
1.883749077134325
 10
34.11821332933552
 20
1.882071576140347
 10
34.1597019602624
 20
1.880395056433372
 10
34.20123852770936
 20
1.87871922256551
 10
34.24282345252441
 20
1.87704377908887
 10
34.28445715555555
 20
1.875368430555562
 10
34.32614005765082
 20
1.873692881517698
 10
34.36787257965824
 20
1.872016836527386
 10
34.40965514242583
 20
1.870340000136737
 10
34.45148816680161
 20
1.868662076897861
 10
34.49337207363359
 20
1.866982771362868
 10
34.53530728376981
 20
1.865301788083868
 10
34.57729421805826
 20
1.86361883161297
 10
34.61933329734699
 20
1.861933606502286
 10
34.661424942484
 20
1.860245817303924
 10
34.70356957431733
 20
1.858555168569996
 10
34.74576761369498
 20
1.85686136485261
 10
34.78801948146497
 20
1.855164110703878
 10
34.83032559847533
 20
1.853463110675909
 10
34.87268638557408
 20
1.851758069320813
 10
34.91510226360922
 20
1.8500486911907
 10
34.9575736534288
 20
1.848334680837681
 10
35.00010097588083
 20
1.846615742813864
 10
35.04268465181332
 20
1.844891581671362
 10
35.08532510207431
 20
1.843161901962282
 10
35.12802274751179
 20
1.841426408238736
 10
35.1707780089738
 20
1.839684805052833
 10
35.21359130730836
 20
1.837936796956684
 10
35.25646306336348
 20
1.836182088502398
 10
35.29939369798718
 20
1.834420384242086
 10
35.34238363202749
 20
1.832651388727857
 10
35.38543328633244
 20
1.830874806511822
 10
35.42854308175002
 20
1.829090342146091
 10
35.47171343912827
 20
1.827297700182773
 10
35.5149447793152
 20
1.825496585173979
 10
35.55823752315884
 20
1.823686701671819
 10
35.60159209150721
 20
1.821867754228403
 10
35.64500890520832
 20
1.82003944739584
 10
35.6884883851102
 20
1.818201485726241
 10
35.73203095206086
 20
1.816353573771716
 10
35.77563702690833
 20
1.814495416084376
 10
35.81930703050062
 20
1.812626717216329
 10
35.86304138368574
 20
1.810747181719686
 10
35.90684050731174
 20
1.808856514146557
 10
35.95070482222663
 20
1.806954419049053
 10
35.99463474927842
 20
1.805040600979282
 10
36.03863070931513
 20
1.803114764489355
 10
36.08269312318479
 20
1.801176614131383
 10
36.1268224117354
 20
1.799225854457475
 10
36.17101899581502
 20
1.797262190019741
 10
36.21528329627162
 20
1.795285325370292
 10
36.25961573395325
 20
1.793294965061237
 10
36.30401672970793
 20
1.791290813644686
 10
36.34848670438367
 20
1.78927257567275
 10
36.39302607882849
 20
1.787239955697538
 10
36.43763527389043
 20
1.78519265827116
 10
36.48231471041748
 20
1.783130387945728
 10
36.52706480925767
 20
1.781052849273349
 10
36.57188599125902
 20
1.778959746806135
 10
36.61677867726956
 20
1.776850785096196
 10
36.66174328813731
 20
1.774725668695642
 10
36.70678024471028
 20
1.772584102156582
 10
36.75188996783648
 20
1.770425790031127
 10
36.79707287836396
 20
1.768250436871386
 10
36.84232939714072
 20
1.766057747229471
 10
36.88765994501478
 20
1.763847425657491
 10
36.93306494283415
 20
1.761619176707555
 10
36.97854481144688
 20
1.759372704931774
 10
37.02409997170096
 20
1.757107714882258
 10
37.06973084444444
 20
1.754823911111117
  0
LINE
  5
65
330
2A2
100
AcDbEntity
  8
0
100
AcDbLine
 10
-49.88065682677288
 20
26.0
 30
0.0
 11
49.88002843714229
 21
26.0
 31
0.0
  0
SOLID
  5
66
330
2A2
100
AcDbEntity
  8
0
100
AcDbTrace
 10
-49.88065682677288
 20
26.0
 30
0.0
 11
-47.38065682677288
 21
26.41628465777284
 31
0.0
 12
-47.38065682677288
 22
25.58371534222716
 32
0.0
 13
-47.38065682677288
 23
25.58371534222716
 33
0.0
  0
SOLID
  5
67
330
2A2
100
AcDbEntity
  8
0
100
AcDbTrace
 10
49.88002843714229
 20
26.0
 30
0.0
 11
47.38002843714229
 21
25.58371534222716
 31
0.0
 12
47.38002843714229
 22
26.41628465777284
 32
0.0
 13
47.38002843714229
 23
26.41628465777284
 33
0.0
  0
LINE
  5
68
330
2A2
100
AcDbEntity
  8
0
100
AcDbLine
 10
-49.88065682677288
 20
0.6250000000000071
 30
0.0
 11
-49.88065682677288
 21
27.25
 31
0.0
  0
LINE
  5
69
330
2A2
100
AcDbEntity
  8
0
100
AcDbLine
 10
49.88002843714229
 20
0.6250000000000071
 30
0.0
 11
49.88002843714229
 21
27.25
 31
0.0
  0
MTEXT
  5
6A
330
2A2
100
AcDbEntity
  8
0
100
AcDbMText
 10
-0.0003141948152922
 20
27.875
 30
0.0
 40
2.5
 41
0.0
 46
0.0
 71
     5
 72
     1
  1
100
  7
textstyle0
 73
     1
 44
1.0
  0
LINE
  5
6F
330
2A2
100
AcDbEntity
  8
0
100
AcDbLine
 10
58.0
 20
13.42310695555555
 30
0.0
 11
58.0
 21
-15.32000520935911
 31
0.0
  0
SOLID
  5
70
330
2A2
100
AcDbEntity
  8
0
100
AcDbTrace
 10
58.0
 20
13.42310695555555
 30
0.0
 11
58.41628465777284
 21
10.92310695555555
 31
0.0
 12
57.58371534222716
 22
10.92310695555555
 32
0.0
 13
57.58371534222716
 23
10.92310695555555
 33
0.0
  0
SOLID
  5
71
330
2A2
100
AcDbEntity
  8
0
100
AcDbTrace
 10
58.0
 20
-15.32000520935911
 30
0.0
 11
57.58371534222716
 21
-12.82000520935911
 31
0.0
 12
58.41628465777284
 22
-12.82000520935911
 32
0.0
 13
58.41628465777284
 23
-12.82000520935911
 33
0.0
  0
LINE
  5
72
330
2A2
100
AcDbEntity
  8
0
100
AcDbLine
 10
0.6857991333332201
 20
13.42310695555555
 30
0.0
 11
59.25
 21
13.42310695555555
 31
0.0
  0
LINE
  5
73
330
2A2
100
AcDbEntity
  8
0
100
AcDbLine
 10
0.625
 20
-15.32000520935911
 30
0.0
 11
59.25
 21
-15.32000520935911
 31
0.0
  0
MTEXT
  5
74
330
2A2
100
AcDbEntity
  8
0
100
AcDbMText
 10
56.125
 20
-0.9484491269017779
 30
0.0
 40
2.5
 41
0.0
 46
0.0
 71
     5
 72
     1
  1
29
  7
textstyle1
 11
6.123233995736766E-17
 21
1.0
 31
0.0
 73
     1
 44
1.0
  0
LWPOLYLINE
  5
179
330
2A2
100
AcDbEntity
  8
0
 62
    18
420
        0
100
AcDbPolyline
 90
      257
 70
     0
 43
0.0
 10
37.06973084444444
 20
1.754823911111117
 10
37.11551717588111
 20
1.752568551340221
 10
37.16153657732212
 20
1.750388597702244
 10
37.20778626727642
 20
1.74828331136551
 10
37.25426346425296
 20
1.746251953498338
 10
37.30096538676077
 20
1.744293785269049
 10
37.34788925330875
 20
1.742408067845965
 10
37.39503228240589
 20
1.740594062397406
 10
37.44239169256116
 20
1.738851030091694
 10
37.48996470228352
 20
1.73717823209715
 10
37.53774853008196
 20
1.735574929582093
 10
37.58574039446542
 20
1.734040383714846
 10
37.63393751394287
 20
1.732573855663729
 10
37.68233710702331
 20
1.731174606597064
 10
37.73093639221565
 20
1.72984189768317
 10
37.77973258802889
 20
1.72857499009037
 10
37.82872291297199
 20
1.727373144986985
 10
37.87790458555394
 20
1.726235623541335
 10
37.92727482428366
 20
1.72516168692174
 10
37.97683084767016
 20
1.724150596296522
 10
38.02656987422238
 20
1.723201612834004
 10
38.07648912244931
 20
1.722313997702504
 10
38.12658581085989
 20
1.721487012070343
 10
38.17685715796311
 20
1.720719917105844
 10
38.22730038226791
 20
1.720011973977327
 10
38.2779127022833
 20
1.719362443853114
 10
38.3286913365182
 20
1.718770587901524
 10
38.3796335034816
 20
1.718235667290878
 10
38.43073642168248
 20
1.717756943189499
 10
38.48199730962977
 20
1.717333676765707
 10
38.53341338583247
 20
1.716965129187823
 10
38.58498186879952
 20
1.716650561624167
 10
38.63669997703992
 20
1.716389235243061
 10
38.68856492906261
 20
1.716180411212826
 10
38.74057394337656
 20
1.716023350701782
 10
38.79272423849075
 20
1.715917314878252
 10
38.84501303291412
 20
1.715861564910555
 10
38.89743754515568
 20
1.715855361967012
 10
38.94999499372435
 20
1.715897967215946
 10
39.00268259712912
 20
1.715988641825676
 10
39.05549757387897
 20
1.716126646964523
 10
39.10843714248285
 20
1.71631124380081
 10
39.16149852144972
 20
1.716541693502855
 10
39.21467892928856
 20
1.716817257238981
 10
39.26797558450833
 20
1.717137196177509
 10
39.321385705618
 20
1.717500771486759
 10
39.37490651112654
 20
1.717907244335052
 10
39.4285352195429
 20
1.71835587589071
 10
39.48226904937606
 20
1.718845927322054
 10
39.536105219135
 20
1.719376659797403
 10
39.59004094732866
 20
1.71994733448508
 10
39.64407345246604
 20
1.720557212553405
 10
39.69819995305607
 20
1.7212055551707
 10
39.75241766760773
 20
1.721891623505285
 10
39.80672381462999
 20
1.722614678725481
 10
39.86111561263183
 20
1.723373981999608
 10
39.9155902801222
 20
1.72416879449599
 10
39.97014503561005
 20
1.724998377382946
 10
40.02477709760439
 20
1.725861991828796
 10
40.07948368461415
 20
1.726758899001863
 10
40.13426201514832
 20
1.727688360070466
 10
40.18910930771585
 20
1.728649636202928
 10
40.24402278082572
 20
1.729641988567569
 10
40.29899965298689
 20
1.73066467833271
 10
40.35403714270832
 20
1.731716966666671
 10
40.40913246849898
 20
1.732798114737775
 10
40.46428284886786
 20
1.733907383714341
 10
40.5194855023239
 20
1.735044034764692
 10
40.57473764737606
 20
1.736207329057147
 10
40.63003650253334
 20
1.737396527760028
 10
40.68537928630469
 20
1.738610892041656
 10
40.74076321719906
 20
1.739849683070352
 10
40.79618551372543
 20
1.741112162014436
 10
40.85164339439278
 20
1.74239759004223
 10
40.90713407771007
 20
1.743705228322055
 10
40.96265478218624
 20
1.745034338022231
 10
41.0182027263303
 20
1.74638418031108
 10
41.07377512865119
 20
1.747754016356923
 10
41.12936920765787
 20
1.74914310732808
 10
41.18498218185933
 20
1.750550714392873
 10
41.24061126976453
 20
1.751976098719622
 10
41.29625368988242
 20
1.753418521476649
 10
41.35190666072199
 20
1.754877243832275
 10
41.40756740079219
 20
1.75635152695482
 10
41.46323312860199
 20
1.757840632012605
 10
41.51890106266036
 20
1.759343820173951
 10
41.57456842147628
 20
1.76086035260718
 10
41.63023242355868
 20
1.762389490480613
 10
41.68589028741657
 20
1.763930494962569
 10
41.74153923155889
 20
1.765482627221372
 10
41.79717647449461
 20
1.76704514842534
 10
41.85279923473271
 20
1.768617319742795
 10
41.90840473078214
 20
1.770198402342059
 10
41.96399018115186
 20
1.771787657391452
 10
42.01955280435087
 20
1.773384346059295
 10
42.07508981888811
 20
1.774987729513909
 10
42.13059844327255
 20
1.776597068923615
 10
42.18607589601318
 20
1.778211625456735
 10
42.24151939561892
 20
1.779830660281588
 10
42.29692616059878
 20
1.781453434566497
 10
42.35229340946171
 20
1.783079209479781
 10
42.40761836071667
 20
1.784707246189763
 10
42.46289823287264
 20
1.786336805864762
 10
42.51813024443858
 20
1.787967149673101
 10
42.57331161392346
 20
1.789597538783099
 10
42.62843955983625
 20
1.791227234363078
 10
42.68351130068589
 20
1.792855497581359
 10
42.7385240549814
 20
1.794481589606263
 10
42.79347504123169
 20
1.79610477160611
 10
42.84836147794577
 20
1.797724304749223
 10
42.90318058363256
 20
1.799339450203921
 10
42.95792957680109
 20
1.800949469138525
 10
43.01260567596027
 20
1.802553622721358
 10
43.0672060996191
 20
1.804151172120739
 10
43.12172806628653
 20
1.80574137850499
 10
43.17616879447153
 20
1.807323503042432
 10
43.23052550268307
 20
1.808896806901385
 10
43.28479540943012
 20
1.81046055125017
 10
43.33897573322164
 20
1.81201399725711
 10
43.3930636925666
 20
1.813556406090523
 10
43.44705650597398
 20
1.815087038918732
 10
43.50095139195271
 20
1.816605156910058
 10
43.55474556901179
 20
1.818110021232821
 10
43.60843625566018
 20
1.819600893055342
 10
43.66202067040683
 20
1.821077033545943
 10
43.71549603176074
 20
1.822537703872944
 10
43.76885955823084
 20
1.823982165204667
 10
43.82210846832612
 20
1.825409678709432
 10
43.87523998055554
 20
1.82681950555556
 10
43.92825131342806
 20
1.828210906911372
 10
43.98113968545267
 20
1.829583143945189
 10
44.03390231513831
 20
1.830935477825333
 10
44.08653642099396
 20
1.832267169720124
 10
44.13903922152858
 20
1.833577480797883
 10
44.19140793525115
 20
1.834865672226931
 10
44.24363978067062
 20
1.836131005175589
 10
44.29573197629597
 20
1.837372740812178
 10
44.34768174063615
 20
1.83859014030502
 10
44.39948629220015
 20
1.839782464822434
 10
44.45114284949692
 20
1.840948975532742
 10
44.50264863103543
 20
1.842088933604266
 10
44.55400085532466
 20
1.843201600205325
 10
44.60519674087355
 20
1.844286236504241
 10
44.65623350619109
 20
1.845342103669335
 10
44.70710836978623
 20
1.846368462868928
 10
44.75781855016795
 20
1.84736457527134
 10
44.80836126584521
 20
1.848329702044893
 10
44.85873373532698
 20
1.849263104357909
 10
44.90893317712224
 20
1.850164043378707
 10
44.95895680973992
 20
1.851031780275608
 10
45.00880185168902
 20
1.851865576216935
 10
45.0584655214785
 20
1.852664692371007
 10
45.10794503761731
 20
1.853428389906146
 10
45.15723761861443
 20
1.854155929990672
 10
45.20634048297885
 20
1.854846573792907
 10
45.25525084921948
 20
1.855499582481171
 10
45.30396593584534
 20
1.856114217223786
 10
45.35248296136537
 20
1.856689739189072
 10
45.40079914428854
 20
1.857225409545352
 10
45.44891170312383
 20
1.857720489460944
 10
45.49681785638019
 20
1.858174240104171
 10
45.5445148225666
 20
1.858585922643353
 10
45.59199982019202
 20
1.858954798246812
 10
45.63927006776541
 20
1.859280128082867
 10
45.68632278379575
 20
1.859561173319842
 10
45.73315518679199
 20
1.859797195126055
 10
45.77976449526312
 20
1.859987454669829
 10
45.82614792771809
 20
1.860131213119484
 10
45.87230270266587
 20
1.860227731643342
 10
45.91822603861543
 20
1.860276271409723
 10
45.96391515407573
 20
1.860276093586947
 10
46.00936726755574
 20
1.860226459343337
 10
46.05457959756443
 20
1.860126629847213
 10
46.09954936261077
 20
1.859975866266896
 10
46.14427378120372
 20
1.859773429770707
 10
46.18875007185223
 20
1.859518581526967
 10
46.23297545306531
 20
1.859210582703998
 10
46.27694714335189
 20
1.858848694470118
 10
46.32066236122095
 20
1.858432177993651
 10
46.36411832518147
 20
1.857960294442917
 10
46.40731225374238
 20
1.857432304986238
 10
46.45024136541268
 20
1.856847470791932
 10
46.49290287870131
 20
1.856205053028323
 10
46.53529401211728
 20
1.85550431286373
 10
46.5774119841695
 20
1.854744511466476
 10
46.61925401336699
 20
1.85392491000488
 10
46.66081731821867
 20
1.853044769647263
 10
46.70209911723354
 20
1.852103351561948
 10
46.74309662892056
 20
1.851099916917254
 10
46.7838070717887
 20
1.850033726881503
 10
46.82422766434691
 20
1.848904042623016
 10
46.86435562510417
 20
1.847710125310113
 10
46.90418817256944
 20
1.846451236111116
 10
46.94372252525169
 20
1.845126636194345
 10
46.98295590165988
 20
1.843735586728121
 10
47.02188552030299
 20
1.842277348880767
 10
47.06050859968998
 20
1.840751183820602
 10
47.09882235832982
 20
1.839156352715947
 10
47.13682401473147
 20
1.837492116735124
 10
47.1745107874039
 20
1.835757737046453
 10
47.21187989485608
 20
1.833952474818255
 10
47.24892855559698
 20
1.832075591218852
 10
47.28565398813555
 20
1.830126347416564
 10
47.32205341098077
 20
1.828104004579713
 10
47.35812404264161
 20
1.826007823876619
 10
47.39386310162702
 20
1.823837066475603
 10
47.42926780644599
 20
1.821590993544986
 10
47.46433537560748
 20
1.819268866253089
 10
47.49906302762044
 20
1.816869945768234
 10
47.53344798099385
 20
1.81439349325874
 10
47.56748745423667
 20
1.81183876989293
 10
47.60117866585787
 20
1.809205036839124
 10
47.63451883436643
 20
1.806491555265643
 10
47.66750517827129
 20
1.803697586340808
 10
47.70013491608145
 20
1.800822391232941
 10
47.73240526630585
 20
1.79786523111036
 10
47.76431344745347
 20
1.794825367141389
 10
47.79585667803327
 20
1.791702060494348
 10
47.82703217655421
 20
1.788494572337558
 10
47.85783716152527
 20
1.78520216383934
 10
47.88826885145543
 20
1.781824096168014
 10
47.91832446485363
 20
1.778359630491902
 10
47.94800122022883
 20
1.774808027979326
 10
47.97729633609003
 20
1.771168549798605
 10
48.00620703094617
 20
1.76744045711806
 10
48.03473052330623
 20
1.763623011106014
 10
48.06286403167918
 20
1.759715472930786
 10
48.09060477457397
 20
1.755717103760698
 10
48.11794997049958
 20
1.75162716476407
 10
48.14489683796498
 20
1.747444917109224
 10
48.17144259547912
 20
1.743169621964481
 10
48.19758446155098
 20
1.738800540498161
 10
48.22331965468953
 20
1.734336933878586
 10
48.24864539340371
 20
1.729778063274076
 10
48.27355889620253
 20
1.725123189852953
 10
48.29805738159493
 20
1.720371574783537
 10
48.32213806808987
 20
1.71552247923415
 10
48.34579817419634
 20
1.710575164373112
 10
48.3690349184233
 20
1.705528891368744
 10
48.3918455192797
 20
1.700382921389368
 10
48.41422719527451
 20
1.695136515603304
 10
48.43617716491672
 20
1.689788935178873
 10
48.45769264671527
 20
1.684339441284397
 10
48.47877085917915
 20
1.678787295088196
 10
48.4994090208173
 20
1.673131757758591
 10
48.51960435013871
 20
1.667372090463903
 10
48.53935406565234
 20
1.661507554372454
 10
48.55865538586716
 20
1.655537410652563
 10
48.57750552929213
 20
1.649460920472553
 10
48.5959017144362
 20
1.643277345000744
 10
48.61384115980837
 20
1.636985945405457
 10
48.63132108391759
 20
1.630585982855013
 10
48.64833870527283
 20
1.624076718517733
 10
48.66489124238306
 20
1.617457413561938
 10
48.68097591375725
 20
1.610727329155949
 10
48.69658993790434
 20
1.603885726468087
 10
48.71173053333332
 20
1.596931866666672
  0
LWPOLYLINE
  5
27A
330
2A2
100
AcDbEntity
  8
0
 62
    18
420
        0
100
AcDbPolyline
 90
      257
 70
     0
 43
0.0
 10
48.71173053333332
 20
1.596931866666672
 10
48.72657655458456
 20
1.589907398839115
 10
48.74130900112966
 20
1.582854756272777
 10
48.75592830887447
 20
1.57577437643591
 10
48.77043491372485
 20
1.568666696796762
 10
48.78482925158661
 20
1.561532154823586
 10
48.79911175836565
 20
1.554371187984631
 10
48.81328286996778
 20
1.547184233748149
 10
48.82734302229884
 20
1.53997172958239
 10
48.8412926512647
 20
1.532734112955604
 10
48.85513219277119
 20
1.525471821336042
 10
48.86886208272416
 20
1.518185292191955
 10
48.88248275702945
 20
1.510874962991593
 10
48.89599465159292
 20
1.503541271203207
 10
48.90939820232042
 20
1.496184654295048
 10
48.92269384511776
 20
1.488805549735365
 10
48.93588201589083
 20
1.481404394992411
 10
48.94896315054545
 20
1.473981627534434
 10
48.96193768498747
 20
1.466537684829686
 10
48.97480605512274
 20
1.459073004346418
 10
48.9875686968571
 20
1.45158802355288
 10
49.0002260460964
 20
1.444083179917322
 10
49.01277853874649
 20
1.436558910907995
 10
49.02522661071321
 20
1.42901565399315
 10
49.03757069790241
 20
1.421453846641038
 10
49.04981123621993
 20
1.413873926319909
 10
49.06194866157161
 20
1.406276330498013
 10
49.07398340986333
 20
1.398661496643601
 10
49.0859159170009
 20
1.391029862224924
 10
49.09774661889018
 20
1.383381864710233
 10
49.10947595143701
 20
1.375717941567777
 10
49.12110435054724
 20
1.368038530265808
 10
49.13263225212672
 20
1.360344068272576
 10
49.14406009208128
 20
1.352634993056332
 10
49.15538830631679
 20
1.344911742085326
 10
49.16661733073908
 20
1.337174752827808
 10
49.177747601254
 20
1.329424462752031
 10
49.18877955376739
 20
1.321661309326243
 10
49.19971362418511
 20
1.313885730018696
 10
49.21055024841299
 20
1.306098162297641
 10
49.22128986235688
 20
1.298299043631327
 10
49.23193290192263
 20
1.290488811488006
 10
49.24247980301611
 20
1.282667903335928
 10
49.25293100154311
 20
1.274836756643343
 10
49.26328693340952
 20
1.266995808878502
 10
49.27354803452118
 20
1.259145497509657
 10
49.28371474078391
 20
1.251286260005056
 10
49.29378748810359
 20
1.243418533832953
 10
49.30376671238605
 20
1.235542756461595
 10
49.31365284953713
 20
1.227659365359235
 10
49.32344633546268
 20
1.219768797994122
 10
49.33314760606856
 20
1.211871491834508
 10
49.3427570972606
 20
1.203967884348643
 10
49.35227524494465
 20
1.196058413004777
 10
49.36170248502656
 20
1.188143515271162
 10
49.37103925341217
 20
1.180223628616047
 10
49.38028598600732
 20
1.172299190507683
 10
49.38944311871788
 20
1.164370638414322
 10
49.39851108744967
 20
1.156438409804213
 10
49.40749032810856
 20
1.148502942145607
 10
49.41638127660037
 20
1.140564672906755
 10
49.42518436883095
 20
1.132624039555907
 10
49.43390004070618
 20
1.124681479561314
 10
49.44252872813186
 20
1.116737430391227
 10
49.45107086701387
 20
1.108792329513896
 10
49.45952689325802
 20
1.100846614397571
 10
49.4678972427702
 20
1.092900722510504
 10
49.47618235145623
 20
1.084955091320944
 10
49.48438265522196
 20
1.077010158297143
 10
49.49249858997322
 20
1.069066360907351
 10
49.5005305916159
 20
1.061124136619818
 10
49.50847909605579
 20
1.053183922902796
 10
49.51634453919878
 20
1.045246157224535
 10
49.5241273569507
 20
1.037311277053285
 10
49.53182798521739
 20
1.029379719857297
 10
49.53944685990471
 20
1.021451923104822
 10
49.54698441691849
 20
1.013528324264109
 10
49.55444109216459
 20
1.005609360803411
 10
49.56181732154884
 20
0.9976954701909769
 10
49.56911354097711
 20
0.9897870898950578
 10
49.57633018635523
 20
0.9818846573839044
 10
49.58346769358904
 20
0.973988610125767
 10
49.5905264985844
 20
0.9660993855888967
 10
49.59750703724713
 20
0.9582174212415433
 10
49.60440974548311
 20
0.9503431545519581
 10
49.61123505919818
 20
0.9424770229883911
 10
49.61798341429816
 20
0.9346194640190935
 10
49.62465524668894
 20
0.9267709151123156
 10
49.63125099227632
 20
0.9189318137363078
 10
49.63777108696615
 20
0.9111025973593211
 10
49.64421596666432
 20
0.9032837034496057
 10
49.65058606727663
 20
0.8954755694754126
 10
49.65688182470895
 20
0.887678632904992
 10
49.66310367486712
 20
0.8798933312065947
 10
49.66925205365698
 20
0.8721201018484714
 10
49.67532739698439
 20
0.8643593822988725
 10
49.68133014075518
 20
0.8566116100260486
 10
49.68726072087521
 20
0.8488772224982503
 10
49.69311957325031
 20
0.8411566571837283
 10
49.69890713378634
 20
0.833450351550733
 10
49.70462383838913
 20
0.8257587430675151
 10
49.71027012296456
 20
0.8180822692023253
 10
49.71584642341843
 20
0.8104213674234141
 10
49.72135317565662
 20
0.8027764751990321
 10
49.72679081558496
 20
0.7951480299974298
 10
49.7321597791093
 20
0.787536469286858
 10
49.73746050213549
 20
0.779942230535567
 10
49.74269342056937
 20
0.7723657512118077
 10
49.74785897031679
 20
0.7648074687838304
 10
49.7529575872836
 20
0.7572678207198861
 10
49.75798970737564
 20
0.7497472444882249
 10
49.76295576649875
 20
0.7422461775570979
 10
49.76785620055878
 20
0.7347650573947553
 10
49.77269144546158
 20
0.7273043214694477
 10
49.777461937113
 20
0.7198644072494258
 10
49.78216811141888
 20
0.7124457522029403
 10
49.78681040428506
 20
0.7050487937982416
 10
49.7913892516174
 20
0.6976739695035804
 10
49.79590508932174
 20
0.6903217167872074
 10
49.80035835330392
 20
0.6829924731173731
 10
49.80474947946978
 20
0.6756866759623279
 10
49.80907890372518
 20
0.6684047627903226
 10
49.81334706197597
 20
0.6611471710696077
 10
49.81755439012798
 20
0.6539143382684339
 10
49.82170132408707
 20
0.6467067018550519
 10
49.82578829975908
 20
0.6395246992977118
 10
49.82981575304986
 20
0.6323687680646647
 10
49.83378411986524
 20
0.6252393456241611
 10
49.83769383611109
 20
0.6181368694444513
 10
49.84154533769323
 20
0.6110617769937863
 10
49.84533906051753
 20
0.6040145057404164
 10
49.84907544048982
 20
0.5969954931525923
 10
49.85275491351595
 20
0.5900051766985644
 10
49.85637791550178
 20
0.5830439938465837
 10
49.85994488235313
 20
0.5761123820649005
 10
49.86345624997587
 20
0.5692107788217653
 10
49.86691245427582
 20
0.562339621585429
 10
49.87031393115885
 20
0.555499347824142
 10
49.8736611165308
 20
0.5486903950061548
 10
49.87695444629752
 20
0.5419132005997184
 10
49.88019435636484
 20
0.5351682020730829
 10
49.88338128263862
 20
0.5284558368944992
 10
49.88651566102469
 20
0.5217765425322177
 10
49.88959792742892
 20
0.5151307564544892
 10
49.89262851775713
 20
0.5085189161295641
 10
49.89560786791519
 20
0.5019414590256932
 10
49.89853641380893
 20
0.4953988226111269
 10
49.90141459134421
 20
0.4888914443541158
 10
49.90424283642685
 20
0.4824197617229106
 10
49.90702158496273
 20
0.4759842121857619
 10
49.90975127285767
 20
0.4695852332109202
 10
49.91243233601753
 20
0.4632232622666361
 10
49.91506521034814
 20
0.4568987368211602
 10
49.91765033175537
 20
0.4506120943427433
 10
49.92018813614504
 20
0.4443637722996356
 10
49.92267905942302
 20
0.438154208160088
 10
49.92512353749515
 20
0.431983839392351
 10
49.92752200626725
 20
0.4258531034646751
 10
49.9298749016452
 20
0.4197624378453111
 10
49.93218265953483
 20
0.4137122800025094
 10
49.93444571584199
 20
0.4077030674045207
 10
49.93666450647252
 20
0.4017352375195956
 10
49.93883946733227
 20
0.3958092278159845
 10
49.94097103432709
 20
0.3899254757619383
 10
49.94305964336282
 20
0.3840844188257073
 10
49.94510573034532
 20
0.3782864944755423
 10
49.9471097311804
 20
0.3725321401796938
 10
49.94907208177396
 20
0.3668217934064125
 10
49.9509932180318
 20
0.3611558916239488
 10
49.95287357585977
 20
0.3555348723005535
 10
49.95471359116375
 20
0.349959172904477
 10
49.95651369984955
 20
0.34442923090397
 10
49.95827433782304
 20
0.3389454837672831
 10
49.95999594099004
 20
0.3335083689626668
 10
49.96167894525642
 20
0.3281183239583718
 10
49.96332378652803
 20
0.3227757862226487
 10
49.9649309007107
 20
0.317481193223748
 10
49.96650072371027
 20
0.3122349824299204
 10
49.96803369143259
 20
0.3070375913094164
 10
49.96953023978352
 20
0.3018894573304866
 10
49.97099080466891
 20
0.2967910179613816
 10
49.97241582199459
 20
0.2917427106703521
 10
49.97380572766639
 20
0.2867449729256485
 10
49.97516095759019
 20
0.2817982421955215
 10
49.97648194767183
 20
0.2769029559482218
 10
49.97776913381713
 20
0.2720595516519997
 10
49.97902295193196
 20
0.2672684667751061
 10
49.98024383792216
 20
0.2625301387857915
 10
49.98143222769357
 20
0.2578450051523064
 10
49.98258855715206
 20
0.2532135033429014
 10
49.98371326220343
 20
0.2486360708258272
 10
49.98480677875357
 20
0.2441131450693343
 10
49.98586954270831
 20
0.2396451635416733
 10
49.98690198997349
 20
0.2352325637110949
 10
49.98790455645496
 20
0.2308757830458495
 10
49.98887767805857
 20
0.2265752590141879
 10
49.98982179069016
 20
0.2223314290843606
 10
49.99073733025558
 20
0.2181447307246182
 10
49.99162473266068
 20
0.2140156014032112
 10
49.9924844338113
 20
0.2099444785883903
 10
49.99331686961328
 20
0.2059317997484061
 10
49.99412247597248
 20
0.2019780023515092
 10
49.99490168879474
 20
0.1980835238659501
 10
49.99565494398589
 20
0.1942488017599794
 10
49.99638267745181
 20
0.1904742735018478
 10
49.99708532509832
 20
0.1867603765598058
 10
49.99776332283127
 20
0.1831075484021041
 10
49.99841710655652
 20
0.1795162264969931
 10
49.99904711217988
 20
0.1759868483127236
 10
49.99965377560724
 20
0.172519851317546
 10
50.00023753274442
 20
0.1691156729797111
 10
50.00079881949726
 20
0.1657747507674693
 10
50.00133807177164
 20
0.1624975221490714
 10
50.00185572547337
 20
0.1592844245927678
 10
50.00235221650833
 20
0.1561358955668091
 10
50.00282798078233
 20
0.153052372539446
 10
50.00328345420123
 20
0.1500342929789291
 10
50.00371907267088
 20
0.1470820943535089
 10
50.00413527209713
 20
0.144196214131436
 10
50.00453248838581
 20
0.1413770897809611
 10
50.00491115744279
 20
0.1386251587703346
 10
50.0052717151739
 20
0.1359408585678073
 10
50.00561459748498
 20
0.1333246266416297
 10
50.00594024028189
 20
0.1307769004600524
 10
50.00624907947046
 20
0.128298117491326
 10
50.00654155095656
 20
0.125888715203701
 10
50.00681809064601
 20
0.1235491310654281
 10
50.00707913444467
 20
0.1212798025447579
 10
50.00732511825839
 20
0.119081167109941
 10
50.00755647799301
 20
0.1169536622292279
 10
50.00777364955437
 20
0.1148977253708693
 10
50.00797706884833
 20
0.1129137940031156
 10
50.00816717178071
 20
0.1110023055942176
 10
50.00834439425739
 20
0.1091636976124259
 10
50.00850917218418
 20
0.1073984075259909
 10
50.00866194146697
 20
0.1057068728031634
 10
50.00880313801157
 20
0.1040895309121938
 10
50.00893319772383
 20
0.1025468193213329
 10
50.00905255650962
 20
0.1010791754988311
 10
50.00916165027476
 20
0.0996870369129391
 10
50.00926091492511
 20
0.0983708410319075
 10
50.00935078636651
 20
0.0971310253239869
 10
50.00943170050479
 20
0.0959680272574277
 10
50.00950409324584
 20
0.0948822843004808
 10
50.00956840049546
 20
0.0938742339213966
 10
50.00962505815952
 20
0.0929443135884257
 10
50.00967450214387
 20
0.0920929607698187
 10
50.00971716835434
 20
0.0913206129338263
 10
50.00975349269678
 20
0.0906277075486989
 10
50.00978391107704
 20
0.0900146820826873
 10
50.00980885940097
 20
0.089481974004042
 10
50.00982877357441
 20
0.0890300207810135
 10
50.0098440895032
 20
0.0886592598818526
 10
50.00985524309319
 20
0.0883701287748097
 10
50.00986267025024
 20
0.0881630649281354
 10
50.00986680688018
 20
0.0880385058100805
 10
50.00986808888887
 20
0.0879968888888953
  0
LWPOLYLINE
  5
27B
330
2A2
100
AcDbEntity
  8
0
 62
    18
420
        0
100
AcDbPolyline
 90
      257
 70
     0
 43
0.0
 10
-9.704101044444442
 20
-8.082375955555548
 10
-9.791946084870407
 20
-8.04987873248553
 10
-9.879917169146122
 20
-8.017481408552353
 10
-9.968012862080801
 20
-7.985183932921353
 10
-10.05623172848366
 20
-7.952986254757852
 10
-10.14457233316393
 20
-7.920888323227183
 10
-10.23303324093082
 20
-7.888890087494675
 10
-10.32161301659355
 20
-7.856991496725649
 10
-10.41031022496134
 20
-7.825192500085442
 10
-10.49912343084341
 20
-7.793493046739378
 10
-10.58805119904898
 20
-7.761893085852786
 10
-10.67709209438727
 20
-7.730392566590994
 10
-10.7662446816675
 20
-7.698991438119331
 10
-10.85550752569888
 20
-7.667689649603124
 10
-10.94487919129063
 20
-7.636487150207704
 10
-11.03435824325198
 20
-7.605383889098397
 10
-11.12394324639214
 20
-7.574379815440532
 10
-11.21363276552034
 20
-7.543474878399437
 10
-11.30342536544578
 20
-7.512669027140442
 10
-11.3933196109777
 20
-7.481962210828873
 10
-11.4833140669253
 20
-7.451354378630059
 10
-11.57340729809781
 20
-7.420845479709331
 10
-11.66359786930446
 20
-7.390435463232013
 10
-11.75388434535444
 20
-7.360124278363436
 10
-11.84426529105699
 20
-7.329911874268929
 10
-11.93473927122133
 20
-7.299798200113818
 10
-12.02530485065667
 20
-7.269783205063432
 10
-12.11596059417223
 20
-7.239866838283101
 10
-12.20670506657723
 20
-7.210049048938152
 10
-12.29753683268089
 20
-7.180329786193912
 10
-12.38845445729244
 20
-7.150708999215713
 10
-12.47945650522108
 20
-7.121186637168882
 10
-12.57054154127604
 20
-7.091762649218745
 10
-12.66170813026654
 20
-7.062436984530631
 10
-12.75295483700179
 20
-7.033209592269872
 10
-12.84428022629102
 20
-7.004080421601791
 10
-12.93568286294344
 20
-6.975049421691719
 10
-13.02716131176827
 20
-6.946116541704985
 10
-13.11871413757473
 20
-6.917281730806917
 10
-13.21033990517205
 20
-6.888544938162843
 10
-13.30203717936944
 20
-6.859906112938091
 10
-13.39380452497612
 20
-6.83136520429799
 10
-13.4856405068013
 20
-6.802922161407868
 10
-13.57754368965421
 20
-6.774576933433053
 10
-13.66951263834406
 20
-6.746329469538875
 10
-13.76154591768009
 20
-6.718179718890658
 10
-13.85364209247149
 20
-6.690127630653737
 10
-13.9457997275275
 20
-6.662173153993435
 10
-14.03801738765734
 20
-6.634316238075082
 10
-14.13029363767021
 20
-6.606556832064007
 10
-14.22262704237534
 20
-6.578894885125537
 10
-14.31501616658196
 20
-6.551330346425
 10
-14.40745957509927
 20
-6.523863165127728
 10
-14.4999558327365
 20
-6.496493290399045
 10
-14.59250350430286
 20
-6.469220671404282
 10
-14.68510115460758
 20
-6.442045257308767
 10
-14.77774734845988
 20
-6.414966997277827
 10
-14.87044065066897
 20
-6.387985840476792
 10
-14.96317962604407
 20
-6.361101736070989
 10
-15.05596283939441
 20
-6.334314633225747
 10
-15.14878885552919
 20
-6.307624481106394
 10
-15.24165623925765
 20
-6.281031228878257
 10
-15.33456355538899
 20
-6.254534825706668
 10
-15.42750936873244
 20
-6.228135220756952
 10
-15.52049224409723
 20
-6.201832363194439
 10
-15.61351074629255
 20
-6.175626202184458
 10
-15.70656344012764
 20
-6.149516686892335
 10
-15.79964889041171
 20
-6.1235037664834
 10
-15.89276566195399
 20
-6.09758739012298
 10
-15.98591231956369
 20
-6.071767506976406
 10
-16.07908742805003
 20
-6.046044066209005
 10
-16.17228955222224
 20
-6.020417016986102
 10
-16.26551725688952
 20
-5.994886308473031
 10
-16.35876910686109
 20
-5.969451889835118
 10
-16.45204366694619
 20
-5.94411371023769
 10
-16.54533950195402
 20
-5.918871718846075
 10
-16.63865517669381
 20
-5.893725864825605
 10
-16.73198925597478
 20
-5.868676097341605
 10
-16.82534030460613
 20
-5.843722365559404
 10
-16.9187068873971
 20
-5.81886461864433
 10
-17.0120875691569
 20
-5.794102805761714
 10
-17.10548091469476
 20
-5.769436876076883
 10
-17.19888548881988
 20
-5.744866778755163
 10
-17.29229985634149
 20
-5.720392462961884
 10
-17.38572258206881
 20
-5.696013877862375
 10
-17.47915223081105
 20
-5.671730972621964
 10
-17.57258736737744
 20
-5.647543696405979
 10
-17.6660265565772
 20
-5.623451998379748
 10
-17.75946836321954
 20
-5.599455827708601
 10
-17.85291135211368
 20
-5.575555133557864
 10
-17.94635408806885
 20
-5.551749865092867
 10
-18.03979513589426
 20
-5.528039971478937
 10
-18.13323306039912
 20
-5.504425401881405
 10
-18.22666642639267
 20
-5.480906105465596
 10
-18.32009379868411
 20
-5.45748203139684
 10
-18.41351374208267
 20
-5.434153128840467
 10
-18.50692482139758
 20
-5.410919346961801
 10
-18.60032560143803
 20
-5.387780634926175
 10
-18.69371464701325
 20
-5.364736941898914
 10
-18.78709052293248
 20
-5.341788217045348
 10
-18.88045179400491
 20
-5.318934409530806
 10
-18.97379702503978
 20
-5.296175468520613
 10
-19.06712478084629
 20
-5.273511343180101
 10
-19.16043362623368
 20
-5.250941982674597
 10
-19.25372212601116
 20
-5.228467336169428
 10
-19.34698884498793
 20
-5.206087352829927
 10
-19.44023234797324
 20
-5.183801981821416
 10
-19.5334511997763
 20
-5.161611172309228
 10
-19.62664396520632
 20
-5.139514873458689
 10
-19.71980920907252
 20
-5.117513034435128
 10
-19.81294549618413
 20
-5.095605604403874
 10
-19.90605139135036
 20
-5.073792532530254
 10
-19.99912545938043
 20
-5.052073767979596
 10
-20.09216626508356
 20
-5.030449259917232
 10
-20.18517237326897
 20
-5.008918957508486
 10
-20.27814234874587
 20
-4.987482809918689
 10
-20.3710747563235
 20
-4.966140766313168
 10
-20.46396816081106
 20
-4.944892775857252
 10
-20.55682112701778
 20
-4.923738787716268
 10
-20.64963221975287
 20
-4.902678751055547
 10
-20.74240000382555
 20
-4.881712615040415
 10
-20.83512304404505
 20
-4.860840328836201
 10
-20.92779990522057
 20
-4.840061841608235
 10
-21.02042915216136
 20
-4.819377102521843
 10
-21.1130093496766
 20
-4.798786060742353
 10
-21.20553906257554
 20
-4.778288665435096
 10
-21.29801685566738
 20
-4.757884865765398
 10
-21.39044129376135
 20
-4.737574610898589
 10
-21.48281094166667
 20
-4.717357849999996
 10
-21.57512436419255
 20
-4.697234532234948
 10
-21.66738012614822
 20
-4.677204606768774
 10
-21.75957679234288
 20
-4.657268022766801
 10
-21.85171292758577
 20
-4.637424729394358
 10
-21.9437870966861
 20
-4.617674675816773
 10
-22.03579786445309
 20
-4.598017811199376
 10
-22.12774379569597
 20
-4.578454084707492
 10
-22.21962345522393
 20
-4.558983445506453
 10
-22.31143540784622
 20
-4.539605842761585
 10
-22.40317821837204
 20
-4.520321225638217
 10
-22.49485045161062
 20
-4.501129543301676
 10
-22.58645067237117
 20
-4.482030744917294
 10
-22.67797744546291
 20
-4.463024779650397
 10
-22.76942933569507
 20
-4.444111596666312
 10
-22.86080490787685
 20
-4.425291145130368
 10
-22.95210272681749
 20
-4.406563374207895
 10
-23.0433213573262
 20
-4.387928233064222
 10
-23.1344593642122
 20
-4.369385670864673
 10
-23.22551531228471
 20
-4.350935636774581
 10
-23.31648776635294
 20
-4.332578079959273
 10
-23.40737529122611
 20
-4.314312949584076
 10
-23.49817645171345
 20
-4.296140194814319
 10
-23.58888981262417
 20
-4.27805976481533
 10
-23.6795139387675
 20
-4.260071608752439
 10
-23.77004739495265
 20
-4.242175675790971
 10
-23.86048874598884
 20
-4.224371915096258
 10
-23.95083655668529
 20
-4.206660275833627
 10
-24.04108939185122
 20
-4.189040707168406
 10
-24.13124581629584
 20
-4.171513158265924
 10
-24.22130439482839
 20
-4.154077578291508
 10
-24.31126369225807
 20
-4.136733916410487
 10
-24.4011222733941
 20
-4.119482121788192
 10
-24.49087870304571
 20
-4.102322143589946
 10
-24.58053154602212
 20
-4.085253930981082
 10
-24.67007936713252
 20
-4.068277433126926
 10
-24.75952073118617
 20
-4.051392599192807
 10
-24.84885420299227
 20
-4.034599378344053
 10
-24.93807834736003
 20
-4.017897719745994
 10
-25.02719172909869
 20
-4.001287572563955
 10
-25.11619291301745
 20
-3.984768885963268
 10
-25.20508046392553
 20
-3.968341609109258
 10
-25.29385294663217
 20
-3.952005691167256
 10
-25.38250892594656
 20
-3.93576108130259
 10
-25.47104696667795
 20
-3.919607728680586
 10
-25.55946563363553
 20
-3.903545582466576
 10
-25.64776349162853
 20
-3.887574591825885
 10
-25.73593910546618
 20
-3.871694705923844
 10
-25.82399103995769
 20
-3.855905873925778
 10
-25.91191785991227
 20
-3.840208044997019
 10
-25.99971813013916
 20
-3.824601168302893
 10
-26.08739041544755
 20
-3.80908519300873
 10
-26.17493328064669
 20
-3.793660068279856
 10
-26.26234529054577
 20
-3.778325743281603
 10
-26.34962500995404
 20
-3.763082167179296
 10
-26.4367710036807
 20
-3.747929289138264
 10
-26.52378183653497
 20
-3.732867058323837
 10
-26.61065607332607
 20
-3.717895423901341
 10
-26.69739227886322
 20
-3.703014335036106
 10
-26.78398901795564
 20
-3.688223740893459
 10
-26.87044485541255
 20
-3.67352359063873
 10
-26.95675835604317
 20
-3.658913833437247
 10
-27.04292808465671
 20
-3.644394418454337
 10
-27.1289526060624
 20
-3.62996529485533
 10
-27.21483048506945
 20
-3.615626411805553
 10
-27.30056028648708
 20
-3.601377718470335
 10
-27.38614057512452
 20
-3.587219164015004
 10
-27.47156991579098
 20
-3.573150697604889
 10
-27.55684687329568
 20
-3.559172268405319
 10
-27.64197001244784
 20
-3.545283825581619
 10
-27.72693789805668
 20
-3.531485318299121
 10
-27.81174909493142
 20
-3.517776695723152
 10
-27.89640216788127
 20
-3.504157907019041
 10
-27.98089568171546
 20
-3.490628901352115
 10
-28.0652282012432
 20
-3.477189627887702
 10
-28.14939829127372
 20
-3.463840035791133
 10
-28.23340451661623
 20
-3.450580074227734
 10
-28.31724544207995
 20
-3.437409692362833
 10
-28.40091963247411
 20
-3.424328839361761
 10
-28.48442565260791
 20
-3.411337464389844
 10
-28.56776206729059
 20
-3.398435516612411
 10
-28.65092744133135
 20
-3.385622945194791
 10
-28.73392033953942
 20
-3.372899699302311
 10
-28.81673932672401
 20
-3.360265728100301
 10
-28.89938296769435
 20
-3.347720980754088
 10
-28.98184982725965
 20
-3.335265406429
 10
-29.06413847022914
 20
-3.322898954290368
 10
-29.14624746141203
 20
-3.310621573503516
 10
-29.22817536561755
 20
-3.298433213233777
 10
-29.3099207476549
 20
-3.286333822646476
 10
-29.39148217233331
 20
-3.274323350906943
 10
-29.472858204462
 20
-3.262401747180505
 10
-29.55404740885019
 20
-3.250568960632492
 10
-29.63504835030709
 20
-3.238824940428231
 10
-29.71585959364193
 20
-3.227169635733052
 10
-29.79647970366393
 20
-3.215602995712282
 10
-29.8769072451823
 20
-3.204124969531249
 10
-29.95714078300626
 20
-3.192735506355282
 10
-30.03717888194503
 20
-3.181434555349709
 10
-30.11702010680783
 20
-3.170222065679859
 10
-30.19666302240389
 20
-3.15909798651106
 10
-30.27610619354241
 20
-3.14806226700864
 10
-30.35534818503262
 20
-3.137114856337928
 10
-30.43438756168375
 20
-3.126255703664252
 10
-30.51322288830499
 20
-3.115484758152939
 10
-30.59185272970558
 20
-3.10480196896932
 10
-30.67027565069473
 20
-3.094207285278722
 10
-30.74849021608167
 20
-3.083700656246473
 10
-30.82649499067561
 20
-3.073282031037902
 10
-30.90428853928577
 20
-3.062951358818337
 10
-30.98186942672137
 20
-3.052708588753106
 10
-31.05923621779163
 20
-3.042553670007538
 10
-31.13638747730577
 20
-3.032486551746961
 10
-31.21332177007301
 20
-3.022507183136704
 10
-31.29003766090257
 20
-3.012615513342094
 10
-31.36653371460365
 20
-3.00281149152846
 10
-31.4428084959855
 20
-2.993095066861131
 10
-31.51886056985732
 20
-2.983466188505435
 10
-31.59468850102832
 20
-2.973924805626699
 10
-31.67029085430775
 20
-2.964470867390253
 10
-31.7456661945048
 20
-2.955104322961426
 10
-31.82081308642871
 20
-2.945825121505544
 10
-31.89573009488868
 20
-2.936633212187937
 10
-31.97041578469393
 20
-2.927528544173932
 10
-32.0448687206537
 20
-2.918511066628859
 10
-32.1190874675772
 20
-2.909580728718045
 10
-32.19307059027363
 20
-2.900737479606819
 10
-32.26681665355223
 20
-2.89198126846051
 10
-32.34032422222222
 20
-2.883312044444445
  0
LWPOLYLINE
  5
27C
330
2A2
100
AcDbEntity
  8
0
 62
    18
420
        0
100
AcDbPolyline
 90
      257
 70
     0
 43
0.0
 10
-32.34032422222222
 20
-2.883312044444445
 10
-32.41384059037848
 20
-2.874712417977569
 10
-32.48761146160884
 20
-2.866164771023242
 10
-32.56163301496195
 20
-2.857668710063412
 10
-32.63590142948642
 20
-2.849223841580031
 10
-32.71041288423091
 20
-2.840829772055046
 10
-32.78516355824402
 20
-2.832486107970407
 10
-32.86014963057443
 20
-2.824192455808065
 10
-32.93536728027073
 20
-2.815948422049968
 10
-33.01081268638158
 20
-2.807753613178065
 10
-33.08648202795558
 20
-2.799607635674307
 10
-33.16237148404142
 20
-2.791510096020643
 10
-33.23847723368768
 20
-2.783460600699022
 10
-33.31479545594302
 20
-2.775458756191394
 10
-33.39132232985607
 20
-2.767504168979708
 10
-33.46805403447546
 20
-2.759596445545914
 10
-33.54498674884983
 20
-2.751735192371962
 10
-33.6221166520278
 20
-2.7439200159398
 10
-33.69943992305802
 20
-2.736150522731378
 10
-33.77695274098912
 20
-2.728426319228646
 10
-33.85465128486972
 20
-2.720747011913554
 10
-33.93253173374848
 20
-2.71311220726805
 10
-34.010590266674
 20
-2.705521511774084
 10
-34.08882306269494
 20
-2.697974531913606
 10
-34.16722630085992
 20
-2.690470874168565
 10
-34.24579616021758
 20
-2.683010145020911
 10
-34.32452881981655
 20
-2.675591950952593
 10
-34.40342045870546
 20
-2.668215898445561
 10
-34.48246725593296
 20
-2.660881593981764
 10
-34.56166539054767
 20
-2.653588644043151
 10
-34.64101104159822
 20
-2.646336655111672
 10
-34.72050038813325
 20
-2.639125233669278
 10
-34.80012960920139
 20
-2.631953986197916
 10
-34.87989488385128
 20
-2.624822519179537
 10
-34.95979239113155
 20
-2.61773043909609
 10
-35.03981831009083
 20
-2.610677352429525
 10
-35.11996881977777
 20
-2.60366286566179
 10
-35.20024009924098
 20
-2.596686585274836
 10
-35.28062832752911
 20
-2.589748117750613
 10
-35.36112968369078
 20
-2.582847069571068
 10
-35.44174034677464
 20
-2.575983047218152
 10
-35.5224564958293
 20
-2.569155657173816
 10
-35.60327430990342
 20
-2.562364505920006
 10
-35.68418996804562
 20
-2.555609199938675
 10
-35.76519964930454
 20
-2.548889345711771
 10
-35.84629953272881
 20
-2.542204549721242
 10
-35.92748579736705
 20
-2.53555441844904
 10
-36.00875462226792
 20
-2.528938558377114
 10
-36.09010218648004
 20
-2.522356575987412
 10
-36.17152466905203
 20
-2.515808077761885
 10
-36.25301824903255
 20
-2.509292670182481
 10
-36.33457910547023
 20
-2.502809959731151
 10
-36.41620341741367
 20
-2.496359552889844
 10
-36.49788736391154
 20
-2.489941056140509
 10
-36.57962712401246
 20
-2.483554075965095
 10
-36.66141887676506
 20
-2.477198218845554
 10
-36.74325880121799
 20
-2.470873091263833
 10
-36.82514307641987
 20
-2.464578299701882
 10
-36.90706788141933
 20
-2.458313450641652
 10
-36.98902939526502
 20
-2.45207815056509
 10
-37.07102379700555
 20
-2.445872005954147
 10
-37.15304726568957
 20
-2.439694623290773
 10
-37.23509598036571
 20
-2.433545609056916
 10
-37.31716612008261
 20
-2.427424569734526
 10
-37.39925386388889
 20
-2.421331111805554
 10
-37.4813553908332
 20
-2.415264841751947
 10
-37.56346687996415
 20
-2.409225366055656
 10
-37.6455845103304
 20
-2.40321229119863
 10
-37.72770446098057
 20
-2.39722522366282
 10
-37.80982291096329
 20
-2.391263769930173
 10
-37.8919360393272
 20
-2.385327536482639
 10
-37.97404002512094
 20
-2.379416129802169
 10
-38.05613104739312
 20
-2.373529156370711
 10
-38.13820528519241
 20
-2.367666222670216
 10
-38.22025891756741
 20
-2.361826935182632
 10
-38.30228812356677
 20
-2.35601090038991
 10
-38.38428908223911
 20
-2.350217724773998
 10
-38.46625797263308
 20
-2.344447014816846
 10
-38.54819097379731
 20
-2.338698377000404
 10
-38.63008426478044
 20
-2.332971417806621
 10
-38.71193402463108
 20
-2.327265743717446
 10
-38.79373643239788
 20
-2.321580961214829
 10
-38.87548766712948
 20
-2.315916676780719
 10
-38.95718390787449
 20
-2.310272496897067
 10
-39.03882133368158
 20
-2.304648028045821
 10
-39.12039612359935
 20
-2.299042876708931
 10
-39.20190445667644
 20
-2.293456649368347
 10
-39.2833425119615
 20
-2.287888952506017
 10
-39.36470646850315
 20
-2.282339392603893
 10
-39.44599250535003
 20
-2.276807576143921
 10
-39.52719680155076
 20
-2.271293109608054
 10
-39.608315536154
 20
-2.265795599478239
 10
-39.68934488820835
 20
-2.260314652236427
 10
-39.77028103676247
 20
-2.254849874364567
 10
-39.85112016086498
 20
-2.249400872344607
 10
-39.93185843956452
 20
-2.243967252658499
 10
-40.01249205190973
 20
-2.238548621788191
 10
-40.09301717694922
 20
-2.233144586215633
 10
-40.17342999373165
 20
-2.227754752422775
 10
-40.25372668130564
 20
-2.222378726891565
 10
-40.33390341871983
 20
-2.217016116103953
 10
-40.41395638502284
 20
-2.211666526541889
 10
-40.49388175926332
 20
-2.206329564687323
 10
-40.57367572048989
 20
-2.201004837022203
 10
-40.65333444775119
 20
-2.195691950028479
 10
-40.73285412009587
 20
-2.190390510188102
 10
-40.81223091657253
 20
-2.185100123983019
 10
-40.89146101622983
 20
-2.179820397895182
 10
-40.97054059811639
 20
-2.174550938406538
 10
-41.04946584128085
 20
-2.169291351999038
 10
-41.12823292477184
 20
-2.164041245154631
 10
-41.20683802763799
 20
-2.158800224355267
 10
-41.28527732892796
 20
-2.153567896082896
 10
-41.36354700769034
 20
-2.148343866819465
 10
-41.4416432429738
 20
-2.143127743046926
 10
-41.51956221382695
 20
-2.137919131247228
 10
-41.59730009929844
 20
-2.132717637902319
 10
-41.67485307843689
 20
-2.12752286949415
 10
-41.75221733029095
 20
-2.122334432504672
 10
-41.82938903390924
 20
-2.11715193341583
 10
-41.90636436834039
 20
-2.111974978709577
 10
-41.98313951263304
 20
-2.106803174867861
 10
-42.05971064583584
 20
-2.101636128372633
 10
-42.1360739469974
 20
-2.096473445705842
 10
-42.21222559516636
 20
-2.091314733349436
 10
-42.28816176939135
 20
-2.086159597785366
 10
-42.36387864872102
 20
-2.08100764549558
 10
-42.43937241220399
 20
-2.075858482962029
 10
-42.51463923888889
 20
-2.070711716666662
 10
-42.58967530782436
 20
-2.065566953091429
 10
-42.66447679805904
 20
-2.060423798718278
 10
-42.73903988864155
 20
-2.055281860029161
 10
-42.81336075862053
 20
-2.050140743506025
 10
-42.88743558704463
 20
-2.045000055630819
 10
-42.96126055296246
 20
-2.039859402885495
 10
-43.03483183542265
 20
-2.034718391752003
 10
-43.10814561347385
 20
-2.029576628712289
 10
-43.1811980661647
 20
-2.024433720248305
 10
-43.2539853725438
 20
-2.019289272841999
 10
-43.32650371165983
 20
-2.014142892975323
 10
-43.39874926256138
 20
-2.008994187130224
 10
-43.4707182042971
 20
-2.003842761788652
 10
-43.54240671591564
 20
-1.998688223432557
 10
-43.61381097646561
 20
-1.993530178543888
 10
-43.68492716499567
 20
-1.988368233604596
 10
-43.75575146055441
 20
-1.983201995096628
 10
-43.82628004219051
 20
-1.978031069501935
 10
-43.89650908895258
 20
-1.972855063302467
 10
-43.96643477988926
 20
-1.967673582980172
 10
-44.03605329404918
 20
-1.962486235017
 10
-44.10536081048096
 20
-1.957292625894901
 10
-44.17435350823327
 20
-1.952092362095825
 10
-44.24302756635471
 20
-1.94688505010172
 10
-44.31137916389393
 20
-1.941670296394536
 10
-44.37940447989955
 20
-1.936447707456223
 10
-44.44709969342023
 20
-1.93121688976873
 10
-44.51446098350457
 20
-1.925977449814007
 10
-44.58148452920123
 20
-1.920728994074003
 10
-44.64816650955882
 20
-1.915471129030667
 10
-44.714503103626
 20
-1.91020346116595
 10
-44.78049049045138
 20
-1.9049255969618
 10
-44.84612484908362
 20
-1.899637142900167
 10
-44.91140235857132
 20
-1.894337705463001
 10
-44.97631919796315
 20
-1.889026891132251
 10
-45.04087154630771
 20
-1.883704306389867
 10
-45.10505558265366
 20
-1.878369557717797
 10
-45.16886748604961
 20
-1.873022251597992
 10
-45.23230343554421
 20
-1.867661994512401
 10
-45.29535961018609
 20
-1.862288392942974
 10
-45.35803218902389
 20
-1.856901053371659
 10
-45.42031735110621
 20
-1.851499582280407
 10
-45.48221127548174
 20
-1.846083586151167
 10
-45.54371014119907
 20
-1.840652671465889
 10
-45.60481012730685
 20
-1.835206444706522
 10
-45.66550741285371
 20
-1.829744512355014
 10
-45.72579817688828
 20
-1.824266480893317
 10
-45.7856785984592
 20
-1.818771956803379
 10
-45.84514485661511
 20
-1.81326054656715
 10
-45.90419313040462
 20
-1.80773185666658
 10
-45.96281959887639
 20
-1.802185493583617
 10
-46.02102044107904
 20
-1.796621063800212
 10
-46.0787918360612
 20
-1.791038173798314
 10
-46.13612996287151
 20
-1.785436430059872
 10
-46.19303100055861
 20
-1.779815439066835
 10
-46.24949112817112
 20
-1.774174807301155
 10
-46.30550652475767
 20
-1.768514141244778
 10
-46.36107336936692
 20
-1.762833047379657
 10
-46.41618784104749
 20
-1.757131132187739
 10
-46.47084611884799
 20
-1.751408002150974
 10
-46.52504438181709
 20
-1.745663263751312
 10
-46.57877880900341
 20
-1.739896523470703
 10
-46.63204557945556
 20
-1.734107387791095
 10
-46.68484087222222
 20
-1.728295463194438
 10
-46.73716086635199
 20
-1.722460356162682
 10
-46.78900174089351
 20
-1.716601673177776
 10
-46.84035967489542
 20
-1.71071902072167
 10
-46.89123084740635
 20
-1.704812005276313
 10
-46.94161143747492
 20
-1.698880233323655
 10
-46.99149762414979
 20
-1.692923311345645
 10
-47.04088558647958
 20
-1.686940845824232
 10
-47.08977150351291
 20
-1.680932443241367
 10
-47.13815155429844
 20
-1.674897710078998
 10
-47.18602191788479
 20
-1.668836252819076
 10
-47.23337877332058
 20
-1.662747677943549
 10
-47.28021829965448
 20
-1.656631591934367
 10
-47.32653667593509
 20
-1.65048760127348
 10
-47.37233008121105
 20
-1.644315312442836
 10
-47.417594694531
 20
-1.638114331924386
 10
-47.46232669494357
 20
-1.63188426620008
 10
-47.50652226149741
 20
-1.625624721751866
 10
-47.55017757324113
 20
-1.619335305061694
 10
-47.59328880922337
 20
-1.613015622611513
 10
-47.63585214849277
 20
-1.606665280883274
 10
-47.67786377009796
 20
-1.600283886358924
 10
-47.71931985308758
 20
-1.593871045520415
 10
-47.76021657651025
 20
-1.587426364849696
 10
-47.80055011941461
 20
-1.580949450828715
 10
-47.8403166608493
 20
-1.574439909939423
 10
-47.87951237986293
 20
-1.567897348663768
 10
-47.91813345550418
 20
-1.561321373483701
 10
-47.95617606682163
 20
-1.554711590881171
 10
-47.99363639286395
 20
-1.548067607338128
 10
-48.03051061267976
 20
-1.54138902933652
 10
-48.0667949053177
 20
-1.534675463358297
 10
-48.10248544982639
 20
-1.52792651588541
 10
-48.13757842525447
 20
-1.521141793399806
 10
-48.17207001065059
 20
-1.514320902383437
 10
-48.20595638506337
 20
-1.507463449318251
 10
-48.23923372754144
 20
-1.500569040686197
 10
-48.27189821713343
 20
-1.493637282969227
 10
-48.30394603288799
 20
-1.486667782649288
 10
-48.33537335385375
 20
-1.47966014620833
 10
-48.36617635907932
 20
-1.472613980128302
 10
-48.39635122761336
 20
-1.465528890891155
 10
-48.4258941385045
 20
-1.458404484978838
 10
-48.45480127080135
 20
-1.4512403688733
 10
-48.48306880355258
 20
-1.444036149056491
 10
-48.5106929158068
 20
-1.43679143201036
 10
-48.53766978661266
 20
-1.429505824216857
 10
-48.56399559501877
 20
-1.422178932157931
 10
-48.58966652007379
 20
-1.414810362315531
 10
-48.61467874082632
 20
-1.407399721171608
 10
-48.63902843632503
 20
-1.39994661520811
 10
-48.66271178561853
 20
-1.392450650906988
 10
-48.68572496775546
 20
-1.38491143475019
 10
-48.70806416178446
 20
-1.377328573219666
 10
-48.72972554675416
 20
-1.369701672797366
 10
-48.75070530171318
 20
-1.362030339965238
 10
-48.77099960571017
 20
-1.354314181205234
 10
-48.79060463779376
 20
-1.346552802999302
 10
-48.80951657701259
 20
-1.33874581182939
 10
-48.82773160241528
 20
-1.330892814177451
 10
-48.84524589305046
 20
-1.322993416525432
 10
-48.86205562796679
 20
-1.315047225355282
 10
-48.87815698621287
 20
-1.307053847148952
 10
-48.89354614683737
 20
-1.299012888388391
 10
-48.90821928888889
 20
-1.290923955555549
  0
LWPOLYLINE
  5
27D
330
2A2
100
AcDbEntity
  8
0
 62
    18
420
        0
100
AcDbPolyline
 90
      257
 70
     0
 43
0.0
 10
-7.134377400000005
 20
11.49255173333334
 10
-7.171524542864889
 20
11.47000548562844
 10
-7.208596298294233
 20
11.44740845833068
 10
-7.245593269821327
 20
11.4247612095405
 10
-7.282516060979467
 20
11.40206429735829
 10
-7.319365275301942
 20
11.3793182798845
 10
-7.356141516322046
 20
11.35652371521954
 10
-7.392845387573069
 20
11.33368116146384
 10
-7.429477492588303
 20
11.31079117671781
 10
-7.466038434901041
 20
11.28785431908189
 10
-7.502528818044573
 20
11.26487114665648
 10
-7.538949245552192
 20
11.24184221754202
 10
-7.57530032095719
 20
11.21876808983893
 10
-7.611582647792858
 20
11.19564932164763
 10
-7.647796829592488
 20
11.17248647106853
 10
-7.683943469889374
 20
11.14928009620207
 10
-7.720023172216804
 20
11.12603075514866
 10
-7.756036540108072
 20
11.10273900600874
 10
-7.79198417709647
 20
11.07940540688271
 10
-7.827866686715288
 20
11.056030515871
 10
-7.86368467249782
 20
11.03261489107404
 10
-7.899438737977357
 20
11.00915909059225
 10
-7.93512948668719
 20
10.98566367252604
 10
-7.970757522160612
 20
10.96212919497585
 10
-8.006323447930916
 20
10.93855621604208
 10
-8.04182786753139
 20
10.91494529382518
 10
-8.07727138449533
 20
10.89129698642555
 10
-8.112654602356024
 20
10.86761185194362
 10
-8.147978124646766
 20
10.84389044847981
 10
-8.183242554900849
 20
10.82013333413455
 10
-8.218448496651561
 20
10.79634106700825
 10
-8.253596553432198
 20
10.77251420520134
 10
-8.28868732877605
 20
10.74865330681425
 10
-8.323721426216409
 20
10.72475892994738
 10
-8.358699449286565
 20
10.70083163270117
 10
-8.39362200151981
 20
10.67687197317604
 10
-8.42848968644944
 20
10.65288050947241
 10
-8.463303107608743
 20
10.6288577996907
 10
-8.498062868531012
 20
10.60480440193134
 10
-8.532769572749539
 20
10.58072087429474
 10
-8.567423823797615
 20
10.55660777488133
 10
-8.602026225208531
 20
10.53246566179153
 10
-8.636577380515584
 20
10.50829509312577
 10
-8.67107789325206
 20
10.48409662698446
 10
-8.70552836695125
 20
10.45987082146802
 10
-8.739929405146452
 20
10.43561823467689
 10
-8.774281611370952
 20
10.41133942471148
 10
-8.808585589158046
 20
10.38703494967222
 10
-8.842841942041025
 20
10.36270536765952
 10
-8.877051273553178
 20
10.33835123677381
 10
-8.911214187227799
 20
10.31397311511551
 10
-8.94533128659818
 20
10.28957156078504
 10
-8.97940317519761
 20
10.26514713188283
 10
-9.013430456559384
 20
10.24070038650929
 10
-9.047413734216795
 20
10.21623188276486
 10
-9.08135361170313
 20
10.19174217874995
 10
-9.115250692551687
 20
10.16723183256498
 10
-9.149105580295751
 20
10.14270140231038
 10
-9.182918878468616
 20
10.11815144608657
 10
-9.21669119060358
 20
10.09358252199397
 10
-9.250423120233927
 20
10.068995188133
 10
-9.28411527089295
 20
10.04439000260409
 10
-9.317768246113944
 20
10.01976752350765
 10
-9.3513826494302
 20
9.995128308944112
 10
-9.384959084375009
 20
9.9704729170139
 10
-9.418498154481663
 20
9.945801905817433
 10
-9.452000463283452
 20
9.92111583345513
 10
-9.48546661431367
 20
9.896415258027414
 10
-9.51889721110561
 20
9.871700737634713
 10
-9.552292857192562
 20
9.846972830377446
 10
-9.585654156107816
 20
9.82223209435603
 10
-9.618981711384667
 20
9.797479087670894
 10
-9.652276126556405
 20
9.772714368422456
 10
-9.685538005156324
 20
9.747938494711143
 10
-9.718767950717714
 20
9.723152024637372
 10
-9.751966566773865
 20
9.698355516301568
 10
-9.785134456858074
 20
9.673549527804154
 10
-9.818272224503627
 20
9.64873461724555
 10
-9.851380473243818
 20
9.62391134272618
 10
-9.884459806611941
 20
9.599080262346465
 10
-9.917510828141285
 20
9.574241934206826
 10
-9.950534141365145
 20
9.549396916407687
 10
-9.983530349816808
 20
9.524545767049474
 10
-10.01650005702957
 20
9.4996890442326
 10
-10.04944386653672
 20
9.474827306057499
 10
-10.08236238187155
 20
9.449961110624582
 10
-10.11525620656736
 20
9.425091016034276
 10
-10.14812594415743
 20
9.400217580387004
 10
-10.18097219817506
 20
9.375341361783187
 10
-10.21379557215353
 20
9.350462918323249
 10
-10.24659666962615
 20
9.32558280810761
 10
-10.2793760941262
 20
9.300701589236693
 10
-10.31213444918697
 20
9.27581981981092
 10
-10.34487233834176
 20
9.250938057930714
 10
-10.37759036512385
 20
9.226056861696499
 10
-10.41028913306655
 20
9.201176789208693
 10
-10.44296924570314
 20
9.17629839856772
 10
-10.4756313065669
 20
9.151422247874002
 10
-10.50827591919115
 20
9.126548895227964
 10
-10.54090368710916
 20
9.101678898730022
 10
-10.57351521385423
 20
9.076812816480606
 10
-10.60611110295965
 20
9.051951206580133
 10
-10.63869195795871
 20
9.027094627129026
 10
-10.6712583823847
 20
9.002243636227707
 10
-10.70381097977092
 20
8.9773987919766
 10
-10.73635035365066
 20
8.952560652476128
 10
-10.76887710755721
 20
8.927729775826709
 10
-10.80139184502386
 20
8.902906720128769
 10
-10.8338951695839
 20
8.878092043482727
 10
-10.86638768477063
 20
8.853286303989009
 10
-10.89886999411733
 20
8.828490059748036
 10
-10.9313427011573
 20
8.803703868860229
 10
-10.96380640942384
 20
8.778928289426009
 10
-10.99626172245022
 20
8.754163879545802
 10
-11.02870924376975
 20
8.729411197320028
 10
-11.06114957691572
 20
8.704670800849108
 10
-11.09358332542141
 20
8.679943248233467
 10
-11.12601109282012
 20
8.655229097573525
 10
-11.15843348264514
 20
8.630528906969706
 10
-11.19085109842976
 20
8.605843234522432
 10
-11.22326454370728
 20
8.581172638332124
 10
-11.25567442201099
 20
8.556517676499205
 10
-11.28808133687417
 20
8.531878907124096
 10
-11.32048589183013
 20
8.507256888307221
 10
-11.35288869041215
 20
8.482652178149001
 10
-11.38529033615352
 20
8.45806533474986
 10
-11.41769143258754
 20
8.433496916210219
 10
-11.45009258324749
 20
8.408947480630498
 10
-11.48249439166668
 20
8.384417586111123
 10
-11.51489746137838
 20
8.359907790752512
 10
-11.5473023959159
 20
8.335418652655093
 10
-11.57970979881252
 20
8.310950729919284
 10
-11.61212027360154
 20
8.28650458064551
 10
-11.64453442381625
 20
8.262080762934188
 10
-11.67695285298994
 20
8.237679834885746
 10
-11.7093761646559
 20
8.213302354600602
 10
-11.74180496234742
 20
8.188948880179183
 10
-11.7742398495978
 20
8.164619969721906
 10
-11.80668142994033
 20
8.140316181329197
 10
-11.83913030690829
 20
8.116038073101478
 10
-11.87158708403499
 20
8.091786203139169
 10
-11.90405236485371
 20
8.06756112954269
 10
-11.93652675289775
 20
8.043363410412471
 10
-11.96901085170039
 20
8.019193603848928
 10
-12.00150526479493
 20
7.995052267952484
 10
-12.03401059571466
 20
7.970939960823564
 10
-12.06652744799287
 20
7.946857240562586
 10
-12.09905642516286
 20
7.922804665269978
 10
-12.13159813075791
 20
7.898782793046157
 10
-12.16415316831132
 20
7.874792181991547
 10
-12.19672214135638
 20
7.850833390206571
 10
-12.22930565342638
 20
7.826906975791648
 10
-12.26190430805461
 20
7.803013496847205
 10
-12.29451870877437
 20
7.779153511473663
 10
-12.32714945911895
 20
7.755327577771441
 10
-12.35979716262162
 20
7.731536253840964
 10
-12.39246242281571
 20
7.707780097782653
 10
-12.42514584323449
 20
7.684059667696934
 10
-12.45784802741124
 20
7.660375521684221
 10
-12.49056957887928
 20
7.636728217844945
 10
-12.52331110117188
 20
7.613118314279524
 10
-12.55607319782234
 20
7.58954636908838
 10
-12.58885647236395
 20
7.566012940371937
 10
-12.62166152833001
 20
7.542518586230615
 10
-12.6544889692538
 20
7.519063864764838
 10
-12.68733939866862
 20
7.495649334075027
 10
-12.72021342010775
 20
7.472275552261607
 10
-12.7531116371045
 20
7.448943077424995
 10
-12.78603465319214
 20
7.425652467665618
 10
-12.81898307190398
 20
7.402404281083897
 10
-12.85195749677331
 20
7.379199075780253
 10
-12.88495853133342
 20
7.356037409855109
 10
-12.91798677911759
 20
7.332919841408888
 10
-12.95104284365912
 20
7.30984692854201
 10
-12.98412732849131
 20
7.286819229354901
 10
-13.01724083714744
 20
7.263837301947978
 10
-13.05038397316081
 20
7.240901704421667
 10
-13.08355734006471
 20
7.218012994876391
 10
-13.11676154139243
 20
7.195171731412569
 10
-13.14999718067726
 20
7.172378472130625
 10
-13.18326486145249
 20
7.14963377513098
 10
-13.21656518725142
 20
7.126938198514059
 10
-13.24989876160733
 20
7.104292300380282
 10
-13.28326618805353
 20
7.081696638830071
 10
-13.3166680701233
 20
7.059151771963849
 10
-13.35010501134992
 20
7.036658257882038
 10
-13.38357761526671
 20
7.014216654685061
 10
-13.41708648540694
 20
6.99182752047334
 10
-13.45063222530391
 20
6.969491413347296
 10
-13.48421543849091
 20
6.947208891407351
 10
-13.51783672850123
 20
6.92498051275393
 10
-13.55149669886816
 20
6.902806835487453
 10
-13.585195953125
 20
6.880688417708343
 10
-13.61893509480504
 20
6.858625817517019
 10
-13.65271472744157
 20
6.83661959301391
 10
-13.68653545456787
 20
6.814670302299433
 10
-13.72039787971726
 20
6.792778503474011
 10
-13.754302606423
 20
6.770944754638067
 10
-13.7882502382184
 20
6.749169613892024
 10
-13.82224137863675
 20
6.727453639336302
 10
-13.85627663121134
 20
6.705797389071326
 10
-13.89035659947547
 20
6.684201421197514
 10
-13.92448188696241
 20
6.662666293815292
 10
-13.95865309720547
 20
6.641192565025082
 10
-13.99287083373795
 20
6.619780792927306
 10
-14.02713570009312
 20
6.598431535622383
 10
-14.06144829980427
 20
6.577145351210741
 10
-14.09580923640472
 20
6.555922797792797
 10
-14.13021911342774
 20
6.534764433468975
 10
-14.16467853440662
 20
6.513670816339698
 10
-14.19918810287466
 20
6.492642504505388
 10
-14.23374842236515
 20
6.471680056066466
 10
-14.26836009641139
 20
6.450784029123357
 10
-14.30302372854665
 20
6.42995498177648
 10
-14.33773992230425
 20
6.409193472126259
 10
-14.37250928121746
 20
6.388500058273115
 10
-14.40733240881958
 20
6.367875298317472
 10
-14.4422099086439
 20
6.347319750359751
 10
-14.47714238422371
 20
6.326833972500374
 10
-14.51213043909231
 20
6.306418522839763
 10
-14.54717467678299
 20
6.286073959478344
 10
-14.58227570082903
 20
6.265800840516533
 10
-14.61743411476373
 20
6.245599724054756
 10
-14.65265052212039
 20
6.225471168193437
 10
-14.68792552643229
 20
6.205415731032993
 10
-14.72325973123272
 20
6.18543397067385
 10
-14.75865374005499
 20
6.16552644521643
 10
-14.79410815643237
 20
6.145693712761154
 10
-14.82962358389816
 20
6.125936331408444
 10
-14.86520062598565
 20
6.106254859258724
 10
-14.90083988622814
 20
6.086649854412414
 10
-14.93654196815892
 20
6.067121874969938
 10
-14.97230747531127
 20
6.047671479031718
 10
-15.0081370112185
 20
6.028299224698174
 10
-15.04403117941389
 20
6.009005670069732
 10
-15.07999058343072
 20
5.989791373246812
 10
-15.11601582680231
 20
5.970656892329837
 10
-15.15210751306193
 20
5.951602785419229
 10
-15.18826624574289
 20
5.932629610615407
 10
-15.22449262837846
 20
5.913737926018799
 10
-15.26078726450195
 20
5.894928289729823
 10
-15.29715075764664
 20
5.876201259848905
 10
-15.33358371134583
 20
5.857557394476462
 10
-15.3700867291328
 20
5.83899725171292
 10
-15.40666041454085
 20
5.820521389658701
 10
-15.44330537110328
 20
5.802130366414226
 10
-15.48002220235337
 20
5.783824740079917
 10
-15.51681151182442
 20
5.765605068756198
 10
-15.55367390304972
 20
5.747471910543489
 10
-15.59060997956255
 20
5.729425823542213
 10
-15.62762034489621
 20
5.711467365852796
 10
-15.664705602584
 20
5.693597095575654
 10
-15.7018663561592
 20
5.675815570811213
 10
-15.73910320915511
 20
5.658123349659895
 10
-15.77641676510501
 20
5.640520990222119
 10
-15.81380762754221
 20
5.623009050598312
 10
-15.85127639999999
 20
5.605588088888894
  0
LWPOLYLINE
  5
27E
330
2A2
100
AcDbEntity
  8
0
 62
    18
420
        0
100
AcDbPolyline
 90
      257
 70
     0
 43
0.0
 10
-15.85127639999999
 20
5.605588088888894
 10
-15.891056040334
 20
5.587201538794247
 10
-15.93086786453003
 20
5.568882206592819
 10
-15.9707117320665
 20
5.550629892845879
 10
-16.0105875024219
 20
5.532444398114697
 10
-16.05049503507467
 20
5.514325522960539
 10
-16.09043418950328
 20
5.49627306794468
 10
-16.13040482518618
 20
5.478286833628384
 10
-16.17040680160182
 20
5.460366620572921
 10
-16.21043997822868
 20
5.442512229339563
 10
-16.2505042145452
 20
5.424723460489576
 10
-16.29059937002984
 20
5.407000114584228
 10
-16.33072530416106
 20
5.389341992184793
 10
-16.37088187641733
 20
5.371748893852536
 10
-16.41106894627708
 20
5.354220620148727
 10
-16.45128637321879
 20
5.336756971634636
 10
-16.49153401672091
 20
5.319357748871532
 10
-16.5318117362619
 20
5.302022752420685
 10
-16.57211939132022
 20
5.284751782843362
 10
-16.61245684137432
 20
5.267544640700832
 10
-16.65282394590267
 20
5.250401126554368
 10
-16.69322056438372
 20
5.233321040965235
 10
-16.73364655629592
 20
5.216304184494702
 10
-16.77410178111774
 20
5.19935035770404
 10
-16.81458609832763
 20
5.18245936115452
 10
-16.85509936740405
 20
5.165630995407407
 10
-16.89564144782547
 20
5.148865061023972
 10
-16.93621219907033
 20
5.132161358565485
 10
-16.97681148061709
 20
5.115519688593213
 10
-17.01743915194422
 20
5.098939851668427
 10
-17.05809507253016
 20
5.082421648352395
 10
-17.0987791018534
 20
5.065964879206389
 10
-17.13949109939235
 20
5.049569344791673
 10
-17.1802309246255
 20
5.033234845669519
 10
-17.22099843703131
 20
5.016961182401197
 10
-17.26179349608823
 20
5.000748155547974
 10
-17.30261596127471
 20
4.984595565671121
 10
-17.34346569206922
 20
4.968503213331907
 10
-17.38434254795021
 20
4.952470899091599
 10
-17.42524638839614
 20
4.93649842351147
 10
-17.46617707288546
 20
4.920585587152784
 10
-17.50713446089665
 20
4.904732190576814
 10
-17.54811841190814
 20
4.888938034344828
 10
-17.58912878539841
 20
4.873202919018095
 10
-17.63016544084591
 20
4.857526645157884
 10
-17.67122823772909
 20
4.841909013325465
 10
-17.71231703552641
 20
4.826349824082105
 10
-17.75343169371634
 20
4.810848877989075
 10
-17.79457207177734
 20
4.795405975607645
 10
-17.83573802918784
 20
4.780020917499082
 10
-17.87692942542633
 20
4.764693504224656
 10
-17.91814611997124
 20
4.749423536345637
 10
-17.95938797230106
 20
4.734210814423292
 10
-18.00065484189421
 20
4.719055139018892
 10
-18.04194658822917
 20
4.703956310693704
 10
-18.0832630707844
 20
4.688914130009
 10
-18.12460414903835
 20
4.673928397526049
 10
-18.16596968246948
 20
4.658998913806116
 10
-18.20735953055625
 20
4.644125479410475
 10
-18.24877355277711
 20
4.629307894900392
 10
-18.29021160861053
 20
4.614545960837137
 10
-18.33167355753496
 20
4.59983947778198
 10
-18.37315925902885
 20
4.585188246296189
 10
-18.41466857257068
 20
4.570592066941034
 10
-18.45620135763888
 20
4.556050740277784
 10
-18.49775747371193
 20
4.541564066867707
 10
-18.53933678026828
 20
4.527131847272074
 10
-18.58093913678639
 20
4.512753882052152
 10
-18.62256440274471
 20
4.498429971769212
 10
-18.66421243762171
 20
4.484159916984522
 10
-18.70588310089583
 20
4.469943518259351
 10
-18.74757625204555
 20
4.455780576154969
 10
-18.78929175054931
 20
4.441670891232644
 10
-18.83102945588558
 20
4.427614264053648
 10
-18.87278922753281
 20
4.413610495179246
 10
-18.91457092496946
 20
4.39965938517071
 10
-18.95637440767398
 20
4.385760734589308
 10
-18.99819953512484
 20
4.371914343996309
 10
-19.04004616680049
 20
4.358120013952982
 10
-19.0819141621794
 20
4.344377545020597
 10
-19.12380338074001
 20
4.330686737760423
 10
-19.16571368196079
 20
4.317047392733729
 10
-19.2076449253202
 20
4.303459310501783
 10
-19.24959697029668
 20
4.289922291625855
 10
-19.29156967636871
 20
4.276436136667215
 10
-19.33356290301473
 20
4.263000646187132
 10
-19.37557650971321
 20
4.249615620746873
 10
-19.4176103559426
 20
4.236280860907709
 10
-19.45966430118137
 20
4.222996167230908
 10
-19.50173820490795
 20
4.209761340277741
 10
-19.54383192660083
 20
4.196576180609476
 10
-19.58594532573845
 20
4.183440488787381
 10
-19.62807826179928
 20
4.170354065372727
 10
-19.67023059426176
 20
4.157316710926782
 10
-19.71240218260436
 20
4.144328226010817
 10
-19.75459288630554
 20
4.131388411186098
 10
-19.79680256484374
 20
4.118497067013895
 10
-19.83903107769745
 20
4.105653994055478
 10
-19.88127828434509
 20
4.092858992872117
 10
-19.92354404426514
 20
4.08011186402508
 10
-19.96582821693606
 20
4.067412408075635
 10
-20.0081306618363
 20
4.054760425585053
 10
-20.05045123844432
 20
4.042155717114603
 10
-20.09278980623858
 20
4.029598083225553
 10
-20.13514622469753
 20
4.017087324479172
 10
-20.17752035329963
 20
4.004623241436731
 10
-20.21991205152335
 20
3.992205634659498
 10
-20.26232117884713
 20
3.97983430470874
 10
-20.30474759474944
 20
3.967509052145731
 10
-20.34719115870874
 20
3.955229677531736
 10
-20.38965173020348
 20
3.942995981428025
 10
-20.43212916871211
 20
3.930807764395868
 10
-20.4746233337131
 20
3.918664826996534
 10
-20.51713408468491
 20
3.906566969791291
 10
-20.55966128110599
 20
3.894513993341409
 10
-20.6022047824548
 20
3.882505698208157
 10
-20.6447644482098
 20
3.870541884952805
 10
-20.68734013784944
 20
3.858622354136621
 10
-20.72993171085219
 20
3.846746906320874
 10
-20.77253902669651
 20
3.834915342066834
 10
-20.81516194486083
 20
3.82312746193577
 10
-20.85780032482364
 20
3.81138306648895
 10
-20.90045402606338
 20
3.799681956287644
 10
-20.94312290805852
 20
3.788023931893121
 10
-20.9858068302875
 20
3.776408793866651
 10
-21.02850565222879
 20
3.764836342769502
 10
-21.07121923336086
 20
3.753306379162942
 10
-21.11394743316214
 20
3.741818703608243
 10
-21.1566901111111
 20
3.730373116666672
 10
-21.19944712668621
 20
3.718969418899499
 10
-21.24221833936591
 20
3.707607410867993
 10
-21.28500360862867
 20
3.696286893133423
 10
-21.32780279395293
 20
3.685007666257058
 10
-21.37061575481717
 20
3.673769530800168
 10
-21.41344235069984
 20
3.662572287324021
 10
-21.4562824410794
 20
3.651415736389886
 10
-21.4991358854343
 20
3.640299678559033
 10
-21.54200254324299
 20
3.629223914392731
 10
-21.58488227398395
 20
3.618188244452249
 10
-21.62777493713563
 20
3.607192469298855
 10
-21.67068039217647
 20
3.596236389493821
 10
-21.71359849858496
 20
3.585319805598412
 10
-21.75652911583953
 20
3.574442518173901
 10
-21.79947210341865
 20
3.563604327781555
 10
-21.84242732080078
 20
3.552805034982644
 10
-21.88539462746436
 20
3.542044440338437
 10
-21.92837388288788
 20
3.531322344410202
 10
-21.97136494654977
 20
3.520638547759209
 10
-22.0143676779285
 20
3.509992850946728
 10
-22.05738193650252
 20
3.499385054534027
 10
-22.10040758175029
 20
3.488814959082375
 10
-22.14344447315028
 20
3.478282365153043
 10
-22.18649247018093
 20
3.467787073307297
 10
-22.22955143232071
 20
3.457328884106408
 10
-22.27262121904807
 20
3.446907598111645
 10
-22.31570168984148
 20
3.436523015884277
 10
-22.35879270417938
 20
3.426174937985573
 10
-22.40189412154024
 20
3.415863164976803
 10
-22.44500580140251
 20
3.405587497419235
 10
-22.48812760324466
 20
3.395347735874138
 10
-22.53125938654513
 20
3.385143680902782
 10
-22.5744010107824
 20
3.374975133066436
 10
-22.61755233543491
 20
3.364841892926369
 10
-22.66071321998112
 20
3.35474376104385
 10
-22.7038835238995
 20
3.344680537980148
 10
-22.74706310666849
 20
3.334652024296532
 10
-22.79025182776656
 20
3.324658020554272
 10
-22.83344954667217
 20
3.314698327314636
 10
-22.87665612286376
 20
3.304772745138894
 10
-22.91987141581981
 20
3.294881074588314
 10
-22.96309528501876
 20
3.285023116224167
 10
-23.00632758993909
 20
3.27519867060772
 10
-23.04956819005923
 20
3.265407538300243
 10
-23.09281694485766
 20
3.255649519863006
 10
-23.13607371381283
 20
3.245924415857278
 10
-23.17933835640318
 20
3.236232026844326
 10
-23.2226107321072
 20
3.226572153385422
 10
-23.26589070040333
 20
3.216944596041833
 10
-23.30917812077002
 20
3.207349155374828
 10
-23.35247285268575
 20
3.197785631945679
 10
-23.39577475562896
 20
3.188253826315651
 10
-23.43908368907811
 20
3.178753539046017
 10
-23.48239951251167
 20
3.169284570698043
 10
-23.52572208540809
 20
3.159846721833001
 10
-23.56905126724582
 20
3.150439793012158
 10
-23.61238691750333
 20
3.141063584796783
 10
-23.65572889565906
 20
3.131717897748146
 10
-23.69907706119149
 20
3.122402532427517
 10
-23.74243127357907
 20
3.113117289396164
 10
-23.78579139230024
 20
3.103861969215355
 10
-23.82915727683348
 20
3.094636372446362
 10
-23.87252878665725
 20
3.085440299650451
 10
-23.91590578125
 20
3.076273551388894
 10
-23.95928812009018
 20
3.067135928222958
 10
-24.00267566265625
 20
3.058027230713912
 10
-24.04606826842667
 20
3.048947259423027
 10
-24.08946579687991
 20
3.039895814911571
 10
-24.13286810749442
 20
3.030872697740814
 10
-24.17627505974864
 20
3.021877708472024
 10
-24.21968651312106
 20
3.01291064766647
 10
-24.26310232709011
 20
3.003971315885421
 10
-24.30652236113426
 20
2.995059513690148
 10
-24.34994647473197
 20
2.986175041641918
 10
-24.39337452736169
 20
2.977317700302001
 10
-24.43680637850189
 20
2.968487290231667
 10
-24.48024188763101
 20
2.959683611992184
 10
-24.52368091422753
 20
2.950906466144821
 10
-24.56712331776988
 20
2.942155653250847
 10
-24.61056895773654
 20
2.933430973871533
 10
-24.65401769360596
 20
2.924732228568145
 10
-24.6974693848566
 20
2.916059217901955
 10
-24.74092389096691
 20
2.907411742434231
 10
-24.78438107141537
 20
2.898789602726242
 10
-24.82784078568041
 20
2.890192599339258
 10
-24.8713028932405
 20
2.881620532834545
 10
-24.9147672535741
 20
2.873073203773376
 10
-24.95823372615967
 20
2.864550412717019
 10
-25.00170217047565
 20
2.856051960226742
 10
-25.04517244600052
 20
2.847577646863815
 10
-25.08864441221273
 20
2.839127273189507
 10
-25.13211792859073
 20
2.830700639765088
 10
-25.17559285461298
 20
2.822297547151825
 10
-25.21906904975796
 20
2.813917795910989
 10
-25.26254637350409
 20
2.805561186603848
 10
-25.30602468532986
 20
2.797227519791671
 10
-25.34950384471371
 20
2.78891659603573
 10
-25.3929837111341
 20
2.78062821589729
 10
-25.4364641440695
 20
2.772362179937622
 10
-25.47994500299835
 20
2.764118288717995
 10
-25.52342614739912
 20
2.755896342799679
 10
-25.56690743675026
 20
2.747696142743943
 10
-25.61038873053024
 20
2.739517489112054
 10
-25.6538698882175
 20
2.731360182465283
 10
-25.69735076929051
 20
2.723224023364899
 10
-25.74083123322772
 20
2.715108812372171
 10
-25.78431113950761
 20
2.707014350048367
 10
-25.82779034760861
 20
2.698940436954758
 10
-25.87126871700919
 20
2.690886873652612
 10
-25.9147461071878
 20
2.682853460703199
 10
-25.95822237762291
 20
2.674839998667786
 10
-26.00169738779297
 20
2.666846288107645
 10
-26.04517099717643
 20
2.658872129584043
 10
-26.08864306525178
 20
2.650917323658249
 10
-26.13211345149744
 20
2.642981670891534
 10
-26.17558201539188
 20
2.635064971845167
 10
-26.21904861641356
 20
2.627167027080415
 10
-26.26251311404095
 20
2.619287637158548
 10
-26.30597536775249
 20
2.611426602640836
 10
-26.34943523702664
 20
2.603583724088548
 10
-26.39289258134186
 20
2.595758802062953
 10
-26.43634726017662
 20
2.587951637125318
 10
-26.47979913300936
 20
2.580162029836916
 10
-26.52324805931854
 20
2.572389780759012
 10
-26.56669389858263
 20
2.564634690452879
 10
-26.61013651028007
 20
2.556896559479783
 10
-26.65357575388935
 20
2.549175188400996
 10
-26.69701148888889
 20
2.541470377777785
  0
LWPOLYLINE
  5
27F
330
2A2
100
AcDbEntity
  8
0
 62
    18
420
        0
100
AcDbPolyline
 90
      257
 70
     0
 43
0.0
 10
-26.69701148888889
 20
2.541470377777785
 10
-26.73696483996488
 20
2.534415993233399
 10
-26.77688700813319
 20
2.527417838987802
 10
-26.81677841424185
 20
2.520475619591087
 10
-26.85663947913886
 20
2.513589039593343
 10
-26.89647062367226
 20
2.506757803544662
 10
-26.93627226869007
 20
2.499981615995138
 10
-26.97604483504029
 20
2.493260181494859
 10
-27.01578874357096
 20
2.486593204593919
 10
-27.0555044151301
 20
2.479980389842408
 10
-27.09519227056571
 20
2.473421441790417
 10
-27.13485273072583
 20
2.46691606498804
 10
-27.17448621645847
 20
2.460463963985364
 10
-27.21409314861166
 20
2.454064843332485
 10
-27.2536739480334
 20
2.447718407579492
 10
-27.29322903557173
 20
2.441424361276476
 10
-27.33275883207466
 20
2.43518240897353
 10
-27.3722637583902
 20
2.428992255220745
 10
-27.4117442353664
 20
2.422853604568212
 10
-27.45120068385126
 20
2.416766161566022
 10
-27.49063352469279
 20
2.410729630764268
 10
-27.53004317873903
 20
2.404743716713039
 10
-27.56943006683799
 20
2.398808123962429
 10
-27.60879460983769
 20
2.392922557062528
 10
-27.64813722858616
 20
2.387086720563428
 10
-27.6874583439314
 20
2.38130031901522
 10
-27.72675837672145
 20
2.375563056967995
 10
-27.76603774780432
 20
2.369874638971846
 10
-27.80529687802803
 20
2.364234769576862
 10
-27.8445361882406
 20
2.358643153333137
 10
-27.88375609929004
 20
2.353099494790761
 10
-27.9229570320244
 20
2.347603498499825
 10
-27.96213940729167
 20
2.342154869010422
 10
-28.00130364593988
 20
2.336753310872642
 10
-28.04045016881706
 20
2.331398528636578
 10
-28.07957939677122
 20
2.326090226852319
 10
-28.11869175065037
 20
2.320828110069958
 10
-28.15778765130255
 20
2.315611882839587
 10
-28.19686751957576
 20
2.310441249711296
 10
-28.23593177631804
 20
2.305315915235178
 10
-28.27498084237739
 20
2.300235583961322
 10
-28.31401513860185
 20
2.295199960439822
 10
-28.35303508583943
 20
2.290208749220768
 10
-28.39204110493814
 20
2.285261654854252
 10
-28.43103361674601
 20
2.280358381890366
 10
-28.47001304211107
 20
2.275498634879199
 10
-28.50897980188133
 20
2.270682118370845
 10
-28.54793431690481
 20
2.265908536915395
 10
-28.58687700802952
 20
2.261177595062939
 10
-28.62580829610349
 20
2.25648899736357
 10
-28.66472860197474
 20
2.251842448367378
 10
-28.7036383464913
 20
2.247237652624456
 10
-28.74253795050117
 20
2.242674314684894
 10
-28.78142783485239
 20
2.238152139098784
 10
-28.82030842039295
 20
2.233670830416218
 10
-28.8591801279709
 20
2.229230093187287
 10
-28.89804337843425
 20
2.224829631962081
 10
-28.93689859263102
 20
2.220469151290695
 10
-28.97574619140922
 20
2.216148355723217
 10
-29.01458659561689
 20
2.211866949809739
 10
-29.05342022610203
 20
2.207624638100354
 10
-29.09224750371267
 20
2.203421125145152
 10
-29.13106884929683
 20
2.199256115494225
 10
-29.16988468370253
 20
2.195129313697664
 10
-29.20869542777778
 20
2.191040424305561
 10
-29.24750150237061
 20
2.186989151868007
 10
-29.28630332832905
 20
2.182975200935093
 10
-29.3251013265011
 20
2.178998276056912
 10
-29.36389591773479
 20
2.175058081783554
 10
-29.40268752287813
 20
2.171154322665111
 10
-29.44147656277916
 20
2.167286703251674
 10
-29.48026345828588
 20
2.163454928093335
 10
-29.51904863024631
 20
2.159658701740185
 10
-29.55783249950849
 20
2.155897728742316
 10
-29.59661548692042
 20
2.152171713649818
 10
-29.63539801333013
 20
2.148480361012785
 10
-29.67418049958564
 20
2.144823375381305
 10
-29.71296336653497
 20
2.141200461305472
 10
-29.75174703502613
 20
2.137611323335377
 10
-29.79053192590715
 20
2.134055666021111
 10
-29.82931846002604
 20
2.130533193912766
 10
-29.86810705823084
 20
2.127043611560432
 10
-29.90689814136955
 20
2.123586623514202
 10
-29.94569213029019
 20
2.120161934324166
 10
-29.9844894458408
 20
2.116769248540417
 10
-30.02329050886938
 20
2.113408270713046
 10
-30.06209574022395
 20
2.110078705392143
 10
-30.10090556075255
 20
2.106780257127802
 10
-30.13972039130317
 20
2.103512630470111
 10
-30.17854065272386
 20
2.100275529969165
 10
-30.21736676586262
 20
2.097068660175053
 10
-30.25619915156747
 20
2.093891725637868
 10
-30.29503823068645
 20
2.0907444309077
 10
-30.33388442406756
 20
2.087626480534641
 10
-30.37273815255882
 20
2.084537579068783
 10
-30.41159983700826
 20
2.081477431060216
 10
-30.45046989826389
 20
2.078445741059033
 10
-30.48934875717374
 20
2.075442213615325
 10
-30.52823683458583
 20
2.072466553279183
 10
-30.56713455134817
 20
2.069518464600698
 10
-30.60604232830879
 20
2.066597652129963
 10
-30.6449605863157
 20
2.063703820417068
 10
-30.68388974621693
 20
2.060836674012105
 10
-30.72283022886049
 20
2.057995917465165
 10
-30.76178245509441
 20
2.055181255326341
 10
-30.8007468457667
 20
2.052392392145721
 10
-30.83972382172538
 20
2.0496290324734
 10
-30.87871380381848
 20
2.046890880859468
 10
-30.91771721289402
 20
2.044177641854017
 10
-30.95673446980001
 20
2.041489020007137
 10
-30.99576599538447
 20
2.03882471986892
 10
-31.03481221049543
 20
2.036184445989458
 10
-31.0738735359809
 20
2.033567902918843
 10
-31.11295039268891
 20
2.030974795207165
 10
-31.15204320146747
 20
2.028404827404516
 10
-31.19115238316461
 20
2.025857704060987
 10
-31.23027835862834
 20
2.02333312972667
 10
-31.26942154870668
 20
2.020830808951657
 10
-31.30858237424766
 20
2.018350446286038
 10
-31.34776125609929
 20
2.015891746279906
 10
-31.3869586151096
 20
2.01345441348335
 10
-31.42617487212659
 20
2.011038152446464
 10
-31.4654104479983
 20
2.008642667719339
 10
-31.50466576357275
 20
2.006267663852065
 10
-31.54394123969795
 20
2.003912845394734
 10
-31.58323729722192
 20
2.001577916897438
 10
-31.62255435699269
 20
1.999262582910269
 10
-31.66189283985826
 20
1.996966547983317
 10
-31.70125316666667
 20
1.994689516666673
 10
-31.74063575826593
 20
1.99243119351043
 10
-31.78004103550407
 20
1.990191283064679
 10
-31.81946941922909
 20
1.987969489879511
 10
-31.85892133028904
 20
1.985765518505018
 10
-31.89839718953191
 20
1.983579073491291
 10
-31.93789741780574
 20
1.981409859388422
 10
-31.97742243595853
 20
1.979257580746501
 10
-32.01697266483833
 20
1.977121942115621
 10
-32.05654852529313
 20
1.975002648045872
 10
-32.09615043817097
 20
1.972899403087347
 10
-32.13577882431985
 20
1.970811911790137
 10
-32.17543410458781
 20
1.968739878704332
 10
-32.21511669982286
 20
1.966683008380025
 10
-32.25482703087302
 20
1.964641005367307
 10
-32.29456551858632
 20
1.962613574216269
 10
-32.33433258381076
 20
1.960600419477004
 10
-32.37412864739439
 20
1.958601245699601
 10
-32.41395413018519
 20
1.956615757434153
 10
-32.45380945303121
 20
1.954643659230751
 10
-32.49369503678047
 20
1.952684655639486
 10
-32.53361130228097
 20
1.95073845121045
 10
-32.57355867038075
 20
1.948804750493735
 10
-32.6135375619278
 20
1.946883258039431
 10
-32.65354839777018
 20
1.944973678397631
 10
-32.69359159875589
 20
1.943075716118425
 10
-32.73366758573295
 20
1.941189075751906
 10
-32.77377677954938
 20
1.939313461848163
 10
-32.8139196010532
 20
1.93744857895729
 10
-32.85409647109243
 20
1.935594131629376
 10
-32.89430781051509
 20
1.933749824414515
 10
-32.9345540401692
 20
1.931915361862797
 10
-32.97483558090278
 20
1.930090448524313
 10
-33.01515285356385
 20
1.928274788949156
 10
-33.05550627900043
 20
1.926468087687415
 10
-33.09589627806054
 20
1.924670049289184
 10
-33.1363232715922
 20
1.922880378304553
 10
-33.17678768044344
 20
1.921098779283613
 10
-33.21728992546225
 20
1.919324956776457
 10
-33.25783042749669
 20
1.917558615333176
 10
-33.29840960739475
 20
1.91579945950386
 10
-33.33902788600446
 20
1.914047193838602
 10
-33.37968568417384
 20
1.912301522887492
 10
-33.4203834227509
 20
1.910562151200623
 10
-33.46112152258369
 20
1.908828783328085
 10
-33.50190040452019
 20
1.907101123819971
 10
-33.54272048940845
 20
1.905378877226371
 10
-33.58358219809648
 20
1.903661748097377
 10
-33.62448595143229
 20
1.901949440983081
 10
-33.66543217026391
 20
1.900241660433573
 10
-33.70642127543937
 20
1.898538110998946
 10
-33.74745368780667
 20
1.89683849722929
 10
-33.78852982821384
 20
1.895142523674698
 10
-33.8296501175089
 20
1.893449894885259
 10
-33.87081497653987
 20
1.891760315411067
 10
-33.91202482615476
 20
1.890073489802213
 10
-33.95328008720161
 20
1.888389122608787
 10
-33.99458118052841
 20
1.886706918380881
 10
-34.03592852698322
 20
1.885026581668587
 10
-34.07732254741403
 20
1.883347817021995
 10
-34.11876366266886
 20
1.881670328991199
 10
-34.16025229359575
 20
1.879993822126288
 10
-34.2017888610427
 20
1.878318000977355
 10
-34.24337378585774
 20
1.876642570094491
 10
-34.28500748888889
 20
1.874967234027786
 10
-34.32669039098416
 20
1.873291697327334
 10
-34.36842291299159
 20
1.871615664543224
 10
-34.41020547575918
 20
1.869938840225549
 10
-34.45203850013495
 20
1.8682609289244
 10
-34.49392240696695
 20
1.866581635189867
 10
-34.53585761710315
 20
1.864900663572044
 10
-34.57784455139161
 20
1.863217718621021
 10
-34.61988363068034
 20
1.86153250488689
 10
-34.66197527581735
 20
1.859844726919742
 10
-34.70411990765067
 20
1.858154089269668
 10
-34.74631794702832
 20
1.85646029648676
 10
-34.78856981479831
 20
1.854763053121109
 10
-34.83087593180867
 20
1.853062063722807
 10
-34.87323671890741
 20
1.851357032841945
 10
-34.91565259694257
 20
1.849647665028615
 10
-34.95812398676215
 20
1.847933664832908
 10
-35.00065130921417
 20
1.846214736804915
 10
-35.04323498514667
 20
1.844490585494728
 10
-35.08587543540765
 20
1.842760915452439
 10
-35.12857308084513
 20
1.841025431228138
 10
-35.17132834230714
 20
1.839283837371917
 10
-35.2141416406417
 20
1.837535838433868
 10
-35.25701339669682
 20
1.835781138964082
 10
-35.29994403132053
 20
1.83401944351265
 10
-35.34293396536084
 20
1.832250456629664
 10
-35.38598361966577
 20
1.830473882865215
 10
-35.42909341508336
 20
1.828689426769395
 10
-35.47226377246161
 20
1.826896792892295
 10
-35.51549511264854
 20
1.825095685784007
 10
-35.55878785649218
 20
1.823285809994622
 10
-35.60214242484056
 20
1.821466870074231
 10
-35.64555923854167
 20
1.819638570572926
 10
-35.68903871844354
 20
1.817800616040798
 10
-35.7325812853942
 20
1.815952711027939
 10
-35.77618736024166
 20
1.814094560084439
 10
-35.81985736383396
 20
1.812225867760392
 10
-35.86359171701908
 20
1.810346338605887
 10
-35.90739084064508
 20
1.808455677171017
 10
-35.95125515555997
 20
1.806553588005872
 10
-35.99518508261176
 20
1.804639775660545
 10
-36.03918104264848
 20
1.802713944685126
 10
-36.08324345651813
 20
1.800775799629708
 10
-36.12737274506875
 20
1.798825045044381
 10
-36.17156932914835
 20
1.796861385479236
 10
-36.21583362960497
 20
1.794884525484367
 10
-36.2601660672866
 20
1.792894169609863
 10
-36.30456706304126
 20
1.790890022405816
 10
-36.34903703771701
 20
1.788871788422318
 10
-36.39357641216183
 20
1.78683917220946
 10
-36.43818560722377
 20
1.784791878317333
 10
-36.48286504375082
 20
1.782729611296029
 10
-36.527615142591
 20
1.78065207569564
 10
-36.57243632459237
 20
1.778558976066256
 10
-36.6173290106029
 20
1.77645001695797
 10
-36.66229362147065
 20
1.774324902920872
 10
-36.70733057804362
 20
1.772183338505054
 10
-36.75244030116982
 20
1.770025028260608
 10
-36.7976232116973
 20
1.767849676737624
 10
-36.84287973047406
 20
1.765656988486195
 10
-36.8882102783481
 20
1.763446668056412
 10
-36.93361527616749
 20
1.761218419998366
 10
-36.97909514478022
 20
1.758971948862148
 10
-37.02465030503431
 20
1.75670695919785
 10
-37.07028117777777
 20
1.754423155555564
  0
LWPOLYLINE
  5
280
330
2A2
100
AcDbEntity
  8
0
 62
    18
420
        0
100
AcDbPolyline
 90
      257
 70
     0
 43
0.0
 10
-37.07028117777777
 20
1.754423155555564
 10
-37.11606750921445
 20
1.752167762969628
 10
-37.16208691065546
 20
1.749987777030349
 10
-37.20833660060975
 20
1.74788245890302
 10
-37.25481379758631
 20
1.745851069752934
 10
-37.3015157200941
 20
1.743892870745385
 10
-37.34843958664208
 20
1.742007123045665
 10
-37.39558261573922
 20
1.740193087819067
 10
-37.4429420258945
 20
1.738450026230884
 10
-37.49051503561687
 20
1.73677719944641
 10
-37.5382988634153
 20
1.735173868630937
 10
-37.58629072779877
 20
1.733639294949758
 10
-37.6344878472762
 20
1.732172739568168
 10
-37.68288744035663
 20
1.730773463651457
 10
-37.73148672554898
 20
1.729440728364921
 10
-37.78028292136224
 20
1.728173794873851
 10
-37.82927324630533
 20
1.726971924343541
 10
-37.87845491888727
 20
1.725834377939284
 10
-37.927825157617
 20
1.724760416826373
 10
-37.97738118100349
 20
1.723749302170101
 10
-38.02712020755572
 20
1.72280029513576
 10
-38.07703945578265
 20
1.721912656888646
 10
-38.12713614419322
 20
1.721085648594048
 10
-38.17740749129645
 20
1.720318531417263
 10
-38.22785071560126
 20
1.719610566523581
 10
-38.27846303561662
 20
1.718961015078297
 10
-38.32924166985153
 20
1.718369138246703
 10
-38.38018383681494
 20
1.717834197194093
 10
-38.43128675501582
 20
1.717355453085759
 10
-38.48254764296311
 20
1.716932167086995
 10
-38.5339637191658
 20
1.716563600363093
 10
-38.58553220213287
 20
1.716249014079347
 10
-38.63725031037325
 20
1.71598766940105
 10
-38.68911526239595
 20
1.715778827493494
 10
-38.7411242767099
 20
1.715621749521973
 10
-38.79327457182408
 20
1.715515696651781
 10
-38.84556336624747
 20
1.715459930048209
 10
-38.89798787848901
 20
1.715453710876551
 10
-38.95054532705769
 20
1.7154963003021
 10
-39.00323293046247
 20
1.715586959490149
 10
-39.05604790721231
 20
1.715724949605992
 10
-39.10898747581619
 20
1.715909531814921
 10
-39.16204885478307
 20
1.716139967282229
 10
-39.2152292626219
 20
1.716415517173209
 10
-39.26852591784167
 20
1.716735442653155
 10
-39.32193603895134
 20
1.717099004887359
 10
-39.37545684445988
 20
1.717505465041115
 10
-39.42908555287625
 20
1.717954084279716
 10
-39.48281938270941
 20
1.718444123768454
 10
-39.53665555246835
 20
1.718974844672623
 10
-39.59059128066202
 20
1.719545508157515
 10
-39.64462378579938
 20
1.720155375388425
 10
-39.69875028638941
 20
1.720803707530644
 10
-39.75296800094107
 20
1.721489765749466
 10
-39.80727414796334
 20
1.722212811210184
 10
-39.86166594596518
 20
1.722972105078092
 10
-39.91614061345553
 20
1.723766908518481
 10
-39.9706953689434
 20
1.724596482696645
 10
-40.02532743093773
 20
1.725460088777878
 10
-40.0800340179475
 20
1.726356987927472
 10
-40.13481234848166
 20
1.72728644131072
 10
-40.1896596410492
 20
1.728247710092916
 10
-40.24457311415905
 20
1.729240055439352
 10
-40.29954998632023
 20
1.730262738515322
 10
-40.35458747604166
 20
1.731315020486119
 10
-40.40968280183233
 20
1.732396162517034
 10
-40.4648331822012
 20
1.733505425773363
 10
-40.52003583565724
 20
1.734642071420398
 10
-40.5752879807094
 20
1.73580536062343
 10
-40.63058683586668
 20
1.736994554547756
 10
-40.68592961963802
 20
1.738208914358666
 10
-40.7413135505324
 20
1.739447701221454
 10
-40.79673584705878
 20
1.740710176301413
 10
-40.85219372772612
 20
1.741995600763836
 10
-40.90768441104341
 20
1.743303235774016
 10
-40.96320511551959
 20
1.744632342497246
 10
-41.01875305966364
 20
1.74598218209882
 10
-41.07432546198453
 20
1.74735201574403
 10
-41.12991954099122
 20
1.748741104598169
 10
-41.18553251519268
 20
1.750148709826531
 10
-41.24116160309787
 20
1.751574092594408
 10
-41.29680402321576
 20
1.753016514067094
 10
-41.35245699405532
 20
1.754475235409882
 10
-41.40811773412553
 20
1.755949517788064
 10
-41.46378346193534
 20
1.757438622366934
 10
-41.51945139599371
 20
1.758941810311784
 10
-41.57511875480962
 20
1.760458342787909
 10
-41.63078275689203
 20
1.7619874809606
 10
-41.68644062074991
 20
1.763528485995151
 10
-41.74208956489223
 20
1.765080619056856
 10
-41.79772680782796
 20
1.766643141311006
 10
-41.85334956806605
 20
1.768215313922896
 10
-41.90895506411547
 20
1.769796398057817
 10
-41.96454051448521
 20
1.771385654881065
 10
-42.02010313768422
 20
1.77298234555793
 10
-42.07564015222145
 20
1.774585731253706
 10
-42.1311487766059
 20
1.776195073133688
 10
-42.1866262293465
 20
1.777809632363166
 10
-42.24206972895227
 20
1.779428670107436
 10
-42.29747649393212
 20
1.781051447531788
 10
-42.35284374279505
 20
1.782677225801517
 10
-42.40816869405
 20
1.784305266081916
 10
-42.46344856620598
 20
1.785934829538278
 10
-42.51868057777192
 20
1.787565177335896
 10
-42.5738619472568
 20
1.789195570640062
 10
-42.62898989316959
 20
1.790825270616071
 10
-42.68406163401924
 20
1.792453538429214
 10
-42.73907438831473
 20
1.794079635244786
 10
-42.79402537456503
 20
1.795702822228078
 10
-42.84891181127911
 20
1.797322360544385
 10
-42.90373091696591
 20
1.798937511358999
 10
-42.95847991013443
 20
1.800547535837214
 10
-43.01315600929361
 20
1.802151695144321
 10
-43.06775643295244
 20
1.803749250445615
 10
-43.12227839961987
 20
1.805339462906389
 10
-43.17671912780487
 20
1.806921593691935
 10
-43.23107583601642
 20
1.808494903967546
 10
-43.28534574276347
 20
1.810058654898516
 10
-43.33952606655498
 20
1.811612107650139
 10
-43.39361402589995
 20
1.813154523387705
 10
-43.44760683930731
 20
1.81468516327651
 10
-43.50150172528605
 20
1.816203288481845
 10
-43.55529590234513
 20
1.817708160169004
 10
-43.60898658899352
 20
1.819199039503281
 10
-43.66257100374018
 20
1.820675187649967
 10
-43.71604636509407
 20
1.822135865774356
 10
-43.76940989156418
 20
1.823580335041742
 10
-43.82265880165946
 20
1.825007856617416
 10
-43.87579031388888
 20
1.826417691666673
 10
-43.92880164676141
 20
1.827809101354806
 10
-43.98169001878601
 20
1.829181346847106
 10
-44.03445264847166
 20
1.830533689308869
 10
-44.0870867543273
 20
1.831865389905385
 10
-44.13958955486193
 20
1.833175709801949
 10
-44.19195826858449
 20
1.834463910163854
 10
-44.24419011400396
 20
1.835729252156393
 10
-44.29628230962931
 20
1.836970996944858
 10
-44.3482320739695
 20
1.838188405694543
 10
-44.40003662553349
 20
1.839380739570741
 10
-44.45169318283026
 20
1.840547259738745
 10
-44.50319896436877
 20
1.841687227363848
 10
-44.554551188658
 20
1.842799903611342
 10
-44.60574707420689
 20
1.843884549646522
 10
-44.65678383952442
 20
1.84494042663468
 10
-44.70765870311956
 20
1.845966795741109
 10
-44.75836888350129
 20
1.846962918131102
 10
-44.80891159917855
 20
1.847928054969953
 10
-44.85928406866032
 20
1.848861467422954
 10
-44.90948351045557
 20
1.849762416655399
 10
-44.95950714307327
 20
1.85063016383258
 10
-45.00935218502236
 20
1.85146397011979
 10
-45.05901585481183
 20
1.852263096682323
 10
-45.10849537095065
 20
1.853026804685472
 10
-45.15778795194778
 20
1.85375435529453
 10
-45.20689081631218
 20
1.854445009674789
 10
-45.25580118255283
 20
1.855098028991543
 10
-45.30451626917868
 20
1.855712674410085
 10
-45.3530332946987
 20
1.856288207095708
 10
-45.40134947762188
 20
1.856823888213705
 10
-45.44946203645717
 20
1.857318978929369
 10
-45.49736818971353
 20
1.857772740407993
 10
-45.54506515589995
 20
1.85818443381487
 10
-45.59255015352536
 20
1.858553320315294
 10
-45.63982040109875
 20
1.858878661074556
 10
-45.68687311712909
 20
1.859159717257951
 10
-45.73370552012533
 20
1.859395750030772
 10
-45.78031482859646
 20
1.859586020558311
 10
-45.82669826105143
 20
1.859729790005861
 10
-45.87285303599921
 20
1.859826319538717
 10
-45.91877637194877
 20
1.859874870322169
 10
-45.96446548740906
 20
1.859874703521513
 10
-46.00991760088908
 20
1.85982508030204
 10
-46.05512993089778
 20
1.859725261829044
 10
-46.1000996959441
 20
1.859574509267818
 10
-46.14482411453704
 20
1.859372083783654
 10
-46.18930040518558
 20
1.859117246541848
 10
-46.23352578639865
 20
1.858809258707689
 10
-46.27749747668523
 20
1.858447381446473
 10
-46.32121269455429
 20
1.858030875923492
 10
-46.36466865851479
 20
1.857559003304039
 10
-46.40786258707572
 20
1.857031024753408
 10
-46.45079169874602
 20
1.856446201436891
 10
-46.49345321203465
 20
1.855803794519781
 10
-46.53584434545061
 20
1.855103065167372
 10
-46.57796231750284
 20
1.854343274544956
 10
-46.61980434670032
 20
1.853523683817827
 10
-46.66136765155201
 20
1.852643554151277
 10
-46.70264945056688
 20
1.8517021467106
 10
-46.74364696225391
 20
1.850698722661089
 10
-46.78435740512203
 20
1.849632543168036
 10
-46.82477799768025
 20
1.848502869396736
 10
-46.8649059584375
 20
1.84730896251248
 10
-46.90473850590277
 20
1.846050083680562
 10
-46.94427285858502
 20
1.844725494066275
 10
-46.98350623499323
 20
1.843334454834913
 10
-47.02243585363632
 20
1.841876227151768
 10
-47.06105893302332
 20
1.840350072182132
 10
-47.09937269166316
 20
1.838755251091301
 10
-47.13737434806481
 20
1.837091025044565
 10
-47.17506112073724
 20
1.835356655207218
 10
-47.21243022818942
 20
1.833551402744555
 10
-47.24947888893031
 20
1.831674528821866
 10
-47.28620432146889
 20
1.829725294604446
 10
-47.32260374431411
 20
1.827702961257588
 10
-47.35867437597494
 20
1.825606789946584
 10
-47.39441343496036
 20
1.823436041836728
 10
-47.42981813977933
 20
1.821189978093313
 10
-47.46488570894081
 20
1.818867859881632
 10
-47.49961336095377
 20
1.816468948366978
 10
-47.53399831432718
 20
1.813992504714643
 10
-47.56803778757001
 20
1.811437790089922
 10
-47.60172899919122
 20
1.808804065658106
 10
-47.63506916769976
 20
1.80609059258449
 10
-47.66805551160463
 20
1.803296632034366
 10
-47.70068524941478
 20
1.800421445173027
 10
-47.73295559963919
 20
1.797464293165766
 10
-47.7648637807868
 20
1.794424437177877
 10
-47.7964070113666
 20
1.791301138374652
 10
-47.82758250988755
 20
1.788093657921385
 10
-47.85838749485862
 20
1.784801256983368
 10
-47.88881918478877
 20
1.781423196725895
 10
-47.91887479818695
 20
1.777958738314258
 10
-47.94855155356217
 20
1.774407142913752
 10
-47.97784666942336
 20
1.770767671689667
 10
-48.0067573642795
 20
1.767039585807299
 10
-48.03528085663957
 20
1.76322214643194
 10
-48.06341436501251
 20
1.759314614728882
 10
-48.0911551079073
 20
1.755316251863419
 10
-48.11850030383292
 20
1.751226319000845
 10
-48.14544717129831
 20
1.747044077306452
 10
-48.17199292881246
 20
1.742768787945532
 10
-48.19813479488433
 20
1.73839971208338
 10
-48.22386998802287
 20
1.733936110885288
 10
-48.24919572673706
 20
1.72937724551655
 10
-48.27410922953587
 20
1.724722377142458
 10
-48.29860771492827
 20
1.719970766928306
 10
-48.32268840142321
 20
1.715121676039385
 10
-48.34634850752968
 20
1.710174365640991
 10
-48.36958525175663
 20
1.705128096898415
 10
-48.39239585261303
 20
1.699982130976951
 10
-48.41477752860784
 20
1.694735729041891
 10
-48.43672749825005
 20
1.68938815225853
 10
-48.4582429800486
 20
1.683938661792159
 10
-48.47932119251248
 20
1.678386518808072
 10
-48.49995935415064
 20
1.672730984471562
 10
-48.52015468347205
 20
1.666971319947922
 10
-48.53990439898568
 20
1.661106786402445
 10
-48.55920571920048
 20
1.655136645000424
 10
-48.57805586262545
 20
1.649060156907153
 10
-48.59645204776953
 20
1.642876583287924
 10
-48.61439149314171
 20
1.63658518530803
 10
-48.63187141725092
 20
1.630185224132764
 10
-48.64888903860617
 20
1.62367596092742
 10
-48.6654415757164
 20
1.61705665685729
 10
-48.68152624709058
 20
1.610326573087668
 10
-48.69714027123768
 20
1.603484970783847
 10
-48.71228086666666
 20
1.596531111111119
  0
LWPOLYLINE
  5
281
330
2A2
100
AcDbEntity
  8
0
 62
    18
420
        0
100
AcDbPolyline
 90
      259
 70
     0
 43
0.0
 10
0.0079360888890054
 20
-15.33485771111106
 42
0.0222189332991516
 10
-0.4833366000000208
 20
-14.50475748888889
 42
0.0487689839055229
 10
-3.242005199999994
 20
-11.7231809111111
 10
-3.265105873155114
 20
-11.70342695523231
 10
-3.288205696174383
 20
-11.68375150483598
 10
-3.311304877513666
 20
-11.66415414515717
 10
-3.334403625628826
 20
-11.64463446143094
 10
-3.357502148975729
 20
-11.62519203889237
 10
-3.38060065601024
 20
-11.6058264627765
 10
-3.403699355188223
 20
-11.58653731831841
 10
-3.426798454965543
 20
-11.56732419075317
 10
-3.449898163798064
 20
-11.54818666531582
 10
-3.472998690141651
 20
-11.52912432724143
 10
-3.496100242452168
 20
-11.51013676176508
 10
-3.519203029185479
 20
-11.49122355412181
 10
-3.542307258797451
 20
-11.4723842895467
 10
-3.565413139743947
 20
-11.45361855327481
 10
-3.588520880480831
 20
-11.4349259305412
 10
-3.61163068946397
 20
-11.41630600658094
 10
-3.634742775149226
 20
-11.39775836662908
 10
-3.657857345992464
 20
-11.37928259592069
 10
-3.68097461044955
 20
-11.36087827969084
 10
-3.704094776976346
 20
-11.34254500317458
 10
-3.727218054028719
 20
-11.32428235160699
 10
-3.750344650062533
 20
-11.30608991022311
 10
-3.773474773533653
 20
-11.28796726425803
 10
-3.796608632897943
 20
-11.26991399894679
 10
-3.819746436611267
 20
-11.25192969952447
 10
-3.842888393129491
 20
-11.23401395122613
 10
-3.866034710908478
 20
-11.21616633928683
 10
-3.889185598404094
 20
-11.19838644894162
 10
-3.912341264072203
 20
-11.18067386542559
 10
-3.935501916368669
 20
-11.16302817397378
 10
-3.958667763749357
 20
-11.14544895982127
 10
-3.981839014670133
 20
-11.12793580820312
 10
-4.005015877586859
 20
-11.11048830435438
 10
-4.028198560955402
 20
-11.09310603351013
 10
-4.051387273231624
 20
-11.07578858090541
 10
-4.074582222871393
 20
-11.05853553177532
 10
-4.09778361833057
 20
-11.04134647135489
 10
-4.120991668065022
 20
-11.0242209848792
 10
-4.144206580530613
 20
-11.0071586575833
 10
-4.167428564183208
 20
-10.99015907470227
 10
-4.19065782747867
 20
-10.97322182147117
 10
-4.213894578872865
 20
-10.95634648312505
 10
-4.237139026821658
 20
-10.93953264489899
 10
-4.260391379780912
 20
-10.92277989202804
 10
-4.283651846206492
 20
-10.90608780974726
 10
-4.306920634554263
 20
-10.88945598329173
 10
-4.33019795328009
 20
-10.8728839978965
 10
-4.353484010839837
 20
-10.85637143879665
 10
-4.376779015689369
 20
-10.83991789122722
 10
-4.40008317628455
 20
-10.82352294042329
 10
-4.423396701081247
 20
-10.80718617161991
 10
-4.44671979853532
 20
-10.79090717005216
 10
-4.470052677102636
 20
-10.77468552095509
 10
-4.493395545239061
 20
-10.75852080956376
 10
-4.516748611400457
 20
-10.74241262111325
 10
-4.540112084042692
 20
-10.72636054083862
 10
-4.563486171621626
 20
-10.71036415397491
 10
-4.586871082593127
 20
-10.69442304575721
 10
-4.610267025413059
 20
-10.67853680142057
 10
-4.633674208537286
 20
-10.66270500620006
 10
-4.657092840421674
 20
-10.64692724533074
 10
-4.680523129522085
 20
-10.63120310404767
 10
-4.703965284294385
 20
-10.61553216758592
 10
-4.727419513194438
 20
-10.59991402118055
 10
-4.750886024678111
 20
-10.58434825006662
 10
-4.774365027201265
 20
-10.56883443947919
 10
-4.797856729219767
 20
-10.55337217465334
 10
-4.821361339189481
 20
-10.53796104082412
 10
-4.844879065566271
 20
-10.52260062322659
 10
-4.868410116806003
 20
-10.50729050709582
 10
-4.89195470136454
 20
-10.49203027766688
 10
-4.915513027697749
 20
-10.47681952017482
 10
-4.939085304261491
 20
-10.46165781985471
 10
-4.962671739511632
 20
-10.44654476194161
 10
-4.986272541904039
 20
-10.43147993167059
 10
-5.009887919894573
 20
-10.41646291427671
 10
-5.033518081939101
 20
-10.40149329499502
 10
-5.057163236493487
 20
-10.38657065906061
 10
-5.080823592013594
 20
-10.37169459170852
 10
-5.104499356955289
 20
-10.35686467817382
 10
-5.128190739774436
 20
-10.34208050369157
 10
-5.151897948926898
 20
-10.32734165349685
 10
-5.175621192868542
 20
-10.31264771282471
 10
-5.19936068005523
 20
-10.29799826691021
 10
-5.223116618942829
 20
-10.28339290098841
 10
-5.246889217987204
 20
-10.26883120029439
 10
-5.270678685644216
 20
-10.2543127500632
 10
-5.294485230369731
 20
-10.23983713552991
 10
-5.318309060619615
 20
-10.22540394192958
 10
-5.342150384849734
 20
-10.21101275449728
 10
-5.366009411515947
 20
-10.19666315846806
 10
-5.389886349074125
 20
-10.18235473907699
 10
-5.413781405980128
 20
-10.16808708155913
 10
-5.437694790689823
 20
-10.15385977114955
 10
-5.461626711659074
 20
-10.13967239308331
 10
-5.485577377343745
 20
-10.12552453259548
 10
-5.5095469961997
 20
-10.11141577492111
 10
-5.533535776682806
 20
-10.09734570529527
 10
-5.557543927248926
 20
-10.08331390895302
 10
-5.581571656353924
 20
-10.06931997112943
 10
-5.605619172453665
 20
-10.05536347705956
 10
-5.629686684004014
 20
-10.04144401197847
 10
-5.653774399460838
 20
-10.02756116112123
 10
-5.677882527279997
 20
-10.01371450972289
 10
-5.702011275917358
 20
-9.99990364301853
 10
-5.726160853828786
 20
-9.986128146243203
 10
-5.750331469470143
 20
-9.972387604631976
 10
-5.774523331297297
 20
-9.958681603419908
 10
-5.79873664776611
 20
-9.94500972784207
 10
-5.822971627332449
 20
-9.931371563133517
 10
-5.847228478452177
 20
-9.917766694529316
 10
-5.871507409581158
 20
-9.904194707264532
 10
-5.895808629175256
 20
-9.890655186574225
 10
-5.92013234569034
 20
-9.87714771769346
 10
-5.944478767582271
 20
-9.863671885857297
 10
-5.968848103306913
 20
-9.850227276300803
 10
-5.993240561320134
 20
-9.83681347425904
 10
-6.017656350077794
 20
-9.823430064967074
 10
-6.042095678035759
 20
-9.810076633659964
 10
-6.066558753649897
 20
-9.796752765572773
 10
-6.091045785376069
 20
-9.783458045940568
 10
-6.115556981670141
 20
-9.770192059998408
 10
-6.140092550987978
 20
-9.75695439298136
 10
-6.164652701785442
 20
-9.743744630124487
 10
-6.189237642518401
 20
-9.730562356662848
 10
-6.213847581642717
 20
-9.717407157831513
 10
-6.238482727614257
 20
-9.704278618865539
 10
-6.263143288888884
 20
-9.691176324999992
 10
-6.287829473922462
 20
-9.678099861469935
 10
-6.312541491170857
 20
-9.665048813510431
 10
-6.337279549089933
 20
-9.652022766356545
 10
-6.362043856135553
 20
-9.639021305243336
 10
-6.386834620763587
 20
-9.62604401540587
 10
-6.411652051429892
 20
-9.613090482079212
 10
-6.436496356590338
 20
-9.600160290498422
 10
-6.461367744700787
 20
-9.587253025898566
 10
-6.486266424217106
 20
-9.574368273514702
 10
-6.511192603595156
 20
-9.5615056185819
 10
-6.536146491290806
 20
-9.548664646335222
 10
-6.561128295759918
 20
-9.535844942009728
 10
-6.586138225458354
 20
-9.52304609084048
 10
-6.611176488841985
 20
-9.510267678062547
 10
-6.63624329436667
 20
-9.49750928891099
 10
-6.661338850488277
 20
-9.48477050862087
 10
-6.686463365662668
 20
-9.472050922427249
 10
-6.711617048345709
 20
-9.459350115565197
 10
-6.736800106993266
 20
-9.44666767326977
 10
-6.762012750061199
 20
-9.434003180776038
 10
-6.787255186005378
 20
-9.421356223319059
 10
-6.812527623281665
 20
-9.408726386133896
 10
-6.837830270345925
 20
-9.396113254455615
 10
-6.86316333565402
 20
-9.383516413519278
 10
-6.888527027661819
 20
-9.370935448559951
 10
-6.913921554825185
 20
-9.358369944812694
 10
-6.939347125599982
 20
-9.345819487512568
 10
-6.964803948442074
 20
-9.333283661894642
 10
-6.990292231807326
 20
-9.320762053193976
 10
-7.015812184151603
 20
-9.308254246645634
 10
-7.041364013930769
 20
-9.295759827484677
 10
-7.066947929600691
 20
-9.283278380946173
 10
-7.092564139617229
 20
-9.270809492265183
 10
-7.118212852436251
 20
-9.258352746676767
 10
-7.143894276513623
 20
-9.24590772941599
 10
-7.169608620305205
 20
-9.233474025717918
 10
-7.195356092266865
 20
-9.221051220817612
 10
-7.221136900854466
 20
-9.208638899950136
 10
-7.246951254523874
 20
-9.196236648350553
 10
-7.272799361730952
 20
-9.183844051253924
 10
-7.298681430931566
 20
-9.171460693895318
 10
-7.324597670581581
 20
-9.159086161509792
 10
-7.350548289136858
 20
-9.146720039332413
 10
-7.376533495053266
 20
-9.13436191259824
 10
-7.402553496786666
 20
-9.122011366542344
 10
-7.428608502792927
 20
-9.109667986399781
 10
-7.454698721527909
 20
-9.097331357405617
 10
-7.480824361447478
 20
-9.085001064794916
 10
-7.506985631007501
 20
-9.072676693802737
 10
-7.533182738663839
 20
-9.06035782966415
 10
-7.559415892872359
 20
-9.048044057614211
 10
-7.585685302088923
 20
-9.03573496288799
 10
-7.611991174769401
 20
-9.023430130720545
 10
-7.638333719369652
 20
-9.011129146346942
 10
-7.664713144345541
 20
-8.998831595002244
 10
-7.691129658152938
 20
-8.986537061921513
 10
-7.717583469247701
 20
-8.974245132339815
 10
-7.744074786085697
 20
-8.96195539149221
 10
-7.770603817122792
 20
-8.949667424613764
 10
-7.79717077081485
 20
-8.937380816939537
 10
-7.823775855617734
 20
-8.925095153704595
 10
-7.850419279987311
 20
-8.912810020143999
 10
-7.877101252379443
 20
-8.900525001492813
 10
-7.903821981249997
 20
-8.888239682986104
 10
-7.930581675054835
 20
-8.87595364985893
 10
-7.957380542249824
 20
-8.863666487346356
 10
-7.98421879129083
 20
-8.851377780683446
 10
-8.01109663063371
 20
-8.839087115105261
 10
-8.038014268734338
 20
-8.826794075846868
 10
-8.064971914048572
 20
-8.814498248143327
 10
-8.09196977503228
 20
-8.802199217229703
 10
-8.119008060141326
 20
-8.789896568341057
 10
-8.146086977831576
 20
-8.777589886712455
 10
-8.17320673655889
 20
-8.76527875757896
 10
-8.200367544779136
 20
-8.75296276617563
 10
-8.227569610948176
 20
-8.740641497737538
 10
-8.254813143521881
 20
-8.72831453749974
 10
-8.28209835095611
 20
-8.715981470697301
 10
-8.309425441706725
 20
-8.703641882565284
 10
-8.336794624229599
 20
-8.691295358338753
 10
-8.364206106980589
 20
-8.678941483252768
 10
-8.391660098415562
 20
-8.666579842542397
 10
-8.419156806990385
 20
-8.654210021442701
 10
-8.44669644116092
 20
-8.641831605188743
 10
-8.474279209383033
 20
-8.629444179015588
 10
-8.501905320112586
 20
-8.617047328158296
 10
-8.529574981805446
 20
-8.604640637851935
 10
-8.557288402917477
 20
-8.592223693331562
 10
-8.585045791904546
 20
-8.579796079832246
 10
-8.612847357222511
 20
-8.567357382589046
 10
-8.640693307327245
 20
-8.55490718683703
 10
-8.668583850674606
 20
-8.542445077811255
 10
-8.69651919572046
 20
-8.529970640746788
 10
-8.724499550920672
 20
-8.517483460878692
 10
-8.752525124731111
 20
-8.504983123442031
 10
-8.780596125607635
 20
-8.492469213671868
 10
-8.808712762006113
 20
-8.479941316803265
 10
-8.836875242382408
 20
-8.467399018071283
 10
-8.865083775192383
 20
-8.45484190271099
 10
-8.893338568891902
 20
-8.442269555957449
 10
-8.921639831936835
 20
-8.429681563045719
 10
-8.949987772783045
 20
-8.417077509210866
 10
-8.97838259988639
 20
-8.404456979687954
 10
-9.006824521702743
 20
-8.391819559712042
 10
-9.035313746687965
 20
-8.3791648345182
 10
-9.06385048329792
 20
-8.366492389341484
 10
-9.09243493998847
 20
-8.353801809416963
 10
-9.121067325215485
 20
-8.341092679979699
 10
-9.149747847434828
 20
-8.328364586264753
 10
-9.178476715102363
 20
-8.31561711350719
 10
-9.207254136673953
 20
-8.302849846942072
 10
-9.236080320605467
 20
-8.290062371804465
 10
-9.264955475352764
 20
-8.277254273329426
 10
-9.293879809371713
 20
-8.264425136752026
 10
-9.322853531118177
 20
-8.251574547307325
 10
-9.351876849048018
 20
-8.238702090230383
 10
-9.380949971617103
 20
-8.225807350756268
 10
-9.410073107281299
 20
-8.212889914120042
 10
-9.439246464496469
 20
-8.199949365556767
 10
-9.468470251718477
 20
-8.186985290301507
 10
-9.497744677403187
 20
-8.173997273589324
 10
-9.527069950006462
 20
-8.160984900655285
 10
-9.55644627798417
 20
-8.147947756734446
 10
-9.585873869792174
 20
-8.134885427061878
 10
-9.615352933886339
 20
-8.121797496872642
 10
-9.644883678722527
 20
-8.1086835514018
 10
-9.674466312756607
 20
-8.095543175884412
 10
-9.704101044444442
 20
-8.082375955555548
  0
LWPOLYLINE
  5
282
330
2A2
100
AcDbEntity
  8
0
 62
    18
420
        0
100
AcDbPolyline
 90
      259
 70
     0
 43
0.0
 10
-0.0084836000001935
 20
-15.33436946666655
 42
-0.022217819940566
 10
0.4827890888888877
 20
-14.50426642222224
 42
-0.0487693706833635
 10
3.241457688888829
 20
-11.72269548888893
 10
3.264558362044006
 20
-11.70294153301009
 10
3.287658185063275
 20
-11.68326608261376
 10
3.310757366402557
 20
-11.66366872293495
 10
3.333856114517717
 20
-11.64414903920872
 10
3.356954637864621
 20
-11.62470661667014
 10
3.380053144899132
 20
-11.60534104055428
 10
3.403151844077115
 20
-11.58605189609619
 10
3.426250943854435
 20
-11.56683876853094
 10
3.449350652686956
 20
-11.5477012430936
 10
3.472451179030543
 20
-11.52863890501921
 10
3.49555273134106
 20
-11.50965133954286
 10
3.518655518074371
 20
-11.49073813189959
 10
3.541759747686343
 20
-11.47189886732449
 10
3.564865628632839
 20
-11.45313313105259
 10
3.587973369369723
 20
-11.43444050831898
 10
3.611083178352862
 20
-11.41582058435872
 10
3.634195264038118
 20
-11.39727294440686
 10
3.657309834881356
 20
-11.37879717369847
 10
3.680427099338441
 20
-11.36039285746862
 10
3.703547265865238
 20
-11.34205958095236
 10
3.726670542917611
 20
-11.32379692938476
 10
3.749797138951425
 20
-11.30560448800089
 10
3.772927262422545
 20
-11.28748184203581
 10
3.796061121786835
 20
-11.26942857672458
 10
3.819198925500159
 20
-11.25144427730225
 10
3.842340882018383
 20
-11.23352852900391
 10
3.86548719979737
 20
-11.2156809170646
 10
3.888638087292986
 20
-11.1979010267194
 10
3.911793752961095
 20
-11.18018844320337
 10
3.934954405257561
 20
-11.16254275175156
 10
3.958120252638249
 20
-11.14496353759905
 10
3.981291503559024
 20
-11.12745038598089
 10
4.004468366475751
 20
-11.11000288213216
 10
4.027651049844294
 20
-11.0926206112879
 10
4.050839762120516
 20
-11.07530315868319
 10
4.074034711760285
 20
-11.0580501095531
 10
4.097236107219462
 20
-11.04086104913267
 10
4.120444156953914
 20
-11.02373556265698
 10
4.143659069419505
 20
-11.00667323536109
 10
4.1668810530721
 20
-10.98967365248006
 10
4.190110316367562
 20
-10.97273639924895
 10
4.213347067761757
 20
-10.95586106090283
 10
4.23659151571055
 20
-10.93904722267677
 10
4.259843868669804
 20
-10.92229446980582
 10
4.283104335095384
 20
-10.90560238752504
 10
4.306373123443155
 20
-10.88897056106951
 10
4.329650442168982
 20
-10.87239857567429
 10
4.352936499728729
 20
-10.85588601657443
 10
4.376231504578261
 20
-10.839432469005
 10
4.399535665173442
 20
-10.82303751820107
 10
4.422849189970139
 20
-10.80670074939769
 10
4.446172287424211
 20
-10.79042174782994
 10
4.469505165991528
 20
-10.77420009873287
 10
4.492848034127952
 20
-10.75803538734155
 10
4.516201100289349
 20
-10.74192719889103
 10
4.539564572931583
 20
-10.72587511861639
 10
4.562938660510518
 20
-10.70987873175269
 10
4.586323571482019
 20
-10.69393762353499
 10
4.60971951430195
 20
-10.67805137919835
 10
4.633126697426178
 20
-10.66221958397784
 10
4.656545329310566
 20
-10.64644182310852
 10
4.679975618410976
 20
-10.63071768182545
 10
4.703417773183276
 20
-10.6150467453637
 10
4.72687200208333
 20
-10.59942859895833
 10
4.750338513567002
 20
-10.5838628278444
 10
4.773817516090157
 20
-10.56834901725697
 10
4.797309218108659
 20
-10.55288675243112
 10
4.820813828078373
 20
-10.5374756186019
 10
4.844331554455163
 20
-10.52211520100437
 10
4.867862605694895
 20
-10.5068050848736
 10
4.891407190253432
 20
-10.49154485544466
 10
4.914965516586641
 20
-10.4763340979526
 10
4.938537793150383
 20
-10.46117239763249
 10
4.962124228400524
 20
-10.44605933971939
 10
4.98572503079293
 20
-10.43099450944837
 10
5.009340408783465
 20
-10.41597749205449
 10
5.032970570827993
 20
-10.40100787277281
 10
5.056615725382379
 20
-10.38608523683839
 10
5.080276080902486
 20
-10.3712091694863
 10
5.103951845844181
 20
-10.3563792559516
 10
5.127643228663327
 20
-10.34159508146935
 10
5.15135043781579
 20
-10.32685623127463
 10
5.175073681757434
 20
-10.31216229060248
 10
5.198813168944122
 20
-10.29751284468798
 10
5.22256910783172
 20
-10.28290747876619
 10
5.246341706876096
 20
-10.26834577807217
 10
5.270131174533108
 20
-10.25382732784098
 10
5.293937719258623
 20
-10.23935171330769
 10
5.317761549508507
 20
-10.22491851970736
 10
5.341602873738625
 20
-10.21052733227506
 10
5.365461900404839
 20
-10.19617773624584
 10
5.389338837963017
 20
-10.18186931685477
 10
5.41323389486902
 20
-10.16760165933691
 10
5.437147279578715
 20
-10.15337434892733
 10
5.461079200547966
 20
-10.13918697086109
 10
5.485029866232637
 20
-10.12503911037325
 10
5.508999485088592
 20
-10.11093035269889
 10
5.532988265571698
 20
-10.09686028307305
 10
5.556996416137817
 20
-10.0828284867308
 10
5.581024145242816
 20
-10.06883454890721
 10
5.605071661342557
 20
-10.05487805483734
 10
5.629139172892906
 20
-10.04095858975625
 10
5.65322688834973
 20
-10.027075738899
 10
5.677335016168889
 20
-10.01322908750067
 10
5.70146376480625
 20
-9.99941822079631
 10
5.725613342717677
 20
-9.985642724020984
 10
5.749783958359035
 20
-9.971902182409755
 10
5.773975820186189
 20
-9.958196181197689
 10
5.798189136655002
 20
-9.944524305619849
 10
5.822424116221341
 20
-9.930886140911294
 10
5.846680967341069
 20
-9.917281272307097
 10
5.87095989847005
 20
-9.90370928504231
 10
5.895261118064148
 20
-9.890169764352002
 10
5.919584834579232
 20
-9.876662295471235
 10
5.943931256471163
 20
-9.863186463635074
 10
5.968300592195805
 20
-9.849741854078582
 10
5.992693050209025
 20
-9.83632805203682
 10
6.017108838966686
 20
-9.82294464274485
 10
6.041548166924651
 20
-9.809591211437741
 10
6.066011242538789
 20
-9.796267343350554
 10
6.090498274264961
 20
-9.782972623718347
 10
6.115009470559033
 20
-9.769706637776187
 10
6.13954503987687
 20
-9.756468970759139
 10
6.164105190674334
 20
-9.743259207902263
 10
6.188690131407293
 20
-9.730076934440628
 10
6.213300070531609
 20
-9.71692173560929
 10
6.237935216503149
 20
-9.703793196643318
 10
6.262595777777776
 20
-9.69069090277777
 10
6.287281962811354
 20
-9.677614439247714
 10
6.311993980059749
 20
-9.664563391288208
 10
6.336732037978825
 20
-9.65153734413432
 10
6.361496345024445
 20
-9.638535883021113
 10
6.386287109652478
 20
-9.625558593183648
 10
6.411104540318783
 20
-9.612605059856989
 10
6.43594884547923
 20
-9.5996748682762
 10
6.460820233589679
 20
-9.586767603676343
 10
6.485718913105997
 20
-9.573882851292481
 10
6.510645092484048
 20
-9.561020196359681
 10
6.535598980179698
 20
-9.548179224113
 10
6.56058078464881
 20
-9.535359519787505
 10
6.585590714347246
 20
-9.522560668618258
 10
6.610628977730877
 20
-9.509782255840324
 10
6.635695783255562
 20
-9.497023866688767
 10
6.660791339377169
 20
-9.484285086398646
 10
6.68591585455156
 20
-9.471565500205028
 10
6.711069537234601
 20
-9.458864693342976
 10
6.736252595882158
 20
-9.44618225104755
 10
6.761465238950091
 20
-9.433517758553815
 10
6.78670767489427
 20
-9.420870801096836
 10
6.811980112170557
 20
-9.408240963911673
 10
6.837282759234816
 20
-9.395627832233393
 10
6.862615824542912
 20
-9.383030991297058
 10
6.887979516550711
 20
-9.370450026337728
 10
6.913374043714077
 20
-9.357884522590469
 10
6.938799614488874
 20
-9.345334065290347
 10
6.964256437330966
 20
-9.332798239672421
 10
6.989744720696217
 20
-9.320276630971755
 10
7.015264673040495
 20
-9.30776882442341
 10
7.040816502819661
 20
-9.295274405262456
 10
7.066400418489582
 20
-9.28279295872395
 10
7.092016628506121
 20
-9.270324070042959
 10
7.117665341325143
 20
-9.257867324454542
 10
7.143346765402515
 20
-9.245422307193767
 10
7.169061109194097
 20
-9.232988603495695
 10
7.194808581155756
 20
-9.220565798595391
 10
7.220589389743358
 20
-9.208153477727913
 10
7.246403743412766
 20
-9.19575122612833
 10
7.272251850619844
 20
-9.183358629031703
 10
7.298133919820458
 20
-9.170975271673095
 10
7.324050159470473
 20
-9.15860073928757
 10
7.35000077802575
 20
-9.146234617110188
 10
7.375985983942158
 20
-9.13387649037602
 10
7.402005985675558
 20
-9.121525944320123
 10
7.428060991681819
 20
-9.109182564177559
 10
7.454151210416801
 20
-9.096845935183392
 10
7.48027685033637
 20
-9.08451564257269
 10
7.506438119896393
 20
-9.072191271580515
 10
7.532635227552731
 20
-9.059872407441928
 10
7.558868381761251
 20
-9.04755863539199
 10
7.585137790977815
 20
-9.035249540665768
 10
7.611443663658293
 20
-9.022944708498322
 10
7.637786208258544
 20
-9.010643724124721
 10
7.664165633234433
 20
-8.998346172780023
 10
7.690582147041829
 20
-8.986051639699292
 10
7.717035958136592
 20
-8.973759710117594
 10
7.743527274974589
 20
-8.961469969269988
 10
7.770056306011684
 20
-8.949182002391542
 10
7.796623259703741
 20
-8.936895394717315
 10
7.823228344506626
 20
-8.924609731482372
 10
7.849871768876203
 20
-8.912324597921778
 10
7.876553741268335
 20
-8.900039579270594
 10
7.903274470138888
 20
-8.88775426076388
 10
7.930034163943727
 20
-8.875468227636706
 10
7.956833031138716
 20
-8.863181065124133
 10
7.983671280179721
 20
-8.850892358461223
 10
8.010549119522603
 20
-8.838601692883039
 10
8.03746675762323
 20
-8.826308653624645
 10
8.064424402937464
 20
-8.814012825921106
 10
8.091422263921173
 20
-8.80171379500748
 10
8.118460549030218
 20
-8.789411146118834
 10
8.145539466720468
 20
-8.777104464490234
 10
8.172659225447783
 20
-8.764793335356735
 10
8.199820033668027
 20
-8.75247734395341
 10
8.227022099837068
 20
-8.740156075515316
 10
8.254265632410773
 20
-8.727829115277517
 10
8.281550839845002
 20
-8.715496048475076
 10
8.308877930595617
 20
-8.703156460343061
 10
8.33624711311849
 20
-8.69080993611653
 10
8.363658595869481
 20
-8.678456061030547
 10
8.391112587304454
 20
-8.666094420320176
 10
8.418609295879277
 20
-8.65372459922048
 10
8.446148930049812
 20
-8.641346182966522
 10
8.473731698271925
 20
-8.628958756793367
 10
8.501357809001478
 20
-8.616561905936077
 10
8.529027470694338
 20
-8.604155215629712
 10
8.556740891806369
 20
-8.59173827110934
 10
8.584498280793438
 20
-8.579310657610023
 10
8.612299846111403
 20
-8.566871960366825
 10
8.640145796216137
 20
-8.554421764614808
 10
8.668036339563498
 20
-8.541959655589032
 10
8.695971684609352
 20
-8.529485218524568
 10
8.723952039809564
 20
-8.516998038656473
 10
8.751977613620003
 20
-8.50449770121981
 10
8.780048614496527
 20
-8.491983791449647
 10
8.808165250895005
 20
-8.479455894581044
 10
8.8363277312713
 20
-8.466913595849062
 10
8.864536264081275
 20
-8.45435648048877
 10
8.892791057780794
 20
-8.441784133735228
 10
8.921092320825727
 20
-8.429196140823498
 10
8.949440261671937
 20
-8.416592086988645
 10
8.977835088775281
 20
-8.403971557465733
 10
9.006277010591635
 20
-8.391334137489821
 10
9.034766235576857
 20
-8.378679412295979
 10
9.063302972186811
 20
-8.366006967119265
 10
9.091887428877362
 20
-8.353316387194743
 10
9.120519814104377
 20
-8.340607257757476
 10
9.14920033632372
 20
-8.327879164042534
 10
9.177929203991255
 20
-8.315131691284968
 10
9.206706625562845
 20
-8.302364424719851
 10
9.235532809494359
 20
-8.289576949582242
 10
9.264407964241656
 20
-8.276768851107207
 10
9.293332298260605
 20
-8.263939714529805
 10
9.322306020007069
 20
-8.251089125085105
 10
9.35132933793691
 20
-8.238216668008164
 10
9.380402460505994
 20
-8.225321928534049
 10
9.409525596170191
 20
-8.212404491897821
 10
9.43869895338536
 20
-8.199463943334546
 10
9.467922740607369
 20
-8.186499868079288
 10
9.497197166292079
 20
-8.173511851367104
 10
9.526522438895354
 20
-8.160499478433065
 10
9.555898766873062
 20
-8.147462334512229
 10
9.585326358681066
 20
-8.13440000483966
 10
9.61480542277523
 20
-8.121312074650424
 10
9.644336167611419
 20
-8.10819812917958
 10
9.673918801645499
 20
-8.095057753662193
 10
9.703553533333334
 20
-8.081890533333329
  0
DIMENSION
  5
283
330
2A2
100
AcDbEntity
  8
0
100
AcDbDimension
280
     0
  2
*D3
 10
8.944271909999163
 20
5.472135954999577
 30
0.0
 11
-10.14912284161628
 21
-3.633132849379552
 31
0.0
 70
    35
 71
     5
 42
20.0
 73
     0
 74
     0
 75
     0
  3
QCADDimStyle
100
AcDbDiametricDimension
 15
-8.944271909999163
 25
-3.472135954999567
 35
0.0
 40
0.0
1001
ACAD
1000
DSTYLE
1002
{
1070
    41
1040
0.18
1070
    44
1040
0.18
1070
    42
1040
0.0625
1070
   147
1040
0.09
1070
    77
1070
     0
1070
    73
1070
     1
1070
   340
1005
0
1070
   140
1040
0.18
1002
}
  0
ENDSEC
  0
SECTION
  2
OBJECTS
  0
DICTIONARY
  5
290
330
0
100
AcDbDictionary
281
     1
  3
ACAD_DETAILVIEWSTYLE
350
345
  3
ACAD_GROUP
350
291
  3
ACAD_LAYOUT
350
29D
  3
ACAD_MATERIAL
350
2C6
  3
ACAD_MLEADERSTYLE
350
344
  3
ACAD_MLINESTYLE
350
29A
  3
ACAD_PLOTSETTINGS
350
29C
  3
ACAD_PLOTSTYLENAME
350
292
  3
ACAD_SCALELIST
350
2CA
  3
ACAD_SECTIONVIEWSTYLE
350
346
  3
ACAD_TABLESTYLE
350
343
  3
ACAD_VISUALSTYLE
350
2AD
  3
AcDbVariableDictionary
350
341
  3
QCAD_OBJECTS
350
2EE
  0
SUN
  5
2EC
330
2AC
100
AcDbSun
 90
        1
290
     0
 63
     7
421
 16777215
 40
1.0
291
     1
 91
  2455826
 92
 54000000
292
     0
 70
     2
 71
   256
280
     1
  0
DICTIONARY
  5
345
102
{ACAD_REACTORS
330
290
102
}
330
290
100
AcDbDictionary
281
     1
  0
DICTIONARY
  5
291
102
{ACAD_REACTORS
330
290
102
}
330
290
100
AcDbDictionary
281
     1
  0
DICTIONARY
  5
29D
102
{ACAD_REACTORS
330
290
102
}
330
290
100
AcDbDictionary
281
     1
  3
Layout1
350
2A1
  3
Layout2
350
2A9
  3
Model
350
2A5
  0
DICTIONARY
  5
2C6
102
{ACAD_REACTORS
330
290
102
}
330
290
100
AcDbDictionary
281
     1
  3
ByBlock
350
2C8
  3
ByLayer
350
2C7
  3
Global
350
2C9
  0
DICTIONARY
  5
344
102
{ACAD_REACTORS
330
290
102
}
330
290
100
AcDbDictionary
281
     1
  0
DICTIONARY
  5
29A
102
{ACAD_REACTORS
330
290
102
}
330
290
100
AcDbDictionary
281
     1
  3
Standard
350
29B
  0
DICTIONARY
  5
29C
102
{ACAD_REACTORS
330
290
102
}
330
290
100
AcDbDictionary
281
     1
  0
ACDBDICTIONARYWDFLT
  5
292
102
{ACAD_REACTORS
330
290
102
}
330
290
100
AcDbDictionary
281
     1
  3
Normal
350
293
100
AcDbDictionaryWithDefault
340
293
  0
DICTIONARY
  5
2CA
102
{ACAD_REACTORS
330
290
102
}
330
290
100
AcDbDictionary
281
     1
  3
A0
350
2CB
  3
A1
350
2CC
  3
A2
350
2CD
  3
A3
350
2CE
  3
A4
350
2CF
  3
A5
350
2D0
  3
A6
350
2D1
  3
A7
350
2D2
  3
A8
350
2D3
  3
A9
350
2D4
  3
B0
350
2D5
  3
B1
350
2D6
  3
B2
350
2D7
  3
B3
350
2D8
  3
B4
350
2D9
  3
B5
350
2DA
  3
B6
350
2DB
  3
B7
350
2DC
  3
B8
350
2DD
  3
B9
350
2DE
  3
C0
350
2DF
  3
C1
350
2E0
  3
C2
350
2E1
  3
C3
350
2E2
  3
C4
350
2E3
  3
C5
350
2E4
  3
C6
350
2E5
  3
C7
350
2E6
  3
C8
350
2E7
  3
C9
350
2E8
  3
D0
350
2E9
  3
D1
350
2EA
  3
D2
350
2EB
  0
DICTIONARY
  5
346
102
{ACAD_REACTORS
330
290
102
}
330
290
100
AcDbDictionary
281
     1
  0
DICTIONARY
  5
343
102
{ACAD_REACTORS
330
290
102
}
330
290
100
AcDbDictionary
281
     1
  0
DICTIONARY
  5
2AD
102
{ACAD_REACTORS
330
290
102
}
330
290
100
AcDbDictionary
281
     1
  3
2dWireframe
350
2B2
  3
Basic
350
2B5
  3
Brighten
350
2B9
  3
ColorChange
350
2BD
  3
Conceptual
350
2B7
  3
Dim
350
2B8
  3
EdgeColorOff
350
2C0
  3
Facepattern
350
2BC
  3
Flat
350
2AE
  3
FlatWithEdges
350
2AF
  3
Gouraud
350
2B0
  3
GouraudWithEdges
350
2B1
  3
Hidden
350
2B4
  3
JitterOff
350
2BE
  3
Linepattern
350
2BB
  3
OverhangOff
350
2BF
  3
Realistic
350
2B6
  3
Shaded
350
2C5
  3
Shaded with edges
350
2C4
  3
Shades of Gray
350
2C1
  3
Sketchy
350
2C2
  3
Thicken
350
2BA
  3
Wireframe
350
2B3
  3
X-Ray
350
2C3
  0
DICTIONARY
  5
341
102
{ACAD_REACTORS
330
290
102
}
330
290
100
AcDbDictionary
281
     1
  3
CANNOSCALE
350
342
  0
DICTIONARY
  5
2EE
102
{ACAD_REACTORS
330
290
102
}
330
290
100
AcDbDictionary
281
     1
  3
Grid/DisplayGrid00
350
2EF
  3
Grid/DisplayGrid01
350
2F0
  3
Grid/DisplayGrid02
350
2F1
  3
Grid/DisplayGrid03
350
2F2
  3
Grid/GridSpacingX00
350
2F3
  3
Grid/GridSpacingX01
350
2F4
  3
Grid/GridSpacingX02
350
2F5
  3
Grid/GridSpacingX03
350
2F6
  3
Grid/GridSpacingY00
350
2F7
  3
Grid/GridSpacingY01
350
2F8
  3
Grid/GridSpacingY02
350
2F9
  3
Grid/GridSpacingY03
350
2FA
  3
Grid/IsometricGrid00
350
2FB
  3
Grid/IsometricGrid01
350
2FC
  3
Grid/IsometricGrid02
350
2FD
  3
Grid/IsometricGrid03
350
2FE
  3
Grid/IsometricProjection00
350
2FF
  3
Grid/IsometricProjection01
350
300
  3
Grid/IsometricProjection02
350
301
  3
Grid/IsometricProjection03
350
302
  3
Grid/MetaGridSpacingX00
350
303
  3
Grid/MetaGridSpacingX01
350
304
  3
Grid/MetaGridSpacingX02
350
305
  3
Grid/MetaGridSpacingX03
350
306
  3
Grid/MetaGridSpacingY00
350
307
  3
Grid/MetaGridSpacingY01
350
308
  3
Grid/MetaGridSpacingY02
350
309
  3
Grid/MetaGridSpacingY03
350
30A
  3
MultiPageSettings/Columns
350
30B
  3
MultiPageSettings/GlueMarginsBottom
350
30C
  3
MultiPageSettings/GlueMarginsLeft
350
30D
  3
MultiPageSettings/GlueMarginsRight
350
30E
  3
MultiPageSettings/GlueMarginsTop
350
30F
  3
MultiPageSettings/PrintCropMarks
350
310
  3
MultiPageSettings/Rows
350
311
  3
PageSettings/OffsetX
350
312
  3
PageSettings/OffsetY
350
313
  3
PageSettings/PageOrientation
350
314
  3
PageSettings/PaperHeight
350
315
  3
PageSettings/PaperWidth
350
316
  3
PageSettings/Scale
350
317
  3
PageSettings/ShowPaperBorders
350
318
  3
UnitSettings/PaperUnit
350
319
  0
LAYOUT
  5
2A1
102
{ACAD_REACTORS
330
29D
102
}
330
29D
100
AcDbPlotSettings
  1

  2
none_device
  4

  6

 40
0.0
 41
0.0
 42
0.0
 43
0.0
 44
0.0
 45
0.0
 46
0.0
 47
0.0
 48
0.0
 49
0.0
140
0.0
141
0.0
142
1.0
143
1.0
 70
   688
 72
     0
 73
     0
 74
     5
  7

 75
    16
 76
     0
 77
     2
 78
   300
147
1.0
148
0.0
149
0.0
100
AcDbLayout
  1
Layout1
 70
     1
 71
     1
 10
0.0
 20
0.0
 11
12.0
 21
9.0
 12
0.0
 22
0.0
 32
0.0
 14
1.000000000000000E+20
 24
1.000000000000000E+20
 34
1.000000000000000E+20
 15
-1.000000000000000E+20
 25
-1.000000000000000E+20
 35
-1.000000000000000E+20
146
0.0
 13
0.0
 23
0.0
 33
0.0
 16
1.0
 26
0.0
 36
0.0
 17
0.0
 27
1.0
 37
0.0
 76
     0
330
29E
  0
LAYOUT
  5
2A9
102
{ACAD_REACTORS
330
29D
102
}
330
29D
100
AcDbPlotSettings
  1

  2
none_device
  4

  6

 40
0.0
 41
0.0
 42
0.0
 43
0.0
 44
0.0
 45
0.0
 46
0.0
 47
0.0
 48
0.0
 49
0.0
140
0.0
141
0.0
142
1.0
143
1.0
 70
   688
 72
     0
 73
     0
 74
     5
  7

 75
    16
 76
     0
 77
     2
 78
   300
147
1.0
148
0.0
149
0.0
100
AcDbLayout
  1
Layout2
 70
     1
 71
     2
 10
0.0
 20
0.0
 11
0.0
 21
0.0
 12
0.0
 22
0.0
 32
0.0
 14
0.0
 24
0.0
 34
0.0
 15
0.0
 25
0.0
 35
0.0
146
0.0
 13
0.0
 23
0.0
 33
0.0
 16
1.0
 26
0.0
 36
0.0
 17
0.0
 27
1.0
 37
0.0
 76
     0
330
2A6
  0
LAYOUT
  5
2A5
102
{ACAD_REACTORS
330
29D
102
}
330
29D
100
AcDbPlotSettings
  1

  2
none_device
  4
Letter_(8.50_x_11.00_Inches)
  6

 40
6.35
 41
6.35
 42
6.35000508
 43
6.35000508
 44
215.9
 45
279.4
 46
0.0
 47
0.0
 48
0.0
 49
0.0
140
0.0
141
0.0
142
1.0
143
1.0
 70
  1712
 72
     0
 73
     0
 74
     0
  7

 75
     0
 76
     0
 77
     2
 78
   300
147
1.0
148
0.0
149
0.0
100
AcDbLayout
  1
Model
 70
     1
 71
     0
 10
0.0
 20
0.0
 11
12.0
 21
9.0
 12
0.0
 22
0.0
 32
0.0
 14
1.000000000000000E+20
 24
1.000000000000000E+20
 34
1.000000000000000E+20
 15
-1.000000000000000E+20
 25
-1.000000000000000E+20
 35
-1.000000000000000E+20
146
0.0
 13
0.0
 23
0.0
 33
0.0
 16
1.0
 26
0.0
 36
0.0
 17
0.0
 27
1.0
 37
0.0
 76
     0
330
2A2
331
2AC
  0
MATERIAL
  5
2C8
102
{ACAD_REACTORS
330
2C6
102
}
330
2C6
100
AcDbMaterial
  1
ByBlock
 72
     1
 94
      127
  0
MATERIAL
  5
2C7
102
{ACAD_REACTORS
330
2C6
102
}
330
2C6
100
AcDbMaterial
  1
ByLayer
 72
     1
 94
      127
  0
MATERIAL
  5
2C9
102
{ACAD_REACTORS
330
2C6
102
}
330
2C6
100
AcDbMaterial
  1
Global
 72
     1
 94
      127
  0
MLINESTYLE
  5
29B
102
{ACAD_REACTORS
330
29A
102
}
330
29A
100
AcDbMlineStyle
  2
Standard
 70
     0
  3

 62
   256
 51
90.0
 52
90.0
 71
     2
 49
0.5
 62
   256
  6
BYLAYER
 49
-0.5
 62
   256
  6
BYLAYER
  0
ACDBPLACEHOLDER
  5
293
102
{ACAD_REACTORS
330
292
102
}
330
292
  0
SCALE
  5
2CB
102
{ACAD_REACTORS
330
2CA
102
}
330
2CA
100
AcDbScale
 70
     0
300
1:1
140
1.0
141
1.0
290
     1
  0
SCALE
  5
2CC
102
{ACAD_REACTORS
330
2CA
102
}
330
2CA
100
AcDbScale
 70
     0
300
1:2
140
1.0
141
2.0
290
     0
  0
SCALE
  5
2CD
102
{ACAD_REACTORS
330
2CA
102
}
330
2CA
100
AcDbScale
 70
     0
300
1:4
140
1.0
141
4.0
290
     0
  0
SCALE
  5
2CE
102
{ACAD_REACTORS
330
2CA
102
}
330
2CA
100
AcDbScale
 70
     0
300
1:5
140
1.0
141
5.0
290
     0
  0
SCALE
  5
2CF
102
{ACAD_REACTORS
330
2CA
102
}
330
2CA
100
AcDbScale
 70
     0
300
1:8
140
1.0
141
8.0
290
     0
  0
SCALE
  5
2D0
102
{ACAD_REACTORS
330
2CA
102
}
330
2CA
100
AcDbScale
 70
     0
300
1:10
140
1.0
141
10.0
290
     0
  0
SCALE
  5
2D1
102
{ACAD_REACTORS
330
2CA
102
}
330
2CA
100
AcDbScale
 70
     0
300
1:16
140
1.0
141
16.0
290
     0
  0
SCALE
  5
2D2
102
{ACAD_REACTORS
330
2CA
102
}
330
2CA
100
AcDbScale
 70
     0
300
1:20
140
1.0
141
20.0
290
     0
  0
SCALE
  5
2D3
102
{ACAD_REACTORS
330
2CA
102
}
330
2CA
100
AcDbScale
 70
     0
300
1:30
140
1.0
141
30.0
290
     0
  0
SCALE
  5
2D4
102
{ACAD_REACTORS
330
2CA
102
}
330
2CA
100
AcDbScale
 70
     0
300
1:40
140
1.0
141
40.0
290
     0
  0
SCALE
  5
2D5
102
{ACAD_REACTORS
330
2CA
102
}
330
2CA
100
AcDbScale
 70
     0
300
1:50
140
1.0
141
50.0
290
     0
  0
SCALE
  5
2D6
102
{ACAD_REACTORS
330
2CA
102
}
330
2CA
100
AcDbScale
 70
     0
300
1:100
140
1.0
141
100.0
290
     0
  0
SCALE
  5
2D7
102
{ACAD_REACTORS
330
2CA
102
}
330
2CA
100
AcDbScale
 70
     0
300
2:1
140
2.0
141
1.0
290
     0
  0
SCALE
  5
2D8
102
{ACAD_REACTORS
330
2CA
102
}
330
2CA
100
AcDbScale
 70
     0
300
4:1
140
4.0
141
1.0
290
     0
  0
SCALE
  5
2D9
102
{ACAD_REACTORS
330
2CA
102
}
330
2CA
100
AcDbScale
 70
     0
300
8:1
140
8.0
141
1.0
290
     0
  0
SCALE
  5
2DA
102
{ACAD_REACTORS
330
2CA
102
}
330
2CA
100
AcDbScale
 70
     0
300
10:1
140
10.0
141
1.0
290
     0
  0
SCALE
  5
2DB
102
{ACAD_REACTORS
330
2CA
102
}
330
2CA
100
AcDbScale
 70
     0
300
100:1
140
100.0
141
1.0
290
     0
  0
SCALE
  5
2DC
102
{ACAD_REACTORS
330
2CA
102
}
330
2CA
100
AcDbScale
 70
     0
300
1/128" = 1'-0"
140
0.0078125
141
12.0
290
     0
  0
SCALE
  5
2DD
102
{ACAD_REACTORS
330
2CA
102
}
330
2CA
100
AcDbScale
 70
     0
300
1/64" = 1'-0"
140
0.015625
141
12.0
290
     0
  0
SCALE
  5
2DE
102
{ACAD_REACTORS
330
2CA
102
}
330
2CA
100
AcDbScale
 70
     0
300
1/32" = 1'-0"
140
0.03125
141
12.0
290
     0
  0
SCALE
  5
2DF
102
{ACAD_REACTORS
330
2CA
102
}
330
2CA
100
AcDbScale
 70
     0
300
1/16" = 1'-0"
140
0.0625
141
12.0
290
     0
  0
SCALE
  5
2E0
102
{ACAD_REACTORS
330
2CA
102
}
330
2CA
100
AcDbScale
 70
     0
300
3/32" = 1'-0"
140
0.09375
141
12.0
290
     0
  0
SCALE
  5
2E1
102
{ACAD_REACTORS
330
2CA
102
}
330
2CA
100
AcDbScale
 70
     0
300
1/8" = 1'-0"
140
0.125
141
12.0
290
     0
  0
SCALE
  5
2E2
102
{ACAD_REACTORS
330
2CA
102
}
330
2CA
100
AcDbScale
 70
     0
300
3/16" = 1'-0"
140
0.1875
141
12.0
290
     0
  0
SCALE
  5
2E3
102
{ACAD_REACTORS
330
2CA
102
}
330
2CA
100
AcDbScale
 70
     0
300
1/4" = 1'-0"
140
0.25
141
12.0
290
     0
  0
SCALE
  5
2E4
102
{ACAD_REACTORS
330
2CA
102
}
330
2CA
100
AcDbScale
 70
     0
300
3/8" = 1'-0"
140
0.375
141
12.0
290
     0
  0
SCALE
  5
2E5
102
{ACAD_REACTORS
330
2CA
102
}
330
2CA
100
AcDbScale
 70
     0
300
1/2" = 1'-0"
140
0.5
141
12.0
290
     0
  0
SCALE
  5
2E6
102
{ACAD_REACTORS
330
2CA
102
}
330
2CA
100
AcDbScale
 70
     0
300
3/4" = 1'-0"
140
0.75
141
12.0
290
     0
  0
SCALE
  5
2E7
102
{ACAD_REACTORS
330
2CA
102
}
330
2CA
100
AcDbScale
 70
     0
300
1" = 1'-0"
140
1.0
141
12.0
290
     0
  0
SCALE
  5
2E8
102
{ACAD_REACTORS
330
2CA
102
}
330
2CA
100
AcDbScale
 70
     0
300
1-1/2" = 1'-0"
140
1.5
141
12.0
290
     0
  0
SCALE
  5
2E9
102
{ACAD_REACTORS
330
2CA
102
}
330
2CA
100
AcDbScale
 70
     0
300
3" = 1'-0"
140
3.0
141
12.0
290
     0
  0
SCALE
  5
2EA
102
{ACAD_REACTORS
330
2CA
102
}
330
2CA
100
AcDbScale
 70
     0
300
6" = 1'-0"
140
6.0
141
12.0
290
     0
  0
SCALE
  5
2EB
102
{ACAD_REACTORS
330
2CA
102
}
330
2CA
100
AcDbScale
 70
     0
300
1'-0" = 1'-0"
140
12.0
141
12.0
290
     0
  0
VISUALSTYLE
  5
2B2
102
{ACAD_REACTORS
330
2AD
102
}
330
2AD
100
AcDbVisualStyle
  2
2dWireframe
 70
     4
177
     3
291
     0
 70
    58
 90
        0
176
     1
 90
        2
176
     1
 90
        0
176
     1
 90
        0
176
     1
 40
0.6
176
     1
 40
30.0
176
     1
 62
     7
420
 16777215
176
     1
 90
        1
176
     1
 90
        4
176
     1
 62
     7
176
     1
 62
   257
176
     1
 90
        1
176
     1
 90
        1
176
     1
 40
1.0
176
     1
 90
        0
176
     1
 62
   257
176
     1
 40
1.0
176
     1
 90
        1
176
     1
 90
        6
176
     1
 90
        2
176
     1
 62
     7
176
     1
 90
        5
176
     1
 90
        0
176
     1
 90
        0
176
     1
290
     0
176
     1
 90
        1
176
     1
 40
0.0
176
     1
 90
        0
176
     1
290
     1
176
     1
290
     1
176
     1
290
     0
176
     1
290
     0
176
     1
290
     0
176
     1
290
     0
176
     1
290
     0
176
     1
290
     0
176
     1
290
     0
176
     1
 90
       50
176
     1
 40
0.0
176
     1
 40
1.0
176
     1
 90
        0
176
     1
 62
    18
420
        0
176
     1
 90
       50
176
     1
 90
        3
176
     1
 62
     5
420
      255
176
     1
290
     0
176
     1
 90
       50
176
     1
 90
       50
176
     1
 90
       50
176
     1
290
     0
176
     1
 90
       50
176
     1
 62
   256
176
     0
 40
1.0
176
     0
 90
        2
176
     1
  1
strokes_ogs.tif
176
     1
290
     0
176
     1
 40
1.0
176
     1
 40
1.0
176
     1
  0
VISUALSTYLE
  5
2B5
102
{ACAD_REACTORS
330
2AD
102
}
330
2AD
100
AcDbVisualStyle
  2
Basic
 70
     7
177
     3
291
     1
 70
    58
 90
        1
176
     1
 90
        0
176
     1
 90
        1
176
     1
 90
        0
176
     1
 40
0.6
176
     1
 40
30.0
176
     1
 62
     7
420
 16777215
176
     1
 90
        0
176
     1
 90
        4
176
     1
 62
     7
176
     1
 62
   257
176
     1
 90
        1
176
     1
 90
        1
176
     1
 40
1.0
176
     1
 90
        8
176
     1
 62
     7
176
     1
 40
1.0
176
     1
 90
        1
176
     1
 90
        6
176
     1
 90
        2
176
     1
 62
     7
176
     1
 90
        5
176
     1
 90
        0
176
     1
 90
        0
176
     1
290
     0
176
     1
 90
        1
176
     1
 40
0.0
176
     1
 90
        0
176
     1
290
     0
176
     1
290
     1
176
     1
290
     1
176
     1
290
     0
176
     1
290
     0
176
     1
290
     0
176
     1
290
     0
176
     1
290
     0
176
     1
290
     0
176
     1
 90
       50
176
     1
 40
0.0
176
     1
 40
1.0
176
     1
 90
        0
176
     1
 62
    18
420
        0
176
     1
 90
       50
176
     1
 90
        3
176
     1
 62
     5
420
      255
176
     1
290
     0
176
     1
 90
       50
176
     1
 90
       50
176
     1
 90
       50
176
     1
290
     0
176
     1
 90
       50
176
     1
 62
   256
176
     0
 40
1.0
176
     0
 90
        2
176
     1
  1
strokes_ogs.tif
176
     1
290
     0
176
     1
 40
1.0
176
     1
 40
1.0
176
     1
  0
VISUALSTYLE
  5
2B9
102
{ACAD_REACTORS
330
2AD
102
}
330
2AD
100
AcDbVisualStyle
  2
Brighten
 70
    12
177
     3
291
     1
 70
    58
 90
        2
176
     1
 90
        2
176
     1
 90
        0
176
     1
 90
        0
176
     1
 40
0.6
176
     1
 40
30.0
176
     1
 62
     7
420
 16777215
176
     1
 90
        1
176
     1
 90
        4
176
     1
 62
     7
176
     1
 62
   257
176
     1
 90
        1
176
     1
 90
        1
176
     1
 40
1.0
176
     1
 90
        8
176
     1
 62
     7
176
     1
 40
1.0
176
     1
 90
        1
176
     1
 90
        6
176
     1
 90
        2
176
     1
 62
     7
176
     1
 90
        5
176
     1
 90
        0
176
     1
 90
        0
176
     1
290
     0
176
     1
 90
        1
176
     1
 40
50.0
176
     1
 90
        0
176
     1
290
     0
176
     1
290
     1
176
     1
290
     1
176
     1
290
     0
176
     1
290
     0
176
     1
290
     0
176
     1
290
     0
176
     1
290
     0
176
     1
290
     0
176
     1
 90
       50
176
     1
 40
0.0
176
     1
 40
1.0
176
     1
 90
        0
176
     1
 62
    18
420
        0
176
     1
 90
       50
176
     1
 90
        3
176
     1
 62
     5
420
      255
176
     1
290
     0
176
     1
 90
       50
176
     1
 90
       50
176
     1
 90
       50
176
     1
290
     0
176
     1
 90
       50
176
     1
 62
   256
176
     0
 40
1.0
176
     0
 90
        2
176
     1
  1
strokes_ogs.tif
176
     1
290
     0
176
     1
 40
1.0
176
     1
 40
1.0
176
     1
  0
VISUALSTYLE
  5
2BD
102
{ACAD_REACTORS
330
2AD
102
}
330
2AD
100
AcDbVisualStyle
  2
ColorChange
 70
    16
177
     3
291
     1
 70
    58
 90
        2
176
     1
 90
        2
176
     1
 90
        3
176
     1
 90
        0
176
     1
 40
0.6
176
     1
 40
30.0
176
     1
 62
     8
420
  8421504
176
     1
 90
        1
176
     1
 90
        4
176
     1
 62
     7
176
     1
 62
   257
176
     1
 90
        1
176
     1
 90
        1
176
     1
 40
1.0
176
     1
 90
        8
176
     1
 62
     8
420
  8421504
176
     1
 40
1.0
176
     1
 90
        1
176
     1
 90
        6
176
     1
 90
        2
176
     1
 62
     7
176
     1
 90
        5
176
     1
 90
        0
176
     1
 90
        0
176
     1
290
     0
176
     1
 90
        1
176
     1
 40
0.0
176
     1
 90
        0
176
     1
290
     0
176
     1
290
     1
176
     1
290
     1
176
     1
290
     0
176
     1
290
     0
176
     1
290
     0
176
     1
290
     0
176
     1
290
     0
176
     1
290
     0
176
     1
 90
       50
176
     1
 40
0.0
176
     1
 40
1.0
176
     1
 90
        0
176
     1
 62
    18
420
        0
176
     1
 90
       50
176
     1
 90
        3
176
     1
 62
     5
420
      255
176
     1
290
     0
176
     1
 90
       50
176
     1
 90
       50
176
     1
 90
       50
176
     1
290
     0
176
     1
 90
       50
176
     1
 62
   256
176
     0
 40
1.0
176
     0
 90
        2
176
     1
  1
strokes_ogs.tif
176
     1
290
     0
176
     1
 40
1.0
176
     1
 40
1.0
176
     1
  0
VISUALSTYLE
  5
2B7
102
{ACAD_REACTORS
330
2AD
102
}
330
2AD
100
AcDbVisualStyle
  2
Conceptual
 70
     9
177
     3
291
     0
 70
    58
 90
        3
176
     1
 90
        2
176
     1
 90
        0
176
     1
 90
        0
176
     1
 40
0.6
176
     1
 40
30.0
176
     1
 62
     7
420
 16777215
176
     1
 90
        2
176
     1
 90
        2
176
     1
 62
     7
176
     1
 62
   257
176
     1
 90
        1
176
     1
 90
        1
176
     1
 40
179.0
176
     1
 90
        8
176
     1
 62
     7
176
     1
 40
1.0
176
     1
 90
        1
176
     1
 90
        6
176
     1
 90
        2
176
     1
 62
     7
176
     1
 90
        3
176
     1
 90
        0
176
     1
 90
        0
176
     1
290
     0
176
     1
 90
        1
176
     1
 40
0.0
176
     1
 90
        0
176
     1
290
     0
176
     1
290
     1
176
     1
290
     1
176
     1
290
     0
176
     1
290
     0
176
     1
290
     0
176
     1
290
     0
176
     1
290
     0
176
     1
290
     0
176
     1
 90
       50
176
     1
 40
0.0
176
     1
 40
1.0
176
     1
 90
        0
176
     1
 62
    18
420
        0
176
     1
 90
       50
176
     1
 90
        3
176
     1
 62
     5
420
      255
176
     1
290
     0
176
     1
 90
       50
176
     1
 90
       50
176
     1
 90
       50
176
     1
290
     0
176
     1
 90
       50
176
     1
 62
   256
176
     0
 40
1.0
176
     0
 90
        2
176
     1
  1
strokes_ogs.tif
176
     1
290
     0
176
     1
 40
1.0
176
     1
 40
1.0
176
     1
  0
VISUALSTYLE
  5
2B8
102
{ACAD_REACTORS
330
2AD
102
}
330
2AD
100
AcDbVisualStyle
  2
Dim
 70
    11
177
     3
291
     1
 70
    58
 90
        2
176
     1
 90
        2
176
     1
 90
        0
176
     1
 90
        0
176
     1
 40
0.6
176
     1
 40
30.0
176
     1
 62
     7
420
 16777215
176
     1
 90
        1
176
     1
 90
        4
176
     1
 62
     7
176
     1
 62
   257
176
     1
 90
        1
176
     1
 90
        1
176
     1
 40
1.0
176
     1
 90
        8
176
     1
 62
     7
176
     1
 40
1.0
176
     1
 90
        1
176
     1
 90
        6
176
     1
 90
        2
176
     1
 62
     7
176
     1
 90
        5
176
     1
 90
        0
176
     1
 90
        0
176
     1
290
     0
176
     1
 90
        1
176
     1
 40
-50.0
176
     1
 90
        0
176
     1
290
     0
176
     1
290
     1
176
     1
290
     1
176
     1
290
     0
176
     1
290
     0
176
     1
290
     0
176
     1
290
     0
176
     1
290
     0
176
     1
290
     0
176
     1
 90
       50
176
     1
 40
0.0
176
     1
 40
1.0
176
     1
 90
        0
176
     1
 62
    18
420
        0
176
     1
 90
       50
176
     1
 90
        3
176
     1
 62
     5
420
      255
176
     1
290
     0
176
     1
 90
       50
176
     1
 90
       50
176
     1
 90
       50
176
     1
290
     0
176
     1
 90
       50
176
     1
 62
   256
176
     0
 40
1.0
176
     0
 90
        2
176
     1
  1
strokes_ogs.tif
176
     1
290
     0
176
     1
 40
1.0
176
     1
 40
1.0
176
     1
  0
VISUALSTYLE
  5
2C0
102
{ACAD_REACTORS
330
2AD
102
}
330
2AD
100
AcDbVisualStyle
  2
EdgeColorOff
 70
    22
177
     3
291
     1
 70
    58
 90
        2
176
     0
 90
        2
176
     0
 90
        0
176
     0
 90
        0
176
     0
 40
0.6
176
     0
 40
30.0
176
     0
 62
     7
420
 16777215
176
     0
 90
        1
176
     0
 90
        4
176
     0
 62
     7
176
     0
 62
   257
176
     0
 90
        1
176
     0
 90
        1
176
     0
 40
1.0
176
     0
 90
        8
176
     2
 62
     7
176
     0
 40
1.0
176
     0
 90
        1
176
     0
 90
        6
176
     0
 90
        2
176
     0
 62
     7
176
     0
 90
        5
176
     0
 90
        0
176
     0
 90
        0
176
     0
290
     0
176
     0
 90
        1
176
     0
 40
0.0
176
     0
 90
        0
176
     0
290
     0
176
     0
290
     1
176
     0
290
     1
176
     0
290
     0
176
     0
290
     0
176
     0
290
     0
176
     0
290
     0
176
     0
290
     0
176
     0
290
     0
176
     0
 90
       50
176
     0
 40
0.0
176
     0
 40
1.0
176
     0
 90
        0
176
     0
 62
    18
420
        0
176
     0
 90
       50
176
     0
 90
        3
176
     0
 62
     5
420
      255
176
     0
290
     0
176
     0
 90
       50
176
     0
 90
       50
176
     0
 90
       50
176
     0
290
     0
176
     0
 90
       50
176
     0
 62
   256
176
     0
 40
1.0
176
     0
 90
        2
176
     0
  1
strokes_ogs.tif
176
     0
290
     0
176
     0
 40
1.0
176
     0
 40
1.0
176
     0
  0
VISUALSTYLE
  5
2BC
102
{ACAD_REACTORS
330
2AD
102
}
330
2AD
100
AcDbVisualStyle
  2
Facepattern
 70
    15
177
     3
291
     1
 70
    58
 90
        2
176
     1
 90
        2
176
     1
 90
        0
176
     1
 90
        0
176
     1
 40
0.6
176
     1
 40
30.0
176
     1
 62
     7
420
 16777215
176
     1
 90
        1
176
     1
 90
        4
176
     1
 62
     7
176
     1
 62
   257
176
     1
 90
        1
176
     1
 90
        1
176
     1
 40
1.0
176
     1
 90
        8
176
     1
 62
     7
176
     1
 40
1.0
176
     1
 90
        1
176
     1
 90
        6
176
     1
 90
        2
176
     1
 62
     7
176
     1
 90
        5
176
     1
 90
        0
176
     1
 90
        0
176
     1
290
     0
176
     1
 90
        1
176
     1
 40
0.0
176
     1
 90
        0
176
     1
290
     0
176
     1
290
     1
176
     1
290
     1
176
     1
290
     0
176
     1
290
     0
176
     1
290
     0
176
     1
290
     0
176
     1
290
     0
176
     1
290
     0
176
     1
 90
       50
176
     1
 40
0.0
176
     1
 40
1.0
176
     1
 90
        0
176
     1
 62
    18
420
        0
176
     1
 90
       50
176
     1
 90
        3
176
     1
 62
     5
420
      255
176
     1
290
     0
176
     1
 90
       50
176
     1
 90
       50
176
     1
 90
       50
176
     1
290
     0
176
     1
 90
       50
176
     1
 62
   256
176
     0
 40
1.0
176
     0
 90
        2
176
     1
  1
strokes_ogs.tif
176
     1
290
     0
176
     1
 40
1.0
176
     1
 40
1.0
176
     1
  0
VISUALSTYLE
  5
2AE
102
{ACAD_REACTORS
330
2AD
102
}
330
2AD
100
AcDbVisualStyle
  2
Flat
 70
     0
177
     3
291
     1
 70
    58
 90
        2
176
     1
 90
        1
176
     1
 90
        1
176
     1
 90
        2
176
     1
 40
0.6
176
     1
 40
30.0
176
     1
 62
     7
420
 16777215
176
     1
 90
        0
176
     1
 90
        0
176
     1
 62
     7
176
     1
 62
   257
176
     1
 90
        1
176
     1
 90
        1
176
     1
 40
1.0
176
     1
 90
        8
176
     1
 62
     7
176
     1
 40
1.0
176
     1
 90
        1
176
     1
 90
        6
176
     1
 90
        2
176
     1
 62
     7
176
     1
 90
        5
176
     1
 90
        0
176
     1
 90
        0
176
     1
290
     0
176
     1
 90
       13
176
     1
 40
0.0
176
     1
 90
        0
176
     1
290
     0
176
     1
290
     1
176
     1
290
     1
176
     1
290
     0
176
     1
290
     0
176
     1
290
     0
176
     1
290
     0
176
     1
290
     0
176
     1
290
     0
176
     1
 90
       50
176
     1
 40
0.0
176
     1
 40
1.0
176
     1
 90
        0
176
     1
 62
    18
420
        0
176
     1
 90
       50
176
     1
 90
        3
176
     1
 62
     5
420
      255
176
     1
290
     0
176
     1
 90
       50
176
     1
 90
       50
176
     1
 90
       50
176
     1
290
     0
176
     1
 90
       50
176
     1
 62
   256
176
     0
 40
1.0
176
     0
 90
        2
176
     1
  1
strokes_ogs.tif
176
     1
290
     0
176
     1
 40
1.0
176
     1
 40
1.0
176
     1
  0
VISUALSTYLE
  5
2AF
102
{ACAD_REACTORS
330
2AD
102
}
330
2AD
100
AcDbVisualStyle
  2
FlatWithEdges
 70
     1
177
     3
291
     1
 70
    58
 90
        2
176
     1
 90
        1
176
     1
 90
        1
176
     1
 90
        2
176
     1
 40
0.6
176
     1
 40
30.0
176
     1
 62
     7
420
 16777215
176
     1
 90
        1
176
     1
 90
        0
176
     1
 62
     7
176
     1
 62
   257
176
     1
 90
        1
176
     1
 90
        1
176
     1
 40
1.0
176
     1
 90
        0
176
     1
 62
   257
176
     1
 40
1.0
176
     1
 90
        1
176
     1
 90
        6
176
     1
 90
        2
176
     1
 62
     7
176
     1
 90
        5
176
     1
 90
        0
176
     1
 90
        0
176
     1
290
     0
176
     1
 90
       13
176
     1
 40
0.0
176
     1
 90
        0
176
     1
290
     0
176
     1
290
     1
176
     1
290
     1
176
     1
290
     0
176
     1
290
     0
176
     1
290
     0
176
     1
290
     0
176
     1
290
     0
176
     1
290
     0
176
     1
 90
       50
176
     1
 40
0.0
176
     1
 40
1.0
176
     1
 90
        0
176
     1
 62
    18
420
        0
176
     1
 90
       50
176
     1
 90
        3
176
     1
 62
     5
420
      255
176
     1
290
     0
176
     1
 90
       50
176
     1
 90
       50
176
     1
 90
       50
176
     1
290
     0
176
     1
 90
       50
176
     1
 62
   256
176
     0
 40
1.0
176
     0
 90
        2
176
     1
  1
strokes_ogs.tif
176
     1
290
     0
176
     1
 40
1.0
176
     1
 40
1.0
176
     1
  0
VISUALSTYLE
  5
2B0
102
{ACAD_REACTORS
330
2AD
102
}
330
2AD
100
AcDbVisualStyle
  2
Gouraud
 70
     2
177
     3
291
     1
 70
    58
 90
        2
176
     1
 90
        2
176
     1
 90
        1
176
     1
 90
        2
176
     1
 40
0.6
176
     1
 40
30.0
176
     1
 62
     7
420
 16777215
176
     1
 90
        0
176
     1
 90
        0
176
     1
 62
     7
176
     1
 62
   257
176
     1
 90
        1
176
     1
 90
        1
176
     1
 40
1.0
176
     1
 90
        0
176
     1
 62
     7
176
     1
 40
1.0
176
     1
 90
        1
176
     1
 90
        6
176
     1
 90
        2
176
     1
 62
     7
176
     1
 90
        5
176
     1
 90
        0
176
     1
 90
        0
176
     1
290
     0
176
     1
 90
       13
176
     1
 40
0.0
176
     1
 90
        0
176
     1
290
     0
176
     1
290
     1
176
     1
290
     1
176
     1
290
     0
176
     1
290
     0
176
     1
290
     0
176
     1
290
     0
176
     1
290
     0
176
     1
290
     0
176
     1
 90
       50
176
     1
 40
0.0
176
     1
 40
1.0
176
     1
 90
        0
176
     1
 62
    18
420
        0
176
     1
 90
       50
176
     1
 90
        3
176
     1
 62
     5
420
      255
176
     1
290
     0
176
     1
 90
       50
176
     1
 90
       50
176
     1
 90
       50
176
     1
290
     0
176
     1
 90
       50
176
     1
 62
   256
176
     0
 40
1.0
176
     0
 90
        2
176
     1
  1
strokes_ogs.tif
176
     1
290
     0
176
     1
 40
1.0
176
     1
 40
1.0
176
     1
  0
VISUALSTYLE
  5
2B1
102
{ACAD_REACTORS
330
2AD
102
}
330
2AD
100
AcDbVisualStyle
  2
GouraudWithEdges
 70
     3
177
     3
291
     1
 70
    58
 90
        2
176
     1
 90
        2
176
     1
 90
        1
176
     1
 90
        2
176
     1
 40
0.6
176
     1
 40
30.0
176
     1
 62
     7
420
 16777215
176
     1
 90
        1
176
     1
 90
        0
176
     1
 62
     7
176
     1
 62
   257
176
     1
 90
        1
176
     1
 90
        1
176
     1
 40
1.0
176
     1
 90
        0
176
     1
 62
   257
176
     1
 40
1.0
176
     1
 90
        1
176
     1
 90
        6
176
     1
 90
        2
176
     1
 62
     7
176
     1
 90
        5
176
     1
 90
        0
176
     1
 90
        0
176
     1
290
     0
176
     1
 90
       13
176
     1
 40
0.0
176
     1
 90
        0
176
     1
290
     0
176
     1
290
     1
176
     1
290
     1
176
     1
290
     0
176
     1
290
     0
176
     1
290
     0
176
     1
290
     0
176
     1
290
     0
176
     1
290
     0
176
     1
 90
       50
176
     1
 40
0.0
176
     1
 40
1.0
176
     1
 90
        0
176
     1
 62
    18
420
        0
176
     1
 90
       50
176
     1
 90
        3
176
     1
 62
     5
420
      255
176
     1
290
     0
176
     1
 90
       50
176
     1
 90
       50
176
     1
 90
       50
176
     1
290
     0
176
     1
 90
       50
176
     1
 62
   256
176
     0
 40
1.0
176
     0
 90
        2
176
     1
  1
strokes_ogs.tif
176
     1
290
     0
176
     1
 40
1.0
176
     1
 40
1.0
176
     1
  0
VISUALSTYLE
  5
2B4
102
{ACAD_REACTORS
330
2AD
102
}
330
2AD
100
AcDbVisualStyle
  2
Hidden
 70
     6
177
     3
291
     0
 70
    58
 90
        1
176
     1
 90
        2
176
     1
 90
        2
176
     1
 90
        0
176
     1
 40
0.6
176
     1
 40
30.0
176
     1
 62
     7
420
 16777215
176
     1
 90
        2
176
     1
 90
        2
176
     1
 62
     7
176
     1
 62
   257
176
     1
 90
        2
176
     1
 90
        1
176
     1
 40
40.0
176
     1
 90
        0
176
     1
 62
   257
176
     1
 40
1.0
176
     1
 90
        1
176
     1
 90
        6
176
     1
 90
        2
176
     1
 62
     7
176
     1
 90
        3
176
     1
 90
        0
176
     1
 90
        0
176
     1
290
     0
176
     1
 90
        1
176
     1
 40
0.0
176
     1
 90
        0
176
     1
290
     0
176
     1
290
     1
176
     1
290
     1
176
     1
290
     0
176
     1
290
     0
176
     1
290
     0
176
     1
290
     0
176
     1
290
     0
176
     1
290
     0
176
     1
 90
       50
176
     1
 40
0.0
176
     1
 40
1.0
176
     1
 90
        0
176
     1
 62
    18
420
        0
176
     1
 90
       50
176
     1
 90
        3
176
     1
 62
     5
420
      255
176
     1
290
     0
176
     1
 90
       50
176
     1
 90
       50
176
     1
 90
       50
176
     1
290
     0
176
     1
 90
       50
176
     1
 62
   256
176
     0
 40
1.0
176
     0
 90
        2
176
     1
  1
strokes_ogs.tif
176
     1
290
     0
176
     1
 40
1.0
176
     1
 40
1.0
176
     1
  0
VISUALSTYLE
  5
2BE
102
{ACAD_REACTORS
330
2AD
102
}
330
2AD
100
AcDbVisualStyle
  2
JitterOff
 70
    20
177
     3
291
     1
 70
    58
 90
        2
176
     0
 90
        2
176
     0
 90
        0
176
     0
 90
        0
176
     0
 40
0.6
176
     0
 40
30.0
176
     0
 62
     7
420
 16777215
176
     0
 90
        1
176
     0
 90
        4
176
     0
 62
     7
176
     0
 62
   257
176
     0
 90
        1
176
     0
 90
        1
176
     0
 40
1.0
176
     0
 90
       10
176
     2
 62
     7
176
     0
 40
1.0
176
     0
 90
        1
176
     0
 90
        6
176
     0
 90
        2
176
     0
 62
     7
176
     0
 90
        5
176
     0
 90
        0
176
     0
 90
        0
176
     0
290
     0
176
     0
 90
        1
176
     0
 40
0.0
176
     0
 90
        0
176
     0
290
     0
176
     0
290
     1
176
     0
290
     1
176
     0
290
     0
176
     0
290
     0
176
     0
290
     0
176
     0
290
     0
176
     0
290
     0
176
     0
290
     0
176
     0
 90
       50
176
     0
 40
0.0
176
     0
 40
1.0
176
     0
 90
        0
176
     0
 62
    18
420
        0
176
     0
 90
       50
176
     0
 90
        3
176
     0
 62
     5
420
      255
176
     0
290
     0
176
     0
 90
       50
176
     0
 90
       50
176
     0
 90
       50
176
     0
290
     0
176
     0
 90
       50
176
     0
 62
   256
176
     0
 40
1.0
176
     0
 90
        2
176
     0
  1
strokes_ogs.tif
176
     0
290
     0
176
     0
 40
1.0
176
     0
 40
1.0
176
     0
  0
VISUALSTYLE
  5
2BB
102
{ACAD_REACTORS
330
2AD
102
}
330
2AD
100
AcDbVisualStyle
  2
Linepattern
 70
    14
177
     3
291
     1
 70
    58
 90
        2
176
     1
 90
        2
176
     1
 90
        0
176
     1
 90
        0
176
     1
 40
0.6
176
     1
 40
30.0
176
     1
 62
     7
420
 16777215
176
     1
 90
        1
176
     1
 90
        4
176
     1
 62
     7
176
     1
 62
   257
176
     1
 90
        7
176
     1
 90
        7
176
     1
 40
1.0
176
     1
 90
        8
176
     1
 62
     7
176
     1
 40
1.0
176
     1
 90
        1
176
     1
 90
        6
176
     1
 90
        2
176
     1
 62
     7
176
     1
 90
        5
176
     1
 90
        0
176
     1
 90
        0
176
     1
290
     0
176
     1
 90
        1
176
     1
 40
0.0
176
     1
 90
        0
176
     1
290
     0
176
     1
290
     1
176
     1
290
     1
176
     1
290
     0
176
     1
290
     0
176
     1
290
     0
176
     1
290
     0
176
     1
290
     0
176
     1
290
     0
176
     1
 90
       50
176
     1
 40
0.0
176
     1
 40
1.0
176
     1
 90
        0
176
     1
 62
    18
420
        0
176
     1
 90
       50
176
     1
 90
        3
176
     1
 62
     5
420
      255
176
     1
290
     0
176
     1
 90
       50
176
     1
 90
       50
176
     1
 90
       50
176
     1
290
     0
176
     1
 90
       50
176
     1
 62
   256
176
     0
 40
1.0
176
     0
 90
        2
176
     1
  1
strokes_ogs.tif
176
     1
290
     0
176
     1
 40
1.0
176
     1
 40
1.0
176
     1
  0
VISUALSTYLE
  5
2BF
102
{ACAD_REACTORS
330
2AD
102
}
330
2AD
100
AcDbVisualStyle
  2
OverhangOff
 70
    21
177
     3
291
     1
 70
    58
 90
        2
176
     0
 90
        2
176
     0
 90
        0
176
     0
 90
        0
176
     0
 40
0.6
176
     0
 40
30.0
176
     0
 62
     7
420
 16777215
176
     0
 90
        1
176
     0
 90
        4
176
     0
 62
     7
176
     0
 62
   257
176
     0
 90
        1
176
     0
 90
        1
176
     0
 40
1.0
176
     0
 90
        9
176
     2
 62
     7
176
     0
 40
1.0
176
     0
 90
        1
176
     0
 90
        6
176
     0
 90
        2
176
     0
 62
     7
176
     0
 90
        5
176
     0
 90
        0
176
     0
 90
        0
176
     0
290
     0
176
     0
 90
        1
176
     0
 40
0.0
176
     0
 90
        0
176
     0
290
     0
176
     0
290
     1
176
     0
290
     1
176
     0
290
     0
176
     0
290
     0
176
     0
290
     0
176
     0
290
     0
176
     0
290
     0
176
     0
290
     0
176
     0
 90
       50
176
     0
 40
0.0
176
     0
 40
1.0
176
     0
 90
        0
176
     0
 62
    18
420
        0
176
     0
 90
       50
176
     0
 90
        3
176
     0
 62
     5
420
      255
176
     0
290
     0
176
     0
 90
       50
176
     0
 90
       50
176
     0
 90
       50
176
     0
290
     0
176
     0
 90
       50
176
     0
 62
   256
176
     0
 40
1.0
176
     0
 90
        2
176
     0
  1
strokes_ogs.tif
176
     0
290
     0
176
     0
 40
1.0
176
     0
 40
1.0
176
     0
  0
VISUALSTYLE
  5
2B6
102
{ACAD_REACTORS
330
2AD
102
}
330
2AD
100
AcDbVisualStyle
  2
Realistic
 70
     8
177
     3
291
     0
 70
    58
 90
        2
176
     1
 90
        3
176
     1
 90
        0
176
     1
 90
        2
176
     1
 40
0.6
176
     1
 40
30.0
176
     1
 62
     7
420
 16777215
176
     1
 90
        0
176
     1
 90
        0
176
     1
 62
     7
176
     1
 62
   257
176
     1
 90
        1
176
     1
 90
        1
176
     1
 40
1.0
176
     1
 90
        8
176
     1
 62
   257
176
     1
 40
1.0
176
     1
 90
        1
176
     1
 90
        6
176
     1
 90
        2
176
     1
 62
     7
176
     1
 90
        3
176
     1
 90
        0
176
     1
 90
        0
176
     1
290
     0
176
     1
 90
       13
176
     1
 40
0.0
176
     1
 90
        0
176
     1
290
     0
176
     1
290
     1
176
     1
290
     1
176
     1
290
     0
176
     1
290
     0
176
     1
290
     0
176
     1
290
     0
176
     1
290
     0
176
     1
290
     0
176
     1
 90
       50
176
     1
 40
0.0
176
     1
 40
1.0
176
     1
 90
        0
176
     1
 62
    18
420
        0
176
     1
 90
       50
176
     1
 90
        3
176
     1
 62
     5
420
      255
176
     1
290
     0
176
     1
 90
       50
176
     1
 90
       50
176
     1
 90
       50
176
     1
290
     0
176
     1
 90
       50
176
     1
 62
   256
176
     0
 40
1.0
176
     0
 90
        2
176
     1
  1
strokes_ogs.tif
176
     1
290
     0
176
     1
 40
1.0
176
     1
 40
1.0
176
     1
  0
VISUALSTYLE
  5
2C5
102
{ACAD_REACTORS
330
2AD
102
}
330
2AD
100
AcDbVisualStyle
  2
Shaded
 70
    27
177
     3
291
     0
 70
    58
 90
        2
176
     1
 90
        2
176
     1
 90
        1
176
     1
 90
        2
176
     1
 40
0.6
176
     1
 40
30.0
176
     1
 62
     7
420
 16777215
176
     1
 90
        0
176
     1
 90
        4
176
     1
 62
     7
176
     1
 62
   257
176
     1
 90
        1
176
     1
 90
        1
176
     1
 40
1.0
176
     1
 90
        8
176
     1
 62
   257
176
     1
 40
1.0
176
     1
 90
        1
176
     1
 90
        6
176
     1
 90
        2
176
     1
 62
     8
420
  7895160
176
     1
 90
        3
176
     1
 90
        0
176
     1
 90
        0
176
     1
290
     0
176
     1
 90
        5
176
     1
 40
0.0
176
     1
 90
        0
176
     1
290
     0
176
     1
290
     1
176
     1
290
     1
176
     1
290
     0
176
     1
290
     0
176
     1
290
     0
176
     1
290
     0
176
     1
290
     0
176
     1
290
     0
176
     1
 90
       50
176
     1
 40
0.0
176
     1
 40
1.0
176
     1
 90
        0
176
     1
 62
    18
420
        0
176
     1
 90
       50
176
     1
 90
        3
176
     1
 62
     5
420
      255
176
     1
290
     0
176
     1
 90
       50
176
     1
 90
       50
176
     1
 90
       50
176
     1
290
     0
176
     1
 90
       50
176
     1
 62
   256
176
     0
 40
1.0
176
     0
 90
        2
176
     1
  1
strokes_ogs.tif
176
     1
290
     0
176
     1
 40
1.0
176
     1
 40
1.0
176
     1
  0
VISUALSTYLE
  5
2C4
102
{ACAD_REACTORS
330
2AD
102
}
330
2AD
100
AcDbVisualStyle
  2
Shaded with edges
 70
    26
177
     3
291
     0
 70
    58
 90
        2
176
     1
 90
        2
176
     1
 90
        1
176
     1
 90
        2
176
     1
 40
0.6
176
     1
 40
30.0
176
     1
 62
     7
420
 16777215
176
     1
 90
        1
176
     1
 90
       10
176
     1
 62
     7
176
     1
 62
   257
176
     1
 90
        2
176
     1
 90
        1
176
     1
 40
1.0
176
     1
 90
        8
176
     1
 62
   257
176
     1
 40
1.0
176
     1
 90
        1
176
     1
 90
        6
176
     1
 90
        2
176
     1
 62
     7
176
     1
 90
        3
176
     1
 90
        0
176
     1
 90
        0
176
     1
290
     0
176
     1
 90
        5
176
     1
 40
0.0
176
     1
 90
        0
176
     1
290
     0
176
     1
290
     1
176
     1
290
     1
176
     1
290
     0
176
     1
290
     0
176
     1
290
     0
176
     1
290
     0
176
     1
290
     0
176
     1
290
     0
176
     1
 90
       50
176
     1
 40
0.0
176
     1
 40
1.0
176
     1
 90
        0
176
     1
 62
    18
420
        0
176
     1
 90
       50
176
     1
 90
        3
176
     1
 62
     5
420
      255
176
     1
290
     0
176
     1
 90
       50
176
     1
 90
       50
176
     1
 90
       50
176
     1
290
     0
176
     1
 90
       50
176
     1
 62
   256
176
     0
 40
1.0
176
     0
 90
        2
176
     1
  1
strokes_ogs.tif
176
     1
290
     0
176
     1
 40
1.0
176
     1
 40
1.0
176
     1
  0
VISUALSTYLE
  5
2C1
102
{ACAD_REACTORS
330
2AD
102
}
330
2AD
100
AcDbVisualStyle
  2
Shades of Gray
 70
    23
177
     3
291
     0
 70
    58
 90
        2
176
     1
 90
        2
176
     1
 90
        3
176
     1
 90
        0
176
     1
 40
0.6
176
     1
 40
30.0
176
     1
 62
     7
420
 16777215
176
     1
 90
        2
176
     1
 90
        2
176
     1
 62
     7
176
     1
 62
     7
176
     1
 90
        1
176
     1
 90
        1
176
     1
 40
40.0
176
     1
 90
        8
176
     1
 62
     7
176
     1
 40
1.0
176
     1
 90
        1
176
     1
 90
        6
176
     1
 90
        2
176
     1
 62
     7
176
     1
 90
        3
176
     1
 90
        0
176
     1
 90
        0
176
     1
290
     0
176
     1
 90
        1
176
     1
 40
0.0
176
     1
 90
        0
176
     1
290
     0
176
     1
290
     1
176
     1
290
     1
176
     1
290
     0
176
     1
290
     0
176
     1
290
     0
176
     1
290
     0
176
     1
290
     0
176
     1
290
     0
176
     1
 90
       50
176
     1
 40
0.0
176
     1
 40
1.0
176
     1
 90
        0
176
     1
 62
    18
420
        0
176
     1
 90
       50
176
     1
 90
        3
176
     1
 62
     5
420
      255
176
     1
290
     0
176
     1
 90
       50
176
     1
 90
       50
176
     1
 90
       50
176
     1
290
     0
176
     1
 90
       50
176
     1
 62
   256
176
     0
 40
1.0
176
     0
 90
        2
176
     1
  1
strokes_ogs.tif
176
     1
290
     0
176
     1
 40
1.0
176
     1
 40
1.0
176
     1
  0
VISUALSTYLE
  5
2C2
102
{ACAD_REACTORS
330
2AD
102
}
330
2AD
100
AcDbVisualStyle
  2
Sketchy
 70
    24
177
     3
291
     0
 70
    58
 90
        1
176
     1
 90
        2
176
     1
 90
        2
176
     1
 90
        0
176
     1
 40
0.6
176
     1
 40
30.0
176
     1
 62
     7
420
 16777215
176
     1
 90
        2
176
     1
 90
        2
176
     1
 62
     7
176
     1
 62
     7
176
     1
 90
        1
176
     1
 90
        1
176
     1
 40
40.0
176
     1
 90
       11
176
     1
 62
     7
176
     1
 40
1.0
176
     1
 90
        1
176
     1
 90
        6
176
     1
 90
        2
176
     1
 62
     7
176
     1
 90
        6
176
     1
 90
        0
176
     1
 90
        0
176
     1
290
     0
176
     1
 90
        1
176
     1
 40
0.0
176
     1
 90
        0
176
     1
290
     0
176
     1
290
     1
176
     1
290
     1
176
     1
290
     0
176
     1
290
     0
176
     1
290
     0
176
     1
290
     0
176
     1
290
     0
176
     1
290
     0
176
     1
 90
       50
176
     1
 40
0.0
176
     1
 40
1.0
176
     1
 90
        0
176
     1
 62
    18
420
        0
176
     1
 90
       50
176
     1
 90
        3
176
     1
 62
     5
420
      255
176
     1
290
     0
176
     1
 90
       50
176
     1
 90
       50
176
     1
 90
       50
176
     1
290
     0
176
     1
 90
       50
176
     1
 62
   256
176
     0
 40
1.0
176
     0
 90
        2
176
     1
  1
strokes_ogs.tif
176
     1
290
     0
176
     1
 40
1.0
176
     1
 40
1.0
176
     1
  0
VISUALSTYLE
  5
2BA
102
{ACAD_REACTORS
330
2AD
102
}
330
2AD
100
AcDbVisualStyle
  2
Thicken
 70
    13
177
     3
291
     1
 70
    58
 90
        2
176
     1
 90
        2
176
     1
 90
        0
176
     1
 90
        0
176
     1
 40
0.6
176
     1
 40
30.0
176
     1
 62
     7
420
 16777215
176
     1
 90
        1
176
     1
 90
        4
176
     1
 62
     7
176
     1
 62
   257
176
     1
 90
        1
176
     1
 90
        1
176
     1
 40
1.0
176
     1
 90
       12
176
     1
 62
     7
176
     1
 40
1.0
176
     1
 90
        1
176
     1
 90
        6
176
     1
 90
        2
176
     1
 62
     7
176
     1
 90
        5
176
     1
 90
        0
176
     1
 90
        0
176
     1
290
     0
176
     1
 90
        1
176
     1
 40
0.0
176
     1
 90
        0
176
     1
290
     0
176
     1
290
     1
176
     1
290
     1
176
     1
290
     0
176
     1
290
     0
176
     1
290
     0
176
     1
290
     0
176
     1
290
     0
176
     1
290
     0
176
     1
 90
       50
176
     1
 40
0.0
176
     1
 40
1.0
176
     1
 90
        0
176
     1
 62
    18
420
        0
176
     1
 90
       50
176
     1
 90
        3
176
     1
 62
     5
420
      255
176
     1
290
     0
176
     1
 90
       50
176
     1
 90
       50
176
     1
 90
       50
176
     1
290
     0
176
     1
 90
       50
176
     1
 62
   256
176
     0
 40
1.0
176
     0
 90
        2
176
     1
  1
strokes_ogs.tif
176
     1
290
     0
176
     1
 40
1.0
176
     1
 40
1.0
176
     1
  0
VISUALSTYLE
  5
2B3
102
{ACAD_REACTORS
330
2AD
102
}
330
2AD
100
AcDbVisualStyle
  2
Wireframe
 70
     5
177
     3
291
     0
 70
    58
 90
        0
176
     1
 90
        2
176
     1
 90
        0
176
     1
 90
        0
176
     1
 40
0.6
176
     1
 40
30.0
176
     1
 62
     7
420
 16777215
176
     1
 90
        1
176
     1
 90
        4
176
     1
 62
     7
176
     1
 62
   257
176
     1
 90
        1
176
     1
 90
        1
176
     1
 40
1.0
176
     1
 90
        0
176
     1
 62
   257
176
     1
 40
1.0
176
     1
 90
        1
176
     1
 90
        6
176
     1
 90
        2
176
     1
 62
     7
176
     1
 90
        3
176
     1
 90
        0
176
     1
 90
        0
176
     1
290
     0
176
     1
 90
        1
176
     1
 40
0.0
176
     1
 90
        0
176
     1
290
     0
176
     1
290
     1
176
     1
290
     1
176
     1
290
     0
176
     1
290
     0
176
     1
290
     0
176
     1
290
     0
176
     1
290
     0
176
     1
290
     0
176
     1
 90
       50
176
     1
 40
0.0
176
     1
 40
1.0
176
     1
 90
        0
176
     1
 62
    18
420
        0
176
     1
 90
       50
176
     1
 90
        3
176
     1
 62
     5
420
      255
176
     1
290
     0
176
     1
 90
       50
176
     1
 90
       50
176
     1
 90
       50
176
     1
290
     0
176
     1
 90
       50
176
     1
 62
   256
176
     0
 40
1.0
176
     0
 90
        2
176
     1
  1
strokes_ogs.tif
176
     1
290
     0
176
     1
 40
1.0
176
     1
 40
1.0
176
     1
  0
VISUALSTYLE
  5
2C3
102
{ACAD_REACTORS
330
2AD
102
}
330
2AD
100
AcDbVisualStyle
  2
X-Ray
 70
    25
177
     3
291
     0
 70
    58
 90
        2
176
     1
 90
        2
176
     1
 90
        1
176
     1
 90
        1
176
     1
 40
0.5
176
     1
 40
30.0
176
     1
 62
     7
420
 16777215
176
     1
 90
        1
176
     1
 90
        0
176
     1
 62
     7
176
     1
 62
   257
176
     1
 90
        1
176
     1
 90
        1
176
     1
 40
1.0
176
     1
 90
        8
176
     1
 62
     7
176
     1
 40
1.0
176
     1
 90
        1
176
     1
 90
        6
176
     1
 90
        2
176
     1
 62
     7
176
     1
 90
        3
176
     1
 90
        0
176
     1
 90
        0
176
     1
290
     0
176
     1
 90
       13
176
     1
 40
0.0
176
     1
 90
        0
176
     1
290
     0
176
     1
290
     1
176
     1
290
     1
176
     1
290
     0
176
     1
290
     0
176
     1
290
     0
176
     1
290
     0
176
     1
290
     0
176
     1
290
     0
176
     1
 90
       50
176
     1
 40
0.0
176
     1
 40
1.0
176
     1
 90
        0
176
     1
 62
    18
420
        0
176
     1
 90
       50
176
     1
 90
        3
176
     1
 62
     5
420
      255
176
     1
290
     0
176
     1
 90
       50
176
     1
 90
       50
176
     1
 90
       50
176
     1
290
     0
176
     1
 90
       50
176
     1
 62
   256
176
     0
 40
1.0
176
     0
 90
        2
176
     1
  1
strokes_ogs.tif
176
     1
290
     0
176
     1
 40
1.0
176
     1
 40
1.0
176
     1
  0
DICTIONARYVAR
  5
342
102
{ACAD_REACTORS
330
341
102
}
330
341
100
DictionaryVariables
280
     0
  1
1:1
  0
XRECORD
  5
2EF
102
{ACAD_REACTORS
330
2EE
102
}
330
2EE
100
AcDbXrecord
280
     1
290
     1
  0
XRECORD
  5
2F0
102
{ACAD_REACTORS
330
2EE
102
}
330
2EE
100
AcDbXrecord
280
     1
290
     1
  0
XRECORD
  5
2F1
102
{ACAD_REACTORS
330
2EE
102
}
330
2EE
100
AcDbXrecord
280
     1
290
     1
  0
XRECORD
  5
2F2
102
{ACAD_REACTORS
330
2EE
102
}
330
2EE
100
AcDbXrecord
280
     1
290
     1
  0
XRECORD
  5
2F3
102
{ACAD_REACTORS
330
2EE
102
}
330
2EE
100
AcDbXrecord
280
     1
1000
auto
  0
XRECORD
  5
2F4
102
{ACAD_REACTORS
330
2EE
102
}
330
2EE
100
AcDbXrecord
280
     1
1000
auto
  0
XRECORD
  5
2F5
102
{ACAD_REACTORS
330
2EE
102
}
330
2EE
100
AcDbXrecord
280
     1
1000
auto
  0
XRECORD
  5
2F6
102
{ACAD_REACTORS
330
2EE
102
}
330
2EE
100
AcDbXrecord
280
     1
1000
auto
  0
XRECORD
  5
2F7
102
{ACAD_REACTORS
330
2EE
102
}
330
2EE
100
AcDbXrecord
280
     1
1000
auto
  0
XRECORD
  5
2F8
102
{ACAD_REACTORS
330
2EE
102
}
330
2EE
100
AcDbXrecord
280
     1
1000
auto
  0
XRECORD
  5
2F9
102
{ACAD_REACTORS
330
2EE
102
}
330
2EE
100
AcDbXrecord
280
     1
1000
auto
  0
XRECORD
  5
2FA
102
{ACAD_REACTORS
330
2EE
102
}
330
2EE
100
AcDbXrecord
280
     1
1000
auto
  0
XRECORD
  5
2FB
102
{ACAD_REACTORS
330
2EE
102
}
330
2EE
100
AcDbXrecord
280
     1
290
     0
  0
XRECORD
  5
2FC
102
{ACAD_REACTORS
330
2EE
102
}
330
2EE
100
AcDbXrecord
280
     1
290
     0
  0
XRECORD
  5
2FD
102
{ACAD_REACTORS
330
2EE
102
}
330
2EE
100
AcDbXrecord
280
     1
290
     0
  0
XRECORD
  5
2FE
102
{ACAD_REACTORS
330
2EE
102
}
330
2EE
100
AcDbXrecord
280
     1
290
     0
  0
XRECORD
  5
2FF
102
{ACAD_REACTORS
330
2EE
102
}
330
2EE
100
AcDbXrecord
280
     1
 90
        0
  0
XRECORD
  5
300
102
{ACAD_REACTORS
330
2EE
102
}
330
2EE
100
AcDbXrecord
280
     1
 90
        0
  0
XRECORD
  5
301
102
{ACAD_REACTORS
330
2EE
102
}
330
2EE
100
AcDbXrecord
280
     1
 90
        0
  0
XRECORD
  5
302
102
{ACAD_REACTORS
330
2EE
102
}
330
2EE
100
AcDbXrecord
280
     1
 90
        0
  0
XRECORD
  5
303
102
{ACAD_REACTORS
330
2EE
102
}
330
2EE
100
AcDbXrecord
280
     1
1000
auto
  0
XRECORD
  5
304
102
{ACAD_REACTORS
330
2EE
102
}
330
2EE
100
AcDbXrecord
280
     1
1000
auto
  0
XRECORD
  5
305
102
{ACAD_REACTORS
330
2EE
102
}
330
2EE
100
AcDbXrecord
280
     1
1000
auto
  0
XRECORD
  5
306
102
{ACAD_REACTORS
330
2EE
102
}
330
2EE
100
AcDbXrecord
280
     1
1000
auto
  0
XRECORD
  5
307
102
{ACAD_REACTORS
330
2EE
102
}
330
2EE
100
AcDbXrecord
280
     1
1000
auto
  0
XRECORD
  5
308
102
{ACAD_REACTORS
330
2EE
102
}
330
2EE
100
AcDbXrecord
280
     1
1000
auto
  0
XRECORD
  5
309
102
{ACAD_REACTORS
330
2EE
102
}
330
2EE
100
AcDbXrecord
280
     1
1000
auto
  0
XRECORD
  5
30A
102
{ACAD_REACTORS
330
2EE
102
}
330
2EE
100
AcDbXrecord
280
     1
1000
auto
  0
XRECORD
  5
30B
102
{ACAD_REACTORS
330
2EE
102
}
330
2EE
100
AcDbXrecord
280
     1
 90
        1
  0
XRECORD
  5
30C
102
{ACAD_REACTORS
330
2EE
102
}
330
2EE
100
AcDbXrecord
280
     1
 40
10.0
  0
XRECORD
  5
30D
102
{ACAD_REACTORS
330
2EE
102
}
330
2EE
100
AcDbXrecord
280
     1
 40
10.0
  0
XRECORD
  5
30E
102
{ACAD_REACTORS
330
2EE
102
}
330
2EE
100
AcDbXrecord
280
     1
 40
10.0
  0
XRECORD
  5
30F
102
{ACAD_REACTORS
330
2EE
102
}
330
2EE
100
AcDbXrecord
280
     1
 40
10.0
  0
XRECORD
  5
310
102
{ACAD_REACTORS
330
2EE
102
}
330
2EE
100
AcDbXrecord
280
     1
290
     0
  0
XRECORD
  5
311
102
{ACAD_REACTORS
330
2EE
102
}
330
2EE
100
AcDbXrecord
280
     1
 90
        1
  0
XRECORD
  5
312
102
{ACAD_REACTORS
330
2EE
102
}
330
2EE
100
AcDbXrecord
280
     1
 40
-102.1206527999999
  0
XRECORD
  5
313
102
{ACAD_REACTORS
330
2EE
102
}
330
2EE
100
AcDbXrecord
280
     1
 40
-225.1431936
  0
XRECORD
  5
314
102
{ACAD_REACTORS
330
2EE
102
}
330
2EE
100
AcDbXrecord
280
     1
1000
Portrait
  0
XRECORD
  5
315
102
{ACAD_REACTORS
330
2EE
102
}
330
2EE
100
AcDbXrecord
280
     1
 40
297.0
  0
XRECORD
  5
316
102
{ACAD_REACTORS
330
2EE
102
}
330
2EE
100
AcDbXrecord
280
     1
 40
210.0
  0
XRECORD
  5
317
102
{ACAD_REACTORS
330
2EE
102
}
330
2EE
100
AcDbXrecord
280
     1
1000
1:1
  0
XRECORD
  5
318
102
{ACAD_REACTORS
330
2EE
102
}
330
2EE
100
AcDbXrecord
280
     1
290
     1
  0
XRECORD
  5
319
102
{ACAD_REACTORS
330
2EE
102
}
330
2EE
100
AcDbXrecord
280
     1
 90
        4
  0
ENDSEC
  0
EOF
