  0
SECTION
  2
HEADER
  9
$ACADVER
  1
AC1027
  9
$ACADMAINTVER
 70
     8
  9
$DWGCODEPAGE
  3
ANSI_1252
  9
$REQUIREDVERSIONS
160
                 0
  9
$INSBASE
 10
0.0
 20
0.0
 30
0.0
  9
$EXTMIN
 10
1.000000000000000E+20
 20
1.000000000000000E+20
 30
1.000000000000000E+20
  9
$EXTMAX
 10
-1.000000000000000E+20
 20
-1.000000000000000E+20
 30
-1.000000000000000E+20
  9
$LIMMIN
 10
0.0
 20
0.0
  9
$LIMMAX
 10
12.0
 20
9.0
  9
$ORTHOMODE
 70
     0
  9
$REGENMODE
 70
     1
  9
$FILLMODE
 70
     1
  9
$QTEXTMODE
 70
     0
  9
$MIRRTEXT
 70
     1
  9
$LTSCALE
 40
1.0
  9
$ATTMODE
 70
     1
  9
$TEXTSIZE
 40
0.2
  9
$TRACEWID
 40
0.05
  9
$TEXTSTYLE
  7
Standard
  9
$CLAYER
  8
0
  9
$CELTYPE
  6
ByLayer
  9
$CECOLOR
 62
    18
  9
$CELTSCALE
 40
1.0
  9
$DISPSILH
 70
     0
  9
$DIMSCALE
 40
1.0
  9
$DIMASZ
 40
2.5
  9
$DIMEXO
 40
0.625
  9
$DIMDLI
 40
0.38
  9
$DIMRND
 40
0.0
  9
$DIMDLE
 40
0.0
  9
$DIMEXE
 40
1.25
  9
$DIMTP
 40
0.0
  9
$DIMTM
 40
0.0
  9
$DIMTXT
 40
2.5
  9
$DIMCEN
 40
0.09
  9
$DIMTSZ
 40
0.0
  9
$DIMTOL
 70
     0
  9
$DIMLIM
 70
     0
  9
$DIMTIH
 70
     1
  9
$DIMTOH
 70
     1
  9
$DIMSE1
 70
     0
  9
$DIMSE2
 70
     0
  9
$DIMTAD
 70
     0
  9
$DIMZIN
 70
     8
  9
$DIMBLK
  1

  9
$DIMASO
 70
     1
  9
$DIMSHO
 70
     1
  9
$DIMPOST
  1

  9
$DIMAPOST
  1

  9
$DIMALT
 70
     0
  9
$DIMALTD
 70
     2
  9
$DIMALTF
 40
25.4
  9
$DIMLFAC
 40
1.0
  9
$DIMTOFL
 70
     0
  9
$DIMTVP
 40
0.0
  9
$DIMTIX
 70
     0
  9
$DIMSOXD
 70
     0
  9
$DIMSAH
 70
     0
  9
$DIMBLK1
  1

  9
$DIMBLK2
  1

  9
$DIMSTYLE
  2
Standard
  9
$DIMCLRD
 70
    18
  9
$DIMCLRE
 70
    18
  9
$DIMCLRT
 70
    18
  9
$DIMTFAC
 40
1.0
  9
$DIMGAP
 40
0.625
  9
$DIMJUST
 70
     0
  9
$DIMSD1
 70
     0
  9
$DIMSD2
 70
     0
  9
$DIMTOLJ
 70
     1
  9
$DIMTZIN
 70
     0
  9
$DIMALTZ
 70
     0
  9
$DIMALTTZ
 70
     0
  9
$DIMUPT
 70
     0
  9
$DIMDEC
 70
     1
  9
$DIMTDEC
 70
     4
  9
$DIMALTU
 70
     2
  9
$DIMALTTD
 70
     2
  9
$DIMTXSTY
  7
Standard
  9
$DIMAUNIT
 70
     0
  9
$DIMADEC
 70
     1
  9
$DIMALTRND
 40
0.0
  9
$DIMAZIN
 70
     2
  9
$DIMDSEP
 70
    46
  9
$DIMATFIT
 70
     3
  9
$DIMFRAC
 70
     0
  9
$DIMLDRBLK
  1

  9
$DIMLUNIT
 70
     2
  9
$DIMLWD
 70
    -2
  9
$DIMLWE
 70
    -2
  9
$DIMTMOVE
 70
     0
  9
$DIMFXL
 40
1.0
  9
$DIMFXLON
 70
     0
  9
$DIMJOGANG
 40
0.7853981633974483
  9
$DIMTFILL
 70
     0
  9
$DIMTFILLCLR
 70
     0
  9
$DIMARCSYM
 70
     0
  9
$DIMLTYPE
  6

  9
$DIMLTEX1
  6

  9
$DIMLTEX2
  6

  9
$DIMTXTDIRECTION
 70
     0
  9
$LUNITS
 70
     2
  9
$LUPREC
 70
     4
  9
$SKETCHINC
 40
0.1
  9
$FILLETRAD
 40
0.5
  9
$AUNITS
 70
     0
  9
$AUPREC
 70
     0
  9
$MENU
  1
.
  9
$ELEVATION
 40
0.0
  9
$PELEVATION
 40
0.0
  9
$THICKNESS
 40
0.0
  9
$LIMCHECK
 70
     0
  9
$CHAMFERA
 40
0.0
  9
$CHAMFERB
 40
0.0
  9
$CHAMFERC
 40
0.0
  9
$CHAMFERD
 40
0.0
  9
$SKPOLY
 70
     0
  9
$TDCREATE
 40
2456697.911280486
  9
$TDUCREATE
 40
2456697.869613819
  9
$TDUPDATE
 40
2456697.911280648
  9
$TDUUPDATE
 40
2456697.869613981
  9
$TDINDWG
 40
0.0000000116
  9
$TDUSRTIMER
 40
0.0000000116
  9
$USRTIMER
 70
     1
  9
$ANGBASE
 50
0.0
  9
$ANGDIR
 70
     0
  9
$PDMODE
 70
     0
  9
$PDSIZE
 40
0.0
  9
$PLINEWID
 40
0.0
  9
$SPLFRAME
 70
     0
  9
$SPLINETYPE
 70
     6
  9
$SPLINESEGS
 70
     8
  9
$HANDSEED
  5
297
  9
$SURFTAB1
 70
     6
  9
$SURFTAB2
 70
     6
  9
$SURFTYPE
 70
     6
  9
$SURFU
 70
     6
  9
$SURFV
 70
     6
  9
$UCSBASE
  2

  9
$UCSNAME
  2

  9
$UCSORG
 10
0.0
 20
0.0
 30
0.0
  9
$UCSXDIR
 10
1.0
 20
0.0
 30
0.0
  9
$UCSYDIR
 10
0.0
 20
1.0
 30
0.0
  9
$UCSORTHOREF
  2

  9
$UCSORTHOVIEW
 70
     0
  9
$UCSORGTOP
 10
0.0
 20
0.0
 30
0.0
  9
$UCSORGBOTTOM
 10
0.0
 20
0.0
 30
0.0
  9
$UCSORGLEFT
 10
0.0
 20
0.0
 30
0.0
  9
$UCSORGRIGHT
 10
0.0
 20
0.0
 30
0.0
  9
$UCSORGFRONT
 10
0.0
 20
0.0
 30
0.0
  9
$UCSORGBACK
 10
0.0
 20
0.0
 30
0.0
  9
$PUCSBASE
  2

  9
$PUCSNAME
  2

  9
$PUCSORG
 10
0.0
 20
0.0
 30
0.0
  9
$PUCSXDIR
 10
1.0
 20
0.0
 30
0.0
  9
$PUCSYDIR
 10
0.0
 20
1.0
 30
0.0
  9
$PUCSORTHOREF
  2

  9
$PUCSORTHOVIEW
 70
     0
  9
$PUCSORGTOP
 10
0.0
 20
0.0
 30
0.0
  9
$PUCSORGBOTTOM
 10
0.0
 20
0.0
 30
0.0
  9
$PUCSORGLEFT
 10
0.0
 20
0.0
 30
0.0
  9
$PUCSORGRIGHT
 10
0.0
 20
0.0
 30
0.0
  9
$PUCSORGFRONT
 10
0.0
 20
0.0
 30
0.0
  9
$PUCSORGBACK
 10
0.0
 20
0.0
 30
0.0
  9
$USERI1
 70
     0
  9
$USERI2
 70
     0
  9
$USERI3
 70
     0
  9
$USERI4
 70
     0
  9
$USERI5
 70
     0
  9
$USERR1
 40
0.0
  9
$USERR2
 40
0.0
  9
$USERR3
 40
0.0
  9
$USERR4
 40
0.0
  9
$USERR5
 40
0.0
  9
$WORLDVIEW
 70
     1
  9
$SHADEDGE
 70
     3
  9
$SHADEDIF
 70
    70
  9
$TILEMODE
 70
     1
  9
$MAXACTVP
 70
    64
  9
$PINSBASE
 10
0.0
 20
0.0
 30
0.0
  9
$PLIMCHECK
 70
     0
  9
$PEXTMIN
 10
1.000000000000000E+20
 20
1.000000000000000E+20
 30
1.000000000000000E+20
  9
$PEXTMAX
 10
-1.000000000000000E+20
 20
-1.000000000000000E+20
 30
-1.000000000000000E+20
  9
$PLIMMIN
 10
0.0
 20
0.0
  9
$PLIMMAX
 10
12.0
 20
9.0
  9
$UNITMODE
 70
     0
  9
$VISRETAIN
 70
     1
  9
$PLINEGEN
 70
     0
  9
$PSLTSCALE
 70
     1
  9
$TREEDEPTH
 70
  3020
  9
$CMLSTYLE
  2
Standard
  9
$CMLJUST
 70
     0
  9
$CMLSCALE
 40
1.0
  9
$PROXYGRAPHICS
 70
     1
  9
$MEASUREMENT
 70
     1
  9
$CELWEIGHT
370
    -1
  9
$ENDCAPS
280
     0
  9
$JOINSTYLE
280
     0
  9
$LWDISPLAY
290
     0
  9
$INSUNITS
 70
     4
  9
$HYPERLINKBASE
  1

  9
$STYLESHEET
  1

  9
$XEDIT
290
     1
  9
$CEPSNTYPE
380
     0
  9
$PSTYLEMODE
290
     1
  9
$FINGERPRINTGUID
  2
{76EF50B4-343F-439D-9983-6862DD413313}
  9
$VERSIONGUID
  2
{FAEB1C32-E019-11D5-929B-00C0DF256EC4}
  9
$EXTNAMES
290
     1
  9
$PSVPSCALE
 40
0.0
  9
$OLESTARTUP
290
     0
  9
$SORTENTS
280
   127
  9
$INDEXCTL
280
     0
  9
$HIDETEXT
280
     1
  9
$XCLIPFRAME
280
     2
  9
$HALOGAP
280
     0
  9
$OBSCOLOR
 70
   257
  9
$OBSLTYPE
280
     0
  9
$INTERSECTIONDISPLAY
280
     0
  9
$INTERSECTIONCOLOR
 70
   257
  9
$DIMASSOC
280
     2
  9
$PROJECTNAME
  1

  9
$CAMERADISPLAY
290
     0
  9
$LENSLENGTH
 40
50.0
  9
$CAMERAHEIGHT
 40
0.0
  9
$STEPSPERSEC
 40
2.0
  9
$STEPSIZE
 40
6.0
  9
$3DDWFPREC
 40
2.0
  9
$PSOLWIDTH
 40
0.25
  9
$PSOLHEIGHT
 40
4.0
  9
$LOFTANG1
 40
1.570796326794897
  9
$LOFTANG2
 40
1.570796326794897
  9
$LOFTMAG1
 40
0.0
  9
$LOFTMAG2
 40
0.0
  9
$LOFTPARAM
 70
     7
  9
$LOFTNORMALS
280
     1
  9
$LATITUDE
 40
37.795
  9
$LONGITUDE
 40
-122.394
  9
$NORTHDIRECTION
 40
0.0
  9
$TIMEZONE
 70
 -8000
  9
$LIGHTGLYPHDISPLAY
280
     1
  9
$TILEMODELIGHTSYNCH
280
     1
  9
$CMATERIAL
347
16A
  9
$SOLIDHIST
280
     1
  9
$SHOWHIST
280
     1
  9
$DWFFRAME
280
     2
  9
$DGNFRAME
280
     2
  9
$REALWORLDSCALE
290
     1
  9
$INTERFERECOLOR
 62
   256
  9
$CSHADOW
280
     0
  9
$SHADOWPLANELOCATION
 40
0.0
  0
ENDSEC
  0
SECTION
  2
CLASSES
  0
CLASS
  1
ACDBDICTIONARYWDFLT
  2
AcDbDictionaryWithDefault
  3
ObjectDBX Classes
 90
        0
 91
        4
280
     0
281
     0
  0
CLASS
  1
VISUALSTYLE
  2
AcDbVisualStyle
  3
ObjectDBX Classes
 90
     4095
 91
        4
280
     0
281
     0
  0
CLASS
  1
MATERIAL
  2
AcDbMaterial
  3
ObjectDBX Classes
 90
     1153
 91
        4
280
     0
281
     0
  0
CLASS
  1
SCALE
  2
AcDbScale
  3
ObjectDBX Classes
 90
     1153
 91
        4
280
     0
281
     0
  0
CLASS
  1
SUN
  2
AcDbSun
  3
SCENEOE
 90
     1153
 91
        4
280
     0
281
     0
  0
CLASS
  1
DICTIONARYVAR
  2
AcDbDictionaryVar
  3
ObjectDBX Classes
 90
        0
 91
        4
280
     0
281
     0
  0
ENDSEC
  0
SECTION
  2
TABLES
  0
TABLE
  2
VPORT
  5
12F
330
0
100
AcDbSymbolTable
 70
     1
  0
VPORT
  5
14F
330
12F
100
AcDbSymbolTableRecord
100
AcDbViewportTableRecord
  2
*Active
 70
     0
 10
0.0
 20
0.0
 11
1.0
 21
1.0
 12
10.42990654205607
 22
4.5
 13
0.0
 23
0.0
 14
0.5
 24
0.5
 15
0.5
 25
0.5
 16
0.0
 26
0.0
 36
1.0
 17
0.0
 27
0.0
 37
0.0
 40
9.0
 41
1.972972972850329
 42
50.0
 43
0.0
 44
0.0
 50
0.0
 51
0.0
 71
     0
 72
   100
 73
     1
 74
     3
 75
     0
 76
     0
 77
     0
 78
     0
281
     0
 65
     1
110
0.0
120
0.0
130
0.0
111
1.0
121
0.0
131
0.0
112
0.0
122
1.0
132
0.0
 79
     0
146
0.0
 60
     3
 61
     5
292
     1
282
     1
141
0.0
142
0.0
 63
   250
361
18F
  0
ENDTAB
  0
TABLE
  2
LTYPE
  5
12C
330
0
100
AcDbSymbolTable
 70
    19
  0
LTYPE
  5
13A
330
12C
100
AcDbSymbolTableRecord
100
AcDbLinetypeTableRecord
  2
ByBlock
 70
     0
  3

 72
    65
 73
     0
 40
0.0
  0
LTYPE
  5
13B
330
12C
100
AcDbSymbolTableRecord
100
AcDbLinetypeTableRecord
  2
ByLayer
 70
     0
  3

 72
    65
 73
     0
 40
0.0
  0
LTYPE
  5
13C
330
12C
100
AcDbSymbolTableRecord
100
AcDbLinetypeTableRecord
  2
Continuous
 70
     0
  3
Solid line
 72
    65
 73
     0
 40
0.0
  0
LTYPE
  5
1BE
330
12C
100
AcDbSymbolTableRecord
100
AcDbLinetypeTableRecord
  2
BORDER
 70
     0
  3

 72
    65
 73
     6
 40
42.00000000000001
 49
12.0
 74
     0
 49
-6.0
 74
     0
 49
12.0
 74
     0
 49
-5.95
 74
     0
 49
0.1
 74
     0
 49
-5.95
 74
     0
  0
LTYPE
  5
1BF
330
12C
100
AcDbSymbolTableRecord
100
AcDbLinetypeTableRecord
  2
BORDER2
 70
     0
  3

 72
    65
 73
     6
 40
21.0
 49
6.0
 74
     0
 49
-3.0
 74
     0
 49
6.0
 74
     0
 49
-2.95
 74
     0
 49
0.1
 74
     0
 49
-2.95
 74
     0
  0
LTYPE
  5
1C0
330
12C
100
AcDbSymbolTableRecord
100
AcDbLinetypeTableRecord
  2
BORDERX2
 70
     0
  3

 72
    65
 73
     6
 40
84.0
 49
24.0
 74
     0
 49
-12.0
 74
     0
 49
24.0
 74
     0
 49
-11.95
 74
     0
 49
0.1
 74
     0
 49
-11.95
 74
     0
  0
LTYPE
  5
1C1
330
12C
100
AcDbSymbolTableRecord
100
AcDbLinetypeTableRecord
  2
CENTER
 70
     0
  3

 72
    65
 73
     4
 40
50.0
 49
32.0
 74
     0
 49
-6.0
 74
     0
 49
6.0
 74
     0
 49
-6.0
 74
     0
  0
LTYPE
  5
1C2
330
12C
100
AcDbSymbolTableRecord
100
AcDbLinetypeTableRecord
  2
CENTER2
 70
     0
  3

 72
    65
 73
     4
 40
25.0
 49
16.0
 74
     0
 49
-3.0
 74
     0
 49
3.0
 74
     0
 49
-3.0
 74
     0
  0
LTYPE
  5
1C3
330
12C
100
AcDbSymbolTableRecord
100
AcDbLinetypeTableRecord
  2
CENTERX2
 70
     0
  3

 72
    65
 73
     4
 40
100.0
 49
64.0
 74
     0
 49
-12.0
 74
     0
 49
12.0
 74
     0
 49
-12.0
 74
     0
  0
LTYPE
  5
1C4
330
12C
100
AcDbSymbolTableRecord
100
AcDbLinetypeTableRecord
  2
DASHDOT
 70
     0
  3

 72
    65
 73
     4
 40
24.0
 49
12.0
 74
     0
 49
-5.95
 74
     0
 49
0.1
 74
     0
 49
-5.95
 74
     0
  0
LTYPE
  5
1C5
330
12C
100
AcDbSymbolTableRecord
100
AcDbLinetypeTableRecord
  2
DASHDOT2
 70
     0
  3

 72
    65
 73
     4
 40
12.0
 49
6.0
 74
     0
 49
-2.95
 74
     0
 49
0.1
 74
     0
 49
-2.95
 74
     0
  0
LTYPE
  5
1C6
330
12C
100
AcDbSymbolTableRecord
100
AcDbLinetypeTableRecord
  2
DASHDOTX2
 70
     0
  3

 72
    65
 73
     4
 40
48.0
 49
24.0
 74
     0
 49
-11.95
 74
     0
 49
0.1
 74
     0
 49
-11.95
 74
     0
  0
LTYPE
  5
1C7
330
12C
100
AcDbSymbolTableRecord
100
AcDbLinetypeTableRecord
  2
DASHED
 70
     0
  3

 72
    65
 73
     2
 40
18.0
 49
12.0
 74
     0
 49
-6.0
 74
     0
  0
LTYPE
  5
1C8
330
12C
100
AcDbSymbolTableRecord
100
AcDbLinetypeTableRecord
  2
DASHED2
 70
     0
  3

 72
    65
 73
     2
 40
9.0
 49
6.0
 74
     0
 49
-3.0
 74
     0
  0
LTYPE
  5
1C9
330
12C
100
AcDbSymbolTableRecord
100
AcDbLinetypeTableRecord
  2
DASHEDX2
 70
     0
  3

 72
    65
 73
     2
 40
36.0
 49
24.0
 74
     0
 49
-12.0
 74
     0
  0
LTYPE
  5
1CA
330
12C
100
AcDbSymbolTableRecord
100
AcDbLinetypeTableRecord
  2
DIVIDE
 70
     0
  3

 72
    65
 73
     6
 40
29.99999999999999
 49
12.0
 74
     0
 49
-5.9
 74
     0
 49
0.15
 74
     0
 49
-5.9
 74
     0
 49
0.15
 74
     0
 49
-5.9
 74
     0
  0
LTYPE
  5
1CB
330
12C
100
AcDbSymbolTableRecord
100
AcDbLinetypeTableRecord
  2
DIVIDE2
 70
     0
  3

 72
    65
 73
     6
 40
15.0
 49
6.0
 74
     0
 49
-2.9
 74
     0
 49
0.15
 74
     0
 49
-2.9
 74
     0
 49
0.15
 74
     0
 49
-2.9
 74
     0
  0
LTYPE
  5
1CC
330
12C
100
AcDbSymbolTableRecord
100
AcDbLinetypeTableRecord
  2
DIVIDEX2
 70
     0
  3

 72
    65
 73
     6
 40
59.99999999999999
 49
24.0
 74
     0
 49
-11.9
 74
     0
 49
0.15
 74
     0
 49
-11.9
 74
     0
 49
0.15
 74
     0
 49
-11.9
 74
     0
  0
LTYPE
  5
1CD
330
12C
100
AcDbSymbolTableRecord
100
AcDbLinetypeTableRecord
  2
DOT
 70
     0
  3

 72
    65
 73
     2
 40
6.3
 49
0.1
 74
     0
 49
-6.2
 74
     0
  0
LTYPE
  5
1CE
330
12C
100
AcDbSymbolTableRecord
100
AcDbLinetypeTableRecord
  2
DOT2
 70
     0
  3

 72
    65
 73
     2
 40
3.2
 49
0.1
 74
     0
 49
-3.1
 74
     0
  0
LTYPE
  5
1CF
330
12C
100
AcDbSymbolTableRecord
100
AcDbLinetypeTableRecord
  2
DOTX2
 70
     0
  3

 72
    65
 73
     2
 40
12.5
 49
0.1
 74
     0
 49
-12.4
 74
     0
  0
ENDTAB
  0
TABLE
  2
LAYER
  5
129
330
0
100
AcDbSymbolTable
 70
     9
  0
LAYER
  5
137
330
129
100
AcDbSymbolTableRecord
100
AcDbLayerTableRecord
  2
0
 70
     0
 62
     7
420
 16777215
  6
Continuous
370
    25
390
136
347
16C
348
0
  0
LAYER
  5
1D0
330
129
100
AcDbSymbolTableRecord
100
AcDbLayerTableRecord
  2
Textes
 70
     0
 62
    18
420
        0
  6
Continuous
370
    25
390
136
347
16C
348
0
  0
LAYER
  5
1D1
330
129
100
AcDbSymbolTableRecord
100
AcDbLayerTableRecord
  2
9.Text
 70
     0
 62
     3
420
    65280
  6
Continuous
370
    18
390
136
347
16C
348
0
  0
LAYER
  5
1D2
330
129
100
AcDbSymbolTableRecord
100
AcDbLayerTableRecord
  2
Cotation
 70
     0
 62
    18
420
        0
  6
Continuous
370
    13
390
136
347
16C
348
0
  0
LAYER
  5
1D3
330
129
100
AcDbSymbolTableRecord
100
AcDbLayerTableRecord
  2
SVG
 70
     0
 62
    18
420
        0
  6
Continuous
370
    25
390
136
347
16C
348
0
  0
LAYER
  5
1D4
330
129
100
AcDbSymbolTableRecord
100
AcDbLayerTableRecord
  2
contours
 70
     0
 62
     5
420
      255
  6
Continuous
370
    25
390
136
347
16C
348
0
  0
LAYER
  5
1D5
330
129
100
AcDbSymbolTableRecord
100
AcDbLayerTableRecord
  2
axes
 70
     0
 62
    96
420
    32768
  6
DASHDOT
370
    13
390
136
347
16C
348
0
  0
LAYER
  5
1D6
330
129
100
AcDbSymbolTableRecord
100
AcDbLayerTableRecord
  2
Epure
 70
     1
 62
     1
420
 16711680
  6
Continuous
370
     0
390
136
347
16C
348
0
  0
LAYER
  5
1D7
330
129
100
AcDbSymbolTableRecord
100
AcDbLayerTableRecord
  2
Defpoints
 70
     0
 62
     7
420
 16777215
  6
Continuous
290
     0
370
    -3
390
136
347
16C
348
0
  0
ENDTAB
  0
TABLE
  2
STYLE
  5
12A
330
0
100
AcDbSymbolTable
 70
     4
  0
STYLE
  5
138
330
12A
100
AcDbSymbolTableRecord
100
AcDbTextStyleTableRecord
  2
Standard
 70
     0
 40
0.0
 41
1.0
 50
0.0
 71
     0
 42
0.2
  3
txt
  4

  0
STYLE
  5
274
330
12A
100
AcDbSymbolTableRecord
100
AcDbTextStyleTableRecord
  2
textstyle0
 70
     0
 40
0.0
 41
1.0
 50
0.0
 71
     0
 42
0.2
  3

  4

1001
ACAD
1000
Arial
1071
        0
  0
STYLE
  5
28F
330
12A
100
AcDbSymbolTableRecord
100
AcDbTextStyleTableRecord
  2
textstyle1
 70
     0
 40
0.0
 41
1.0
 50
0.0
 71
     0
 42
0.2
  3

  4

1001
ACAD
1000
Arial
1071
        0
  0
STYLE
  5
290
330
12A
100
AcDbSymbolTableRecord
100
AcDbTextStyleTableRecord
  2
textstyle2
 70
     0
 40
0.0
 41
1.0
 50
0.0
 71
     0
 42
0.2
  3

  4

1001
ACAD
1000
Arial
1071
        0
  0
ENDTAB
  0
TABLE
  2
VIEW
  5
12D
330
0
100
AcDbSymbolTable
 70
     0
  0
ENDTAB
  0
TABLE
  2
UCS
  5
12E
330
0
100
AcDbSymbolTable
 70
     0
  0
ENDTAB
  0
TABLE
  2
APPID
  5
130
330
0
100
AcDbSymbolTable
 70
     2
  0
APPID
  5
139
330
130
100
AcDbSymbolTableRecord
100
AcDbRegAppTableRecord
  2
ACAD
 70
     0
  0
APPID
  5
190
330
130
100
AcDbSymbolTableRecord
100
AcDbRegAppTableRecord
  2
QCAD
 70
     0
  0
ENDTAB
  0
TABLE
  2
DIMSTYLE
  5
131
330
0
100
AcDbSymbolTable
 70
     2
100
AcDbDimStyleTable
  0
DIMSTYLE
105
14D
330
131
100
AcDbSymbolTableRecord
100
AcDbDimStyleTableRecord
  2
Standard
 70
     0
178
     0
340
138
  0
DIMSTYLE
105
1BD
102
{ACAD_REACTORS
330
113
330
114
330
115
330
117
330
118
330
119
330
11A
330
11B
330
11C
330
11D
330
11E
330
11F
330
121
330
122
102
}
330
131
100
AcDbSymbolTableRecord
100
AcDbDimStyleTableRecord
  2
QCADDimStyle
 70
     0
 41
2.5
 42
0.625
 44
1.25
 73
     0
 77
     1
140
2.5
147
0.625
178
     0
340
138
  0
ENDTAB
  0
TABLE
  2
BLOCK_RECORD
  5
128
330
0
100
AcDbSymbolTable
 70
    15
  0
BLOCK_RECORD
  5
145
330
128
100
AcDbSymbolTableRecord
100
AcDbBlockTableRecord
  2
*Model_Space
340
148
 70
     0
280
     1
281
     0
  0
BLOCK_RECORD
  5
141
330
128
100
AcDbSymbolTableRecord
100
AcDbBlockTableRecord
  2
*Paper_Space
340
144
 70
     0
280
     1
281
     0
  0
BLOCK_RECORD
  5
149
330
128
100
AcDbSymbolTableRecord
100
AcDbBlockTableRecord
  2
*Paper_Space0
340
14C
 70
     0
280
     1
281
     0
  0
BLOCK_RECORD
  5
1D8
330
128
100
AcDbSymbolTableRecord
100
AcDbBlockTableRecord
  2
*D1
340
0
 70
     0
280
     1
281
     0
  0
BLOCK_RECORD
  5
1E5
330
128
100
AcDbSymbolTableRecord
100
AcDbBlockTableRecord
  2
*D2
340
0
 70
     0
280
     1
281
     0
  0
BLOCK_RECORD
  5
1F2
330
128
100
AcDbSymbolTableRecord
100
AcDbBlockTableRecord
  2
*D3
340
0
 70
     0
280
     1
281
     0
  0
BLOCK_RECORD
  5
1FF
330
128
100
AcDbSymbolTableRecord
100
AcDbBlockTableRecord
  2
*D4
340
0
 70
     0
280
     1
281
     0
  0
BLOCK_RECORD
  5
20C
330
128
100
AcDbSymbolTableRecord
100
AcDbBlockTableRecord
  2
*D5
340
0
 70
     0
280
     1
281
     0
  0
BLOCK_RECORD
  5
219
330
128
100
AcDbSymbolTableRecord
100
AcDbBlockTableRecord
  2
*D6
340
0
 70
     0
280
     1
281
     0
  0
BLOCK_RECORD
  5
226
330
128
100
AcDbSymbolTableRecord
100
AcDbBlockTableRecord
  2
*D7
340
0
 70
     0
280
     1
281
     0
  0
BLOCK_RECORD
  5
233
330
128
100
AcDbSymbolTableRecord
100
AcDbBlockTableRecord
  2
*D8
340
0
 70
     0
280
     1
281
     0
  0
BLOCK_RECORD
  5
240
330
128
100
AcDbSymbolTableRecord
100
AcDbBlockTableRecord
  2
*D9
340
0
 70
     0
280
     1
281
     0
  0
BLOCK_RECORD
  5
24D
330
128
100
AcDbSymbolTableRecord
100
AcDbBlockTableRecord
  2
*D10
340
0
 70
     0
280
     1
281
     0
  0
BLOCK_RECORD
  5
25A
330
128
100
AcDbSymbolTableRecord
100
AcDbBlockTableRecord
  2
*D11
340
0
 70
     0
280
     1
281
     0
  0
BLOCK_RECORD
  5
267
330
128
100
AcDbSymbolTableRecord
100
AcDbBlockTableRecord
  2
*D12
340
0
 70
     0
280
     1
281
     0
  0
BLOCK_RECORD
  5
275
330
128
100
AcDbSymbolTableRecord
100
AcDbBlockTableRecord
  2
*D13
340
0
 70
     0
280
     1
281
     0
  0
BLOCK_RECORD
  5
282
330
128
100
AcDbSymbolTableRecord
100
AcDbBlockTableRecord
  2
*D14
340
0
 70
     0
280
     1
281
     0
  0
ENDTAB
  0
ENDSEC
  0
SECTION
  2
BLOCKS
  0
BLOCK
  5
146
330
145
100
AcDbEntity
  8
0
100
AcDbBlockBegin
  2
*Model_Space
 70
     0
 10
0.0
 20
0.0
 30
0.0
  3
*Model_Space
  1
*Model_Space
  0
ENDBLK
  5
147
330
145
100
AcDbEntity
  8
0
100
AcDbBlockEnd
  0
BLOCK
  5
142
330
141
100
AcDbEntity
 67
     1
  8
0
100
AcDbBlockBegin
  2
*Paper_Space
 70
     0
 10
0.0
 20
0.0
 30
0.0
  3
*Paper_Space
  1
*Paper_Space
  0
ENDBLK
  5
143
330
141
100
AcDbEntity
 67
     1
  8
0
100
AcDbBlockEnd
  0
BLOCK
  5
14A
330
149
100
AcDbEntity
  8
0
100
AcDbBlockBegin
  2
*Paper_Space0
 70
     0
 10
0.0
 20
0.0
 30
0.0
  3
*Paper_Space0
  1
*Paper_Space0
  0
ENDBLK
  5
14B
330
149
100
AcDbEntity
  8
0
100
AcDbBlockEnd
  0
BLOCK
  5
1D9
330
1D8
100
AcDbEntity
  8
0
100
AcDbBlockBegin
  2
*D1
 70
     1
 10
0.0
 20
0.0
 30
0.0
  3
*D1
  1
*D1
  0
LINE
  5
1DB
330
1D8
100
AcDbEntity
  8
Cotation
 62
     0
370
    -2
100
AcDbLine
 10
287.0
 20
-9.937499999999998
 30
0.0
 11
287.0
 21
20.18
 31
0.0
  0
LINE
  5
1DC
330
1D8
100
AcDbEntity
  8
Cotation
 62
     0
370
    -2
100
AcDbLine
 10
313.0
 20
-9.9375
 30
0.0
 11
313.0
 21
20.18
 31
0.0
  0
LINE
  5
1DD
330
1D8
100
AcDbEntity
  8
Cotation
 62
     0
370
    -2
100
AcDbLine
 10
287.18
 20
20.0
 30
0.0
 11
299.3785714285714
 21
20.0
 31
0.0
  0
LINE
  5
1DE
330
1D8
100
AcDbEntity
  8
Cotation
 62
     0
370
    -2
100
AcDbLine
 10
312.82
 20
20.0
 30
0.0
 11
300.6214285714286
 21
20.0
 31
0.0
  0
SOLID
  5
1DF
330
1D8
100
AcDbEntity
  8
Cotation
 62
     0
100
AcDbTrace
 10
287.18
 20
20.03
 30
0.0
 11
287.18
 21
19.97
 31
0.0
 12
287.0
 22
20.0
 32
0.0
 13
287.0
 23
20.0
 33
0.0
  0
SOLID
  5
1E0
330
1D8
100
AcDbEntity
  8
Cotation
 62
     0
100
AcDbTrace
 10
312.82
 20
19.97
 30
0.0
 11
312.82
 21
20.03
 31
0.0
 12
313.0
 22
20.0
 32
0.0
 13
313.0
 23
20.0
 33
0.0
  0
MTEXT
  5
1E1
330
1D8
100
AcDbEntity
  8
Cotation
 62
     0
100
AcDbMText
 10
300.0
 20
20.0
 30
0.0
 40
0.18
 41
0.0
 46
0.0
 71
     5
 72
     1
  1
\A1;26.0000
 73
     1
 44
1.0
  0
POINT
  5
1E2
330
1D8
100
AcDbEntity
  8
Defpoints
 62
     0
100
AcDbPoint
 10
287.0
 20
-9.999999999999998
 30
0.0
  0
POINT
  5
1E3
330
1D8
100
AcDbEntity
  8
Defpoints
 62
     0
100
AcDbPoint
 10
313.0
 20
-10.0
 30
0.0
  0
POINT
  5
1E4
330
1D8
100
AcDbEntity
  8
Defpoints
 62
     0
100
AcDbPoint
 10
313.0
 20
20.0
 30
0.0
  0
ENDBLK
  5
1DA
330
1D8
100
AcDbEntity
  8
0
100
AcDbBlockEnd
  0
BLOCK
  5
1E6
330
1E5
100
AcDbEntity
  8
0
100
AcDbBlockBegin
  2
*D2
 70
     1
 10
0.0
 20
0.0
 30
0.0
  3
*D2
  1
*D2
  0
LINE
  5
1E8
330
1E5
100
AcDbEntity
  8
Cotation
 62
     0
370
    -2
100
AcDbLine
 10
348.0
 20
0.0625
 30
0.0
 11
348.0
 21
25.77845051724264
 31
0.0
  0
LINE
  5
1E9
330
1E5
100
AcDbEntity
  8
Cotation
 62
     0
370
    -2
100
AcDbLine
 10
372.0
 20
0.0625
 30
0.0
 11
372.0
 21
25.77845051724264
 31
0.0
  0
LINE
  5
1EA
330
1E5
100
AcDbEntity
  8
Cotation
 62
     0
370
    -2
100
AcDbLine
 10
348.18
 20
25.59845051724264
 30
0.0
 11
359.3785714285714
 21
25.59845051724264
 31
0.0
  0
LINE
  5
1EB
330
1E5
100
AcDbEntity
  8
Cotation
 62
     0
370
    -2
100
AcDbLine
 10
371.82
 20
25.59845051724264
 30
0.0
 11
360.6214285714286
 21
25.59845051724264
 31
0.0
  0
SOLID
  5
1EC
330
1E5
100
AcDbEntity
  8
Cotation
 62
     0
100
AcDbTrace
 10
348.18
 20
25.62845051724264
 30
0.0
 11
348.18
 21
25.56845051724264
 31
0.0
 12
348.0
 22
25.59845051724264
 32
0.0
 13
348.0
 23
25.59845051724264
 33
0.0
  0
SOLID
  5
1ED
330
1E5
100
AcDbEntity
  8
Cotation
 62
     0
100
AcDbTrace
 10
371.82
 20
25.56845051724264
 30
0.0
 11
371.82
 21
25.62845051724264
 31
0.0
 12
372.0
 22
25.59845051724264
 32
0.0
 13
372.0
 23
25.59845051724264
 33
0.0
  0
MTEXT
  5
1EE
330
1E5
100
AcDbEntity
  8
Cotation
 62
     0
100
AcDbMText
 10
360.0
 20
25.59845051724264
 30
0.0
 40
0.18
 41
0.0
 46
0.0
 71
     5
 72
     1
  1
\A1;24.0000
 73
     1
 44
1.0
  0
POINT
  5
1EF
330
1E5
100
AcDbEntity
  8
Defpoints
 62
     0
100
AcDbPoint
 10
348.0
 20
0.0
 30
0.0
  0
POINT
  5
1F0
330
1E5
100
AcDbEntity
  8
Defpoints
 62
     0
100
AcDbPoint
 10
372.0
 20
0.0
 30
0.0
  0
POINT
  5
1F1
330
1E5
100
AcDbEntity
  8
Defpoints
 62
     0
100
AcDbPoint
 10
372.0
 20
25.59845051724264
 30
0.0
  0
ENDBLK
  5
1E7
330
1E5
100
AcDbEntity
  8
0
100
AcDbBlockEnd
  0
BLOCK
  5
1F3
330
1F2
100
AcDbEntity
  8
0
100
AcDbBlockBegin
  2
*D3
 70
     1
 10
0.0
 20
0.0
 30
0.0
  3
*D3
  1
*D3
  0
LINE
  5
1F5
330
1F2
100
AcDbEntity
  8
Cotation
 62
     0
370
    -2
100
AcDbLine
 10
356.0
 20
8.0625
 30
0.0
 11
356.0
 21
17.73322321182352
 31
0.0
  0
LINE
  5
1F6
330
1F2
100
AcDbEntity
  8
Cotation
 62
     0
370
    -2
100
AcDbLine
 10
364.0
 20
8.0625
 30
0.0
 11
364.0
 21
17.73322321182352
 31
0.0
  0
LINE
  5
1F7
330
1F2
100
AcDbEntity
  8
Cotation
 62
     0
370
    -2
100
AcDbLine
 10
356.18
 20
17.55322321182352
 30
0.0
 11
359.4642857142857
 21
17.55322321182352
 31
0.0
  0
LINE
  5
1F8
330
1F2
100
AcDbEntity
  8
Cotation
 62
     0
370
    -2
100
AcDbLine
 10
363.82
 20
17.55322321182352
 30
0.0
 11
360.5357142857143
 21
17.55322321182352
 31
0.0
  0
SOLID
  5
1F9
330
1F2
100
AcDbEntity
  8
Cotation
 62
     0
100
AcDbTrace
 10
356.18
 20
17.58322321182352
 30
0.0
 11
356.18
 21
17.52322321182352
 31
0.0
 12
356.0
 22
17.55322321182352
 32
0.0
 13
356.0
 23
17.55322321182352
 33
0.0
  0
SOLID
  5
1FA
330
1F2
100
AcDbEntity
  8
Cotation
 62
     0
100
AcDbTrace
 10
363.82
 20
17.52322321182352
 30
0.0
 11
363.82
 21
17.58322321182352
 31
0.0
 12
364.0
 22
17.55322321182352
 32
0.0
 13
364.0
 23
17.55322321182352
 33
0.0
  0
MTEXT
  5
1FB
330
1F2
100
AcDbEntity
  8
Cotation
 62
     0
100
AcDbMText
 10
360.0
 20
17.55322321182352
 30
0.0
 40
0.18
 41
0.0
 46
0.0
 71
     5
 72
     1
  1
\A1;8.0000
 73
     1
 44
1.0
  0
POINT
  5
1FC
330
1F2
100
AcDbEntity
  8
Defpoints
 62
     0
100
AcDbPoint
 10
356.0
 20
8.0
 30
0.0
  0
POINT
  5
1FD
330
1F2
100
AcDbEntity
  8
Defpoints
 62
     0
100
AcDbPoint
 10
364.0
 20
8.0
 30
0.0
  0
POINT
  5
1FE
330
1F2
100
AcDbEntity
  8
Defpoints
 62
     0
100
AcDbPoint
 10
364.0
 20
17.55322321182352
 30
0.0
  0
ENDBLK
  5
1F4
330
1F2
100
AcDbEntity
  8
0
100
AcDbBlockEnd
  0
BLOCK
  5
200
330
1FF
100
AcDbEntity
  8
0
100
AcDbBlockBegin
  2
*D4
 70
     1
 10
0.0
 20
0.0
 30
0.0
  3
*D4
  1
*D4
  0
LINE
  5
202
330
1FF
100
AcDbEntity
  8
Cotation
 62
     0
370
    -2
100
AcDbLine
 10
87.0
 20
0.0625000000000016
 30
0.0
 11
87.0
 21
30.18
 31
0.0
  0
LINE
  5
203
330
1FF
100
AcDbEntity
  8
Cotation
 62
     0
370
    -2
100
AcDbLine
 10
113.0
 20
0.0624999999999968
 30
0.0
 11
113.0
 21
30.18
 31
0.0
  0
LINE
  5
204
330
1FF
100
AcDbEntity
  8
Cotation
 62
     0
370
    -2
100
AcDbLine
 10
87.18
 20
30.0
 30
0.0
 11
99.37857142857142
 21
30.0
 31
0.0
  0
LINE
  5
205
330
1FF
100
AcDbEntity
  8
Cotation
 62
     0
370
    -2
100
AcDbLine
 10
112.82
 20
30.0
 30
0.0
 11
100.6214285714286
 21
30.0
 31
0.0
  0
SOLID
  5
206
330
1FF
100
AcDbEntity
  8
Cotation
 62
     0
100
AcDbTrace
 10
87.18
 20
30.03
 30
0.0
 11
87.18
 21
29.97
 31
0.0
 12
87.0
 22
30.0
 32
0.0
 13
87.0
 23
30.0
 33
0.0
  0
SOLID
  5
207
330
1FF
100
AcDbEntity
  8
Cotation
 62
     0
100
AcDbTrace
 10
112.82
 20
29.97
 30
0.0
 11
112.82
 21
30.03
 31
0.0
 12
113.0
 22
30.0
 32
0.0
 13
113.0
 23
30.0
 33
0.0
  0
MTEXT
  5
208
330
1FF
100
AcDbEntity
  8
Cotation
 62
     0
100
AcDbMText
 10
100.0
 20
30.0
 30
0.0
 40
0.18
 41
0.0
 46
0.0
 71
     5
 72
     1
  1
\A1;26.0000
 73
     1
 44
1.0
  0
POINT
  5
209
330
1FF
100
AcDbEntity
  8
Defpoints
 62
     0
100
AcDbPoint
 10
87.0
 20
0.0000000000000016
 30
0.0
  0
POINT
  5
20A
330
1FF
100
AcDbEntity
  8
Defpoints
 62
     0
100
AcDbPoint
 10
113.0
 20
-0.0000000000000032
 30
0.0
  0
POINT
  5
20B
330
1FF
100
AcDbEntity
  8
Defpoints
 62
     0
100
AcDbPoint
 10
113.0
 20
30.0
 30
0.0
  0
ENDBLK
  5
201
330
1FF
100
AcDbEntity
  8
0
100
AcDbBlockEnd
  0
BLOCK
  5
20D
330
20C
100
AcDbEntity
  8
0
100
AcDbBlockBegin
  2
*D5
 70
     1
 10
0.0
 20
0.0
 30
0.0
  3
*D5
  1
*D5
  0
LINE
  5
20F
330
20C
100
AcDbEntity
  8
Cotation
 62
     0
370
    -2
100
AcDbLine
 10
1054.164157216803
 20
1.077436472642802
 30
0.0
 11
1054.164157216803
 21
22.18
 31
0.0
  0
LINE
  5
210
330
20C
100
AcDbEntity
  8
Cotation
 62
     0
370
    -2
100
AcDbLine
 10
1074.164157216803
 20
1.077436472642802
 30
0.0
 11
1074.164157216803
 21
22.18
 31
0.0
  0
LINE
  5
211
330
20C
100
AcDbEntity
  8
Cotation
 62
     0
370
    -2
100
AcDbLine
 10
1054.344157216803
 20
22.0
 30
0.0
 11
1063.542728645375
 21
22.0
 31
0.0
  0
LINE
  5
212
330
20C
100
AcDbEntity
  8
Cotation
 62
     0
370
    -2
100
AcDbLine
 10
1073.984157216803
 20
22.0
 30
0.0
 11
1064.785585788231
 21
22.0
 31
0.0
  0
SOLID
  5
213
330
20C
100
AcDbEntity
  8
Cotation
 62
     0
100
AcDbTrace
 10
1054.344157216803
 20
22.03
 30
0.0
 11
1054.344157216803
 21
21.97
 31
0.0
 12
1054.164157216803
 22
22.0
 32
0.0
 13
1054.164157216803
 23
22.0
 33
0.0
  0
SOLID
  5
214
330
20C
100
AcDbEntity
  8
Cotation
 62
     0
100
AcDbTrace
 10
1073.984157216803
 20
21.97
 30
0.0
 11
1073.984157216803
 21
22.03
 31
0.0
 12
1074.164157216803
 22
22.0
 32
0.0
 13
1074.164157216803
 23
22.0
 33
0.0
  0
MTEXT
  5
215
330
20C
100
AcDbEntity
  8
Cotation
 62
     0
100
AcDbMText
 10
1064.164157216803
 20
22.0
 30
0.0
 40
0.18
 41
0.0
 46
0.0
 71
     5
 72
     1
  1
\A1;20.0000
 73
     1
 44
1.0
  0
POINT
  5
216
330
20C
100
AcDbEntity
  8
Defpoints
 62
     0
100
AcDbPoint
 10
1054.164157216803
 20
1.014936472642802
 30
0.0
  0
POINT
  5
217
330
20C
100
AcDbEntity
  8
Defpoints
 62
     0
100
AcDbPoint
 10
1074.164157216803
 20
1.014936472642802
 30
0.0
  0
POINT
  5
218
330
20C
100
AcDbEntity
  8
Defpoints
 62
     0
100
AcDbPoint
 10
1074.164157216803
 20
22.0
 30
0.0
  0
ENDBLK
  5
20E
330
20C
100
AcDbEntity
  8
0
100
AcDbBlockEnd
  0
BLOCK
  5
21A
330
219
100
AcDbEntity
  8
0
100
AcDbBlockBegin
  2
*D6
 70
     1
 10
0.0
 20
0.0
 30
0.0
  3
*D6
  1
*D6
  0
LINE
  5
21C
330
219
100
AcDbEntity
  8
Cotation
 62
     0
370
    -2
100
AcDbLine
 10
1062.664157216803
 20
8.077436472642802
 30
0.0
 11
1062.664157216803
 21
18.18
 31
0.0
  0
LINE
  5
21D
330
219
100
AcDbEntity
  8
Cotation
 62
     0
370
    -2
100
AcDbLine
 10
1065.664157216803
 20
8.077436472642802
 30
0.0
 11
1065.664157216803
 21
18.18
 31
0.0
  0
LINE
  5
21E
330
219
100
AcDbEntity
  8
Cotation
 62
     0
370
    -2
100
AcDbLine
 10
1062.844157216803
 20
18.0
 30
0.0
 11
1063.628442931089
 21
18.0
 31
0.0
  0
LINE
  5
21F
330
219
100
AcDbEntity
  8
Cotation
 62
     0
370
    -2
100
AcDbLine
 10
1065.484157216803
 20
18.0
 30
0.0
 11
1064.699871502517
 21
18.0
 31
0.0
  0
SOLID
  5
220
330
219
100
AcDbEntity
  8
Cotation
 62
     0
100
AcDbTrace
 10
1062.844157216803
 20
18.03
 30
0.0
 11
1062.844157216803
 21
17.97
 31
0.0
 12
1062.664157216803
 22
18.0
 32
0.0
 13
1062.664157216803
 23
18.0
 33
0.0
  0
SOLID
  5
221
330
219
100
AcDbEntity
  8
Cotation
 62
     0
100
AcDbTrace
 10
1065.484157216803
 20
17.97
 30
0.0
 11
1065.484157216803
 21
18.03
 31
0.0
 12
1065.664157216803
 22
18.0
 32
0.0
 13
1065.664157216803
 23
18.0
 33
0.0
  0
MTEXT
  5
222
330
219
100
AcDbEntity
  8
Cotation
 62
     0
100
AcDbMText
 10
1064.164157216803
 20
18.0
 30
0.0
 40
0.18
 41
0.0
 46
0.0
 71
     5
 72
     1
  1
\A1;3.0000
 73
     1
 44
1.0
  0
POINT
  5
223
330
219
100
AcDbEntity
  8
Defpoints
 62
     0
100
AcDbPoint
 10
1062.664157216803
 20
8.014936472642802
 30
0.0
  0
POINT
  5
224
330
219
100
AcDbEntity
  8
Defpoints
 62
     0
100
AcDbPoint
 10
1065.664157216803
 20
8.014936472642802
 30
0.0
  0
POINT
  5
225
330
219
100
AcDbEntity
  8
Defpoints
 62
     0
100
AcDbPoint
 10
1065.664157216803
 20
18.0
 30
0.0
  0
ENDBLK
  5
21B
330
219
100
AcDbEntity
  8
0
100
AcDbBlockEnd
  0
BLOCK
  5
227
330
226
100
AcDbEntity
  8
0
100
AcDbBlockBegin
  2
*D7
 70
     1
 10
0.0
 20
0.0
 30
0.0
  3
*D7
  1
*D7
  0
LINE
  5
229
330
226
100
AcDbEntity
  8
Cotation
 62
     0
370
    -2
100
AcDbLine
 10
1065.9375
 20
8.0
 30
0.0
 11
1047.82
 21
8.000000000000002
 31
0.0
  0
LINE
  5
22A
330
226
100
AcDbEntity
  8
Cotation
 62
     0
370
    -2
100
AcDbLine
 10
1054.9375
 20
1.0
 30
0.0
 11
1047.82
 21
1.0
 31
0.0
  0
LINE
  5
22B
330
226
100
AcDbEntity
  8
Cotation
 62
     0
370
    -2
100
AcDbLine
 10
1048.0
 20
7.820000000000002
 30
0.0
 11
1048.0
 21
4.68
 31
0.0
  0
LINE
  5
22C
330
226
100
AcDbEntity
  8
Cotation
 62
     0
370
    -2
100
AcDbLine
 10
1048.0
 20
1.18
 30
0.0
 11
1048.0
 21
4.320000000000001
 31
0.0
  0
SOLID
  5
22D
330
226
100
AcDbEntity
  8
Cotation
 62
     0
100
AcDbTrace
 10
1048.03
 20
7.820000000000002
 30
0.0
 11
1047.97
 21
7.820000000000002
 31
0.0
 12
1048.0
 22
8.000000000000002
 32
0.0
 13
1048.0
 23
8.000000000000002
 33
0.0
  0
SOLID
  5
22E
330
226
100
AcDbEntity
  8
Cotation
 62
     0
100
AcDbTrace
 10
1047.97
 20
1.18
 30
0.0
 11
1048.03
 21
1.18
 31
0.0
 12
1048.0
 22
1.0
 32
0.0
 13
1048.0
 23
1.0
 33
0.0
  0
MTEXT
  5
22F
330
226
100
AcDbEntity
  8
Cotation
 62
     0
100
AcDbMText
 10
1048.0
 20
4.500000000000001
 30
0.0
 40
0.18
 41
0.0
 46
0.0
 71
     5
 72
     1
  1
\A1;7.0000
 73
     1
 44
1.0
  0
POINT
  5
230
330
226
100
AcDbEntity
  8
Defpoints
 62
     0
100
AcDbPoint
 10
1066.0
 20
8.0
 30
0.0
  0
POINT
  5
231
330
226
100
AcDbEntity
  8
Defpoints
 62
     0
100
AcDbPoint
 10
1055.0
 20
1.0
 30
0.0
  0
POINT
  5
232
330
226
100
AcDbEntity
  8
Defpoints
 62
     0
100
AcDbPoint
 10
1048.0
 20
1.0
 30
0.0
  0
ENDBLK
  5
228
330
226
100
AcDbEntity
  8
0
100
AcDbBlockEnd
  0
BLOCK
  5
234
330
233
100
AcDbEntity
  8
0
100
AcDbBlockBegin
  2
*D8
 70
     1
 10
0.0
 20
0.0
 30
0.0
  3
*D8
  1
*D8
  0
LINE
  5
236
330
233
100
AcDbEntity
  8
Cotation
 62
     0
370
    -2
100
AcDbLine
 10
1062.583520071451
 20
8.0
 30
0.0
 11
1035.482817669561
 21
8.0
 31
0.0
  0
LINE
  5
237
330
233
100
AcDbEntity
  8
Cotation
 62
     0
370
    -2
100
AcDbLine
 10
1064.101657216803
 20
-19.98506352735719
 30
0.0
 11
1035.482817669561
 21
-19.98506352735719
 31
0.0
  0
LINE
  5
238
330
233
100
AcDbEntity
  8
Cotation
 62
     0
370
    -2
100
AcDbLine
 10
1035.662817669561
 20
7.82
 30
0.0
 11
1035.662817669561
 21
-5.812531763678596
 31
0.0
  0
LINE
  5
239
330
233
100
AcDbEntity
  8
Cotation
 62
     0
370
    -2
100
AcDbLine
 10
1035.662817669561
 20
-19.80506352735719
 30
0.0
 11
1035.662817669561
 21
-6.172531763678593
 31
0.0
  0
SOLID
  5
23A
330
233
100
AcDbEntity
  8
Cotation
 62
     0
100
AcDbTrace
 10
1035.692817669561
 20
7.82
 30
0.0
 11
1035.632817669561
 21
7.82
 31
0.0
 12
1035.662817669561
 22
8.0
 32
0.0
 13
1035.662817669561
 23
8.0
 33
0.0
  0
SOLID
  5
23B
330
233
100
AcDbEntity
  8
Cotation
 62
     0
100
AcDbTrace
 10
1035.632817669561
 20
-19.80506352735719
 30
0.0
 11
1035.692817669561
 21
-19.80506352735719
 31
0.0
 12
1035.662817669561
 22
-19.98506352735719
 32
0.0
 13
1035.662817669561
 23
-19.98506352735719
 33
0.0
  0
MTEXT
  5
23C
330
233
100
AcDbEntity
  8
Cotation
 62
     0
100
AcDbMText
 10
1035.662817669561
 20
-5.992531763678596
 30
0.0
 40
0.18
 41
0.0
 46
0.0
 71
     5
 72
     1
  1
\A1;27.9851
 73
     1
 44
1.0
  0
POINT
  5
23D
330
233
100
AcDbEntity
  8
Defpoints
 62
     0
100
AcDbPoint
 10
1062.646020071451
 20
8.0
 30
0.0
  0
POINT
  5
23E
330
233
100
AcDbEntity
  8
Defpoints
 62
     0
100
AcDbPoint
 10
1064.164157216803
 20
-19.98506352735719
 30
0.0
  0
POINT
  5
23F
330
233
100
AcDbEntity
  8
Defpoints
 62
     0
100
AcDbPoint
 10
1035.662817669561
 20
-19.98506352735719
 30
0.0
  0
ENDBLK
  5
235
330
233
100
AcDbEntity
  8
0
100
AcDbBlockEnd
  0
BLOCK
  5
241
330
240
100
AcDbEntity
  8
0
100
AcDbBlockBegin
  2
*D9
 70
     1
 10
0.0
 20
0.0
 30
0.0
  3
*D9
  1
*D9
  0
LINE
  5
243
330
240
100
AcDbEntity
  8
Cotation
 62
     0
370
    -2
100
AcDbLine
 10
299.9375
 20
8.5
 30
0.0
 11
267.9262810721394
 21
8.5
 31
0.0
  0
LINE
  5
244
330
240
100
AcDbEntity
  8
Cotation
 62
     0
370
    -2
100
AcDbLine
 10
299.9375
 20
-28.5
 30
0.0
 11
267.9262810721394
 21
-28.5
 31
0.0
  0
LINE
  5
245
330
240
100
AcDbEntity
  8
Cotation
 62
     0
370
    -2
100
AcDbLine
 10
268.1062810721394
 20
8.32
 30
0.0
 11
268.1062810721394
 21
-9.82
 31
0.0
  0
LINE
  5
246
330
240
100
AcDbEntity
  8
Cotation
 62
     0
370
    -2
100
AcDbLine
 10
268.1062810721394
 20
-28.32
 30
0.0
 11
268.1062810721394
 21
-10.18
 31
0.0
  0
SOLID
  5
247
330
240
100
AcDbEntity
  8
Cotation
 62
     0
100
AcDbTrace
 10
268.1362810721394
 20
8.32
 30
0.0
 11
268.0762810721394
 21
8.32
 31
0.0
 12
268.1062810721394
 22
8.5
 32
0.0
 13
268.1062810721394
 23
8.5
 33
0.0
  0
SOLID
  5
248
330
240
100
AcDbEntity
  8
Cotation
 62
     0
100
AcDbTrace
 10
268.0762810721394
 20
-28.32
 30
0.0
 11
268.1362810721394
 21
-28.32
 31
0.0
 12
268.1062810721394
 22
-28.5
 32
0.0
 13
268.1062810721394
 23
-28.5
 33
0.0
  0
MTEXT
  5
249
330
240
100
AcDbEntity
  8
Cotation
 62
     0
100
AcDbMText
 10
268.1062810721394
 20
-10.0
 30
0.0
 40
0.18
 41
0.0
 46
0.0
 71
     5
 72
     1
  1
\A1;37.0000
 73
     1
 44
1.0
  0
POINT
  5
24A
330
240
100
AcDbEntity
  8
Defpoints
 62
     0
100
AcDbPoint
 10
300.0
 20
8.5
 30
0.0
  0
POINT
  5
24B
330
240
100
AcDbEntity
  8
Defpoints
 62
     0
100
AcDbPoint
 10
300.0
 20
-28.5
 30
0.0
  0
POINT
  5
24C
330
240
100
AcDbEntity
  8
Defpoints
 62
     0
100
AcDbPoint
 10
268.1062810721394
 20
-28.5
 30
0.0
  0
ENDBLK
  5
242
330
240
100
AcDbEntity
  8
0
100
AcDbBlockEnd
  0
BLOCK
  5
24E
330
24D
100
AcDbEntity
  8
0
100
AcDbBlockBegin
  2
*D10
 70
     1
 10
0.0
 20
0.0
 30
0.0
  3
*D10
  1
*D10
  0
LINE
  5
250
330
24D
100
AcDbEntity
  8
Cotation
 62
     0
370
    -2
100
AcDbLine
 10
359.9375
 20
8.0
 30
0.0
 11
339.8199999999999
 21
8.0
 31
0.0
  0
LINE
  5
251
330
24D
100
AcDbEntity
  8
Cotation
 62
     0
370
    -2
100
AcDbLine
 10
347.9375
 20
0.0
 30
0.0
 11
339.8199999999999
 21
0.0000000000000005
 31
0.0
  0
LINE
  5
252
330
24D
100
AcDbEntity
  8
Cotation
 62
     0
370
    -2
100
AcDbLine
 10
339.9999999999999
 20
7.82
 30
0.0
 11
339.9999999999999
 21
4.18
 31
0.0
  0
LINE
  5
253
330
24D
100
AcDbEntity
  8
Cotation
 62
     0
370
    -2
100
AcDbLine
 10
339.9999999999999
 20
0.1800000000000005
 30
0.0
 11
339.9999999999999
 21
3.82
 31
0.0
  0
SOLID
  5
254
330
24D
100
AcDbEntity
  8
Cotation
 62
     0
100
AcDbTrace
 10
340.0299999999999
 20
7.82
 30
0.0
 11
339.9699999999999
 21
7.82
 31
0.0
 12
339.9999999999999
 22
8.0
 32
0.0
 13
339.9999999999999
 23
8.0
 33
0.0
  0
SOLID
  5
255
330
24D
100
AcDbEntity
  8
Cotation
 62
     0
100
AcDbTrace
 10
339.9699999999999
 20
0.1800000000000005
 30
0.0
 11
340.0299999999999
 21
0.1800000000000005
 31
0.0
 12
339.9999999999999
 22
0.0000000000000005
 32
0.0
 13
339.9999999999999
 23
0.0000000000000005
 33
0.0
  0
MTEXT
  5
256
330
24D
100
AcDbEntity
  8
Cotation
 62
     0
100
AcDbMText
 10
339.9999999999999
 20
4.0
 30
0.0
 40
0.18
 41
0.0
 46
0.0
 71
     5
 72
     1
  1
\A1;8.0000
 73
     1
 44
1.0
  0
POINT
  5
257
330
24D
100
AcDbEntity
  8
Defpoints
 62
     0
100
AcDbPoint
 10
360.0
 20
8.0
 30
0.0
  0
POINT
  5
258
330
24D
100
AcDbEntity
  8
Defpoints
 62
     0
100
AcDbPoint
 10
348.0
 20
0.0
 30
0.0
  0
POINT
  5
259
330
24D
100
AcDbEntity
  8
Defpoints
 62
     0
100
AcDbPoint
 10
339.9999999999999
 20
0.0000000000000005
 30
0.0
  0
ENDBLK
  5
24F
330
24D
100
AcDbEntity
  8
0
100
AcDbBlockEnd
  0
BLOCK
  5
25B
330
25A
100
AcDbEntity
  8
0
100
AcDbBlockBegin
  2
*D11
 70
     1
 10
0.0
 20
0.0
 30
0.0
  3
*D11
  1
*D11
  0
LINE
  5
25D
330
25A
100
AcDbEntity
  8
Cotation
 62
     0
370
    -2
100
AcDbLine
 10
359.9375
 20
8.0
 30
0.0
 11
330.2836993192186
 21
8.000000000000004
 31
0.0
  0
LINE
  5
25E
330
25A
100
AcDbEntity
  8
Cotation
 62
     0
370
    -2
100
AcDbLine
 10
359.9375
 20
-27.99999999999994
 30
0.0
 11
330.2836993192186
 21
-27.99999999999994
 31
0.0
  0
LINE
  5
25F
330
25A
100
AcDbEntity
  8
Cotation
 62
     0
370
    -2
100
AcDbLine
 10
330.4636993192186
 20
7.820000000000004
 30
0.0
 11
330.4636993192186
 21
-9.819999999999968
 31
0.0
  0
LINE
  5
260
330
25A
100
AcDbEntity
  8
Cotation
 62
     0
370
    -2
100
AcDbLine
 10
330.4636993192186
 20
-27.81999999999994
 30
0.0
 11
330.4636993192186
 21
-10.17999999999997
 31
0.0
  0
SOLID
  5
261
330
25A
100
AcDbEntity
  8
Cotation
 62
     0
100
AcDbTrace
 10
330.4936993192186
 20
7.820000000000004
 30
0.0
 11
330.4336993192186
 21
7.820000000000004
 31
0.0
 12
330.4636993192186
 22
8.000000000000004
 32
0.0
 13
330.4636993192186
 23
8.000000000000004
 33
0.0
  0
SOLID
  5
262
330
25A
100
AcDbEntity
  8
Cotation
 62
     0
100
AcDbTrace
 10
330.4336993192186
 20
-27.81999999999994
 30
0.0
 11
330.4936993192186
 21
-27.81999999999994
 31
0.0
 12
330.4636993192186
 22
-27.99999999999994
 32
0.0
 13
330.4636993192186
 23
-27.99999999999994
 33
0.0
  0
MTEXT
  5
263
330
25A
100
AcDbEntity
  8
Cotation
 62
     0
100
AcDbMText
 10
330.4636993192186
 20
-9.999999999999968
 30
0.0
 40
0.18
 41
0.0
 46
0.0
 71
     5
 72
     1
  1
\A1;36.0000
 73
     1
 44
1.0
  0
POINT
  5
264
330
25A
100
AcDbEntity
  8
Defpoints
 62
     0
100
AcDbPoint
 10
360.0
 20
8.0
 30
0.0
  0
POINT
  5
265
330
25A
100
AcDbEntity
  8
Defpoints
 62
     0
100
AcDbPoint
 10
360.0
 20
-27.99999999999994
 30
0.0
  0
POINT
  5
266
330
25A
100
AcDbEntity
  8
Defpoints
 62
     0
100
AcDbPoint
 10
330.4636993192186
 20
-27.99999999999994
 30
0.0
  0
ENDBLK
  5
25C
330
25A
100
AcDbEntity
  8
0
100
AcDbBlockEnd
  0
BLOCK
  5
268
330
267
100
AcDbEntity
  8
0
100
AcDbBlockBegin
  2
*D12
 70
     1
 10
0.0
 20
0.0
 30
0.0
  3
*D12
  1
*D12
  0
LINE
  5
26A
330
267
100
AcDbEntity
  8
Cotation
 62
     0
370
    -2
100
AcDbLine
 10
55.09029983698801
 20
-71.94192475131482
 30
0.0
 11
54.2845263176474
 21
-87.20953915862277
 31
0.0
  0
LINE
  5
26B
330
267
100
AcDbEntity
  8
Cotation
 62
     0
370
    -2
100
AcDbLine
 10
321.1291354518476
 20
-85.98256287170486
 30
0.0
 11
320.323361932507
 21
-101.2501772790128
 31
0.0
  0
LINE
  5
26C
330
267
100
AcDbEntity
  8
Cotation
 62
     0
370
    -2
100
AcDbLine
 10
54.47376275046615
 20
-87.03927591392787
 30
0.0
 11
186.6320021477106
 21
-94.01414486385399
 31
0.0
  0
LINE
  5
26D
330
267
100
AcDbEntity
  8
Cotation
 62
     0
370
    -2
100
AcDbLine
 10
320.1530986878121
 20
-101.0609408461941
 30
0.0
 11
187.9948592905677
 21
-94.08607189626797
 31
0.0
  0
SOLID
  5
26E
330
267
100
AcDbEntity
  8
Cotation
 62
     0
100
AcDbTrace
 10
54.47534384947647
 20
-87.00931760746839
 30
0.0
 11
54.47218165145583
 21
-87.06923422038734
 31
0.0
 12
54.29401291170932
 22
-87.02978931986596
 32
0.0
 13
54.29401291170932
 23
-87.02978931986596
 33
0.0
  0
SOLID
  5
26F
330
267
100
AcDbEntity
  8
Cotation
 62
     0
100
AcDbTrace
 10
320.1515175888018
 20
-101.0908991526536
 30
0.0
 11
320.1546797868224
 21
-101.0309825397346
 31
0.0
 12
320.3328485265689
 22
-101.070427440256
 32
0.0
 13
320.3328485265689
 23
-101.070427440256
 33
0.0
  0
MTEXT
  5
270
330
267
100
AcDbEntity
  8
Cotation
 62
     0
100
AcDbMText
 10
187.3134307191391
 20
-94.05010838006098
 30
0.0
 40
0.18
 41
0.0
 46
0.0
 71
     5
 72
     1
  1
\A1;266.4091
 73
     1
 44
1.0
  0
POINT
  5
271
330
267
100
AcDbEntity
  8
Defpoints
 62
     0
100
AcDbPoint
 10
55.09359379325951
 20
-71.87951161285758
 30
0.0
  0
POINT
  5
272
330
267
100
AcDbEntity
  8
Defpoints
 62
     0
100
AcDbPoint
 10
321.1324294081191
 20
-85.92014973324763
 30
0.0
  0
POINT
  5
273
330
267
100
AcDbEntity
  8
Defpoints
 62
     0
100
AcDbPoint
 10
320.3328485265689
 20
-101.070427440256
 30
0.0
  0
ENDBLK
  5
269
330
267
100
AcDbEntity
  8
0
100
AcDbBlockEnd
  0
BLOCK
  5
276
330
275
100
AcDbEntity
  8
0
100
AcDbBlockBegin
  2
*D13
 70
     1
 10
0.0
 20
0.0
 30
0.0
  3
*D13
  1
*D13
  0
LINE
  5
278
330
275
100
AcDbEntity
  8
Cotation
 62
     0
370
    -2
100
AcDbLine
 10
54.13706300130801
 20
-134.3213461271311
 30
0.0
 11
54.13706300130798
 21
-152.689009004195
 31
0.0
  0
LINE
  5
279
330
275
100
AcDbEntity
  8
Cotation
 62
     0
370
    -2
100
AcDbLine
 10
1073.399522560322
 20
-135.0642755501079
 30
0.0
 11
1073.399522560322
 21
-152.689009004195
 31
0.0
  0
LINE
  5
27A
330
275
100
AcDbEntity
  8
Cotation
 62
     0
370
    -2
100
AcDbLine
 10
54.31706300130798
 20
-152.509009004195
 30
0.0
 11
562.9882927808151
 21
-152.509009004195
 31
0.0
  0
LINE
  5
27B
330
275
100
AcDbEntity
  8
Cotation
 62
     0
370
    -2
100
AcDbLine
 10
1073.219522560322
 20
-152.509009004195
 30
0.0
 11
564.5482927808152
 21
-152.509009004195
 31
0.0
  0
SOLID
  5
27C
330
275
100
AcDbEntity
  8
Cotation
 62
     0
100
AcDbTrace
 10
54.31706300130798
 20
-152.479009004195
 30
0.0
 11
54.31706300130798
 21
-152.539009004195
 31
0.0
 12
54.13706300130798
 22
-152.509009004195
 32
0.0
 13
54.13706300130798
 23
-152.509009004195
 33
0.0
  0
SOLID
  5
27D
330
275
100
AcDbEntity
  8
Cotation
 62
     0
100
AcDbTrace
 10
1073.219522560322
 20
-152.539009004195
 30
0.0
 11
1073.219522560322
 21
-152.479009004195
 31
0.0
 12
1073.399522560322
 22
-152.509009004195
 32
0.0
 13
1073.399522560322
 23
-152.509009004195
 33
0.0
  0
MTEXT
  5
27E
330
275
100
AcDbEntity
  8
Cotation
 62
     0
100
AcDbMText
 10
563.768292780815
 20
-152.509009004195
 30
0.0
 40
0.18
 41
0.0
 46
0.0
 71
     5
 72
     1
  1
\A1;1019.2625
 73
     1
 44
1.0
  0
POINT
  5
27F
330
275
100
AcDbEntity
  8
Defpoints
 62
     0
100
AcDbPoint
 10
54.13706300130801
 20
-134.2588461271311
 30
0.0
  0
POINT
  5
280
330
275
100
AcDbEntity
  8
Defpoints
 62
     0
100
AcDbPoint
 10
1073.399522560322
 20
-135.0017755501079
 30
0.0
  0
POINT
  5
281
330
275
100
AcDbEntity
  8
Defpoints
 62
     0
100
AcDbPoint
 10
1073.399522560322
 20
-152.509009004195
 30
0.0
  0
ENDBLK
  5
277
330
275
100
AcDbEntity
  8
0
100
AcDbBlockEnd
  0
BLOCK
  5
283
330
282
100
AcDbEntity
  8
0
100
AcDbBlockBegin
  2
*D14
 70
     1
 10
0.0
 20
0.0
 30
0.0
  3
*D14
  1
*D14
  0
LINE
  5
285
330
282
100
AcDbEntity
  8
Cotation
 62
     0
370
    -2
100
AcDbLine
 10
99.9375
 20
18.5
 30
0.0
 11
71.10167457573162
 21
18.5
 31
0.0
  0
LINE
  5
286
330
282
100
AcDbEntity
  8
Cotation
 62
     0
370
    -2
100
AcDbLine
 10
99.9375
 20
-18.5
 30
0.0
 11
71.10167457573162
 21
-18.5
 31
0.0
  0
LINE
  5
287
330
282
100
AcDbEntity
  8
Cotation
 62
     0
370
    -2
100
AcDbLine
 10
71.28167457573163
 20
18.32
 30
0.0
 11
71.28167457573163
 21
0.1800000000000033
 31
0.0
  0
LINE
  5
288
330
282
100
AcDbEntity
  8
Cotation
 62
     0
370
    -2
100
AcDbLine
 10
71.28167457573163
 20
-18.32
 30
0.0
 11
71.28167457573163
 21
-0.1799999999999962
 31
0.0
  0
SOLID
  5
289
330
282
100
AcDbEntity
  8
Cotation
 62
     0
100
AcDbTrace
 10
71.31167457573163
 20
18.32
 30
0.0
 11
71.25167457573163
 21
18.32
 31
0.0
 12
71.28167457573163
 22
18.5
 32
0.0
 13
71.28167457573163
 23
18.5
 33
0.0
  0
SOLID
  5
28A
330
282
100
AcDbEntity
  8
Cotation
 62
     0
100
AcDbTrace
 10
71.25167457573163
 20
-18.32
 30
0.0
 11
71.31167457573163
 21
-18.32
 31
0.0
 12
71.28167457573163
 22
-18.5
 32
0.0
 13
71.28167457573163
 23
-18.5
 33
0.0
  0
MTEXT
  5
28B
330
282
100
AcDbEntity
  8
Cotation
 62
     0
100
AcDbMText
 10
71.28167457573163
 20
0.0000000000000036
 30
0.0
 40
0.18
 41
0.0
 46
0.0
 71
     5
 72
     1
  1
\A1;37.0000
 73
     1
 44
1.0
  0
POINT
  5
28C
330
282
100
AcDbEntity
  8
Defpoints
 62
     0
100
AcDbPoint
 10
100.0
 20
18.5
 30
0.0
  0
POINT
  5
28D
330
282
100
AcDbEntity
  8
Defpoints
 62
     0
100
AcDbPoint
 10
100.0
 20
-18.5
 30
0.0
  0
POINT
  5
28E
330
282
100
AcDbEntity
  8
Defpoints
 62
     0
100
AcDbPoint
 10
71.28167457573163
 20
-18.5
 30
0.0
  0
ENDBLK
  5
284
330
282
100
AcDbEntity
  8
0
100
AcDbBlockEnd
  0
ENDSEC
  0
SECTION
  2
ENTITIES
  0
LINE
  5
65
330
145
100
AcDbEntity
  8
contours
100
AcDbLine
 10
56.66143739228174
 20
-34.32146525224166
 30
0.0
 11
134.276211
 21
-39.10641855555556
 31
0.0
  0
LINE
  5
66
330
145
100
AcDbEntity
  8
contours
100
AcDbLine
 10
134.276211
 20
-39.10641855555556
 30
0.0
 11
189.226825
 21
-42.0998396
 31
0.0
  0
LINE
  5
67
330
145
100
AcDbEntity
  8
contours
100
AcDbLine
 10
189.226825
 20
-42.0998396
 30
0.0
 11
262.6368551333333
 21
-45.59215897777778
 31
0.0
  0
LINE
  5
68
330
145
100
AcDbEntity
  8
contours
100
AcDbLine
 10
262.6368551333333
 20
-45.59215897777778
 30
0.0
 11
322.0980112278987
 21
-48.41674626890653
 31
0.0
  0
LINE
  5
6A
330
145
100
AcDbEntity
  8
contours
100
AcDbLine
 10
323.0711507812798
 20
-49.46386465395761
 30
0.0
 11
322.1573979417282
 21
-84.95960264756428
 31
0.0
  0
LINE
  5
6C
330
145
100
AcDbEntity
  8
contours
100
AcDbLine
 10
321.1324294081192
 20
-85.92014973324751
 30
0.0
 11
234.0568344
 21
-82.51099124444443
 31
0.0
  0
LINE
  5
6D
330
145
100
AcDbEntity
  8
contours
100
AcDbLine
 10
234.0568344
 20
-82.51099124444443
 30
0.0
 11
157.7959280222223
 21
-78.51976506666665
 31
0.0
  0
LINE
  5
6E
330
145
100
AcDbEntity
  8
contours
100
AcDbLine
 10
157.7959280222223
 20
-78.51976506666665
 30
0.0
 11
82.88918877777783
 21
-73.53073375555554
 31
0.0
  0
LINE
  5
6F
330
145
100
AcDbEntity
  8
contours
100
AcDbLine
 10
82.88918877777783
 20
-73.53073375555554
 30
0.0
 11
55.09359379325949
 21
-71.87951161285758
 31
0.0
  0
LINE
  5
70
330
145
100
AcDbEntity
  8
contours
100
AcDbLine
 10
54.13706300130706
 20
-70.82108047960001
 30
0.0
 11
55.62162302091522
 21
-35.2590618315111
 31
0.0
  0
LINE
  5
71
330
145
100
AcDbEntity
  8
contours
100
AcDbLine
 10
322.9328624444444
 20
-49.15575357777778
 30
0.0
 11
414.80232
 21
-51.08009426666667
 31
0.0
  0
SPLINE
  5
72
330
145
100
AcDbEntity
  8
contours
100
AcDbSpline
210
0.0
220
0.0
230
1.0
 70
     8
 71
     3
 72
     8
 73
     4
 74
     0
 42
0.000000001
 43
0.001
 40
0.0
 40
0.0
 40
0.0
 40
0.0
 40
1.0
 40
1.0
 40
1.0
 40
1.0
 10
414.80232
 20
-51.08009426666667
 30
0.0
 10
457.8737773333333
 20
-51.81684948888889
 30
0.0
 10
536.0533686666666
 20
-53.47978748888889
 30
0.0
 10
581.3646826666666
 20
-53.28952173333334
 30
0.0
  0
SPLINE
  5
73
330
145
100
AcDbEntity
  8
contours
100
AcDbSpline
210
0.0
220
0.0
230
1.0
 70
     8
 71
     3
 72
     8
 73
     4
 74
     0
 42
0.000000001
 43
0.001
 40
0.0
 40
0.0
 40
0.0
 40
0.0
 40
1.0
 40
1.0
 40
1.0
 40
1.0
 10
581.3646826666666
 20
-53.28952173333334
 30
0.0
 10
626.6759966666666
 20
-53.09925597777778
 30
0.0
 10
645.9239191111111
 20
-52.08652693333333
 30
0.0
 10
686.6332328888888
 20
-51.00882186666666
 30
0.0
  0
LINE
  5
74
330
145
100
AcDbEntity
  8
contours
100
AcDbLine
 10
686.6332328888888
 20
-51.00882186666666
 30
0.0
 11
825.6133968888887
 21
-46.66123933333333
 31
0.0
  0
SPLINE
  5
75
330
145
100
AcDbEntity
  8
contours
100
AcDbSpline
210
0.0
220
0.0
230
1.0
 70
     8
 71
     3
 72
     8
 73
     4
 74
     0
 42
0.000000001
 43
0.001
 40
0.0
 40
0.0
 40
0.0
 40
0.0
 40
1.0
 40
1.0
 40
1.0
 40
1.0
 10
825.6133968888887
 20
-46.66123933333333
 30
0.0
 10
877.8478195555555
 20
-44.57429066666667
 30
0.0
 10
959.211216222222
 20
-40.10131397777778
 30
0.0
 10
1000.015667111111
 20
-38.17988582222223
 30
0.0
  0
LINE
  5
76
330
145
100
AcDbEntity
  8
contours
100
AcDbLine
 10
1000.015667111111
 20
-38.17988582222223
 30
0.0
 11
1070.432284666666
 21
-34.9726504
 31
0.0
  0
ARC
  5
77
330
145
100
AcDbEntity
  8
contours
100
AcDbCircle
 10
1070.062420298987
 20
-41.96909960565765
 30
0.0
 40
7.006218747503932
100
AcDbArc
 50
69.64732602574043
 51
86.97389940571937
  0
SPLINE
  5
78
330
145
100
AcDbEntity
  8
contours
100
AcDbSpline
210
0.0
220
0.0
230
1.0
 70
     8
 71
     3
 72
     8
 73
     4
 74
     0
 42
0.000000001
 43
0.001
 40
0.0
 40
0.0
 40
0.0
 40
0.0
 40
1.0
 40
1.0
 40
1.0
 40
1.0
 10
1072.499167333333
 20
-35.40028197777778
 30
0.0
 10
1072.981033555555
 20
-35.70984588888889
 30
0.0
 10
1072.820985333333
 20
-35.1253806
 30
0.0
 10
1073.283152444444
 20
-36.46935951111111
 30
0.0
  0
SPLINE
  5
79
330
145
100
AcDbEntity
  8
contours
100
AcDbSpline
210
0.0
220
0.0
230
1.0
 70
     8
 71
     3
 72
     8
 73
     4
 74
     0
 42
0.000000001
 43
0.001
 40
0.0
 40
0.0
 40
0.0
 40
0.0
 40
1.0
 40
1.0
 40
1.0
 40
1.0
 10
1073.283152444444
 20
-36.46935951111111
 30
0.0
 10
1073.745319555555
 20
-37.81333842222222
 30
0.0
 10
1073.840230888889
 20
-40.94390535555555
 30
0.0
 10
1073.496964
 20
-43.66781828888889
 30
0.0
  0
SPLINE
  5
7A
330
145
100
AcDbEntity
  8
contours
100
AcDbSpline
210
0.0
220
0.0
230
1.0
 70
     8
 71
     3
 72
     8
 73
     4
 74
     0
 42
0.000000001
 43
0.001
 40
0.0
 40
0.0
 40
0.0
 40
0.0
 40
1.0
 40
1.0
 40
1.0
 40
1.0
 10
1073.496964
 20
-43.66781828888889
 30
0.0
 10
1073.153697111111
 20
-46.39173122222222
 30
0.0
 10
1072.604379777778
 20
-49.6335558
 30
0.0
 10
1070.931168888889
 20
-52.57680337777778
 30
0.0
  0
SPLINE
  5
7B
330
145
100
AcDbEntity
  8
contours
100
AcDbSpline
210
0.0
220
0.0
230
1.0
 70
     8
 71
     3
 72
     8
 73
     4
 74
     0
 42
0.000000001
 43
0.001
 40
0.0
 40
0.0
 40
0.0
 40
0.0
 40
1.0
 40
1.0
 40
1.0
 40
1.0
 10
1070.931168888889
 20
-52.57680337777778
 30
0.0
 10
1069.257958
 20
-55.52005095555555
 30
0.0
 10
1065.542982222222
 20
-59.29853237777778
 30
0.0
 10
1063.376362222222
 20
-60.63052531111111
 30
0.0
  0
SPLINE
  5
7C
330
145
100
AcDbEntity
  8
contours
100
AcDbSpline
210
0.0
220
0.0
230
1.0
 70
     8
 71
     3
 72
     8
 73
     4
 74
     0
 42
0.000000001
 43
0.001
 40
0.0
 40
0.0
 40
0.0
 40
0.0
 40
1.0
 40
1.0
 40
1.0
 40
1.0
 10
1063.376362222222
 20
-60.63052531111111
 30
0.0
 10
1061.209742222222
 20
-61.96251824444445
 30
0.0
 10
1058.667682
 20
-63.17591575555556
 30
0.0
 10
1052.614297555556
 20
-64.3906397111111
 30
0.0
  0
SPLINE
  5
7D
330
145
100
AcDbEntity
  8
contours
100
AcDbSpline
210
0.0
220
0.0
230
1.0
 70
     8
 71
     3
 72
     8
 73
     4
 74
     0
 42
0.000000001
 43
0.001
 40
0.0
 40
0.0
 40
0.0
 40
0.0
 40
1.0
 40
1.0
 40
1.0
 40
1.0
 10
1052.614297555556
 20
-64.3906397111111
 30
0.0
 10
1046.560913111111
 20
-65.60536648888889
 30
0.0
 10
1040.291769777778
 20
-65.79314868888888
 30
0.0
 10
1015.552931777778
 20
-67.61516971111111
 30
0.0
  0
LINE
  5
7E
330
145
100
AcDbEntity
  8
contours
100
AcDbLine
 10
1015.552931777778
 20
-67.61516971111111
 30
0.0
 11
904.1549946666667
 21
-75.24126006666667
 31
0.0
  0
SPLINE
  5
7F
330
145
100
AcDbEntity
  8
contours
100
AcDbSpline
210
0.0
220
0.0
230
1.0
 70
     8
 71
     3
 72
     8
 73
     4
 74
     0
 42
0.000000001
 43
0.001
 40
0.0
 40
0.0
 40
0.0
 40
0.0
 40
1.0
 40
1.0
 40
1.0
 40
1.0
 10
904.1549946666667
 20
-75.24126006666667
 30
0.0
 10
859.0881697777778
 20
-78.25846962222222
 30
0.0
 10
792.5066982222223
 20
-83.32886842222221
 30
0.0
 10
745.1474386666666
 20
-85.64695426666665
 30
0.0
  0
SPLINE
  5
80
330
145
100
AcDbEntity
  8
contours
100
AcDbSpline
210
0.0
220
0.0
230
1.0
 70
     8
 71
     3
 72
     8
 73
     4
 74
     0
 42
0.000000001
 43
0.001
 40
0.0
 40
0.0
 40
0.0
 40
0.0
 40
1.0
 40
1.0
 40
1.0
 40
1.0
 10
745.1474386666666
 20
-85.64695426666665
 30
0.0
 10
697.7881791111112
 20
-87.9650401111111
 30
0.0
 10
667.0724671111111
 20
-88.85019624444445
 30
0.0
 10
620.065308
 20
-89.70945002222221
 30
0.0
  0
SPLINE
  5
81
330
145
100
AcDbEntity
  8
contours
100
AcDbSpline
210
0.0
220
0.0
230
1.0
 70
     8
 71
     3
 72
     8
 73
     4
 74
     0
 42
0.000000001
 43
0.001
 40
0.0
 40
0.0
 40
0.0
 40
0.0
 40
1.0
 40
1.0
 40
1.0
 40
1.0
 10
620.065308
 20
-89.70945002222221
 30
0.0
 10
573.0581488888888
 20
-90.5687038
 30
0.0
 10
508.7333826666666
 20
-91.05146748888889
 30
0.0
 10
463.1246346666666
 20
-90.35089597777777
 30
0.0
  0
SPLINE
  5
82
330
145
100
AcDbEntity
  8
contours
100
AcDbSpline
210
0.0
220
0.0
230
1.0
 70
     8
 71
     3
 72
     8
 73
     4
 74
     0
 42
0.000000001
 43
0.001
 40
0.0
 40
0.0
 40
0.0
 40
0.0
 40
1.0
 40
1.0
 40
1.0
 40
1.0
 10
463.1246346666666
 20
-90.35089597777777
 30
0.0
 10
417.5158866666666
 20
-89.65032446666665
 30
0.0
 10
369.9434364444444
 20
-87.31728366666667
 30
0.0
 10
346.4525851111111
 20
-86.28840022222221
 30
0.0
  0
SPLINE
  5
83
330
145
100
AcDbEntity
  8
contours
100
AcDbSpline
210
0.0
220
0.0
230
1.0
 70
     8
 71
     3
 72
     8
 73
     4
 74
     0
 42
0.000000001
 43
0.001
 40
0.0
 40
0.0
 40
0.0
 40
0.0
 40
1.0
 40
1.0
 40
1.0
 40
1.0
 10
346.4525851111111
 20
-86.28840022222221
 30
0.0
 10
322.9617337777777
 20
-85.25951677777776
 30
0.0
 10
322.1488773333334
 20
-85.00550548888889
 30
0.0
 10
322.1488773333334
 20
-85.00550548888889
 30
0.0
  0
SPLINE
  5
84
330
145
100
AcDbEntity
  8
contours
100
AcDbSpline
210
0.0
220
0.0
230
1.0
 70
     8
 71
     3
 72
     8
 73
     4
 74
     0
 42
0.000000001
 43
0.001
 40
0.0
 40
0.0
 40
0.0
 40
0.0
 40
1.0
 40
1.0
 40
1.0
 40
1.0
 10
322.9328624444444
 20
-56.35421235555555
 30
0.0
 10
322.9328624444444
 20
-56.35421235555555
 30
0.0
 10
424.5167475555555
 20
-59.04257375555555
 30
0.0
 10
463.8373586666667
 20
-59.63272017777778
 30
0.0
  0
LINE
  5
85
330
145
100
AcDbEntity
  8
contours
100
AcDbLine
 10
463.8373586666667
 20
-59.63272017777778
 30
0.0
 11
558.8427566666667
 21
-60.27416613333333
 31
0.0
  0
LINE
  5
86
330
145
100
AcDbEntity
  8
contours
100
AcDbLine
 10
558.8427566666667
 20
-60.27416613333333
 30
0.0
 11
665.1091317777777
 21
-58.84872942222222
 31
0.0
  0
LINE
  5
87
330
145
100
AcDbEntity
  8
contours
100
AcDbLine
 10
665.1091317777777
 20
-58.84872942222222
 30
0.0
 11
776.1507068888889
 21
-55.21386242222223
 31
0.0
  0
SPLINE
  5
88
330
145
100
AcDbEntity
  8
contours
100
AcDbSpline
210
0.0
220
0.0
230
1.0
 70
     8
 71
     3
 72
     8
 73
     4
 74
     0
 42
0.000000001
 43
0.001
 40
0.0
 40
0.0
 40
0.0
 40
0.0
 40
1.0
 40
1.0
 40
1.0
 40
1.0
 10
776.1507068888889
 20
-55.21386242222223
 30
0.0
 10
817.4668831111111
 20
-53.56937046666667
 30
0.0
 10
869.0891093333332
 20
-50.80484011111111
 30
0.0
 10
912.9926988888889
 20
-48.7993944
 30
0.0
  0
SPLINE
  5
89
330
145
100
AcDbEntity
  8
contours
100
AcDbSpline
210
0.0
220
0.0
230
1.0
 70
     8
 71
     3
 72
     8
 73
     4
 74
     0
 42
0.000000001
 43
0.001
 40
0.0
 40
0.0
 40
0.0
 40
0.0
 40
1.0
 40
1.0
 40
1.0
 40
1.0
 10
912.9926988888889
 20
-48.7993944
 30
0.0
 10
956.8962884444444
 20
-46.7939486888889
 30
0.0
 10
1030.004854444444
 20
-43.82028037777778
 30
0.0
 10
1039.571566888889
 20
-43.16891713333334
 30
0.0
  0
SPLINE
  5
8B
330
145
100
AcDbEntity
  8
contours
100
AcDbSpline
210
0.0
220
0.0
230
1.0
 70
     8
 71
     3
 72
     8
 73
     4
 74
     0
 42
0.000000001
 43
0.001
 40
0.0
 40
0.0
 40
0.0
 40
0.0
 40
1.0
 40
1.0
 40
1.0
 40
1.0
 10
1057.674598444444
 20
-41.17330404444445
 30
0.0
 10
1061.953567111111
 20
-40.45982933333333
 30
0.0
 10
1063.064337333333
 20
-40.20248217777778
 30
0.0
 10
1065.300694444444
 20
-39.46277773333333
 30
0.0
  0
ARC
  5
8C
330
145
100
AcDbEntity
  8
contours
100
AcDbCircle
 10
1057.763382577016
 20
-14.7262596444421
 30
0.0
 40
25.85935802275305
100
AcDbArc
 50
286.9461796699993
 51
300.9787618950557
  0
ARC
  5
8D
330
145
100
AcDbEntity
  8
contours
100
AcDbCircle
 10
1068.344290483737
 20
-31.74434251278396
 30
0.0
 40
5.83091495341597
100
AcDbArc
 50
297.9107844186814
 51
317.4771095076019
  0
LINE
  5
9A
330
145
100
AcDbEntity
  8
contours
100
AcDbLine
 10
45.95012528654245
 20
-53.66996916576405
 30
0.0
 11
45.95012528654245
 21
-53.66996916576405
 31
0.0
  0
LINE
  5
B5
330
145
100
AcDbEntity
  8
axes
100
AcDbLine
 10
360.0
 20
-30.05310563797883
 30
0.0
 11
360.0
 21
9.946894362021169
 31
0.0
  0
LINE
  5
B6
330
145
100
AcDbEntity
  8
axes
100
AcDbLine
 10
339.9999999999999
 20
0.0
 30
0.0
 11
379.9999999999999
 21
0.0
 31
0.0
  0
ARC
  5
BD
330
145
100
AcDbEntity
  8
contours
100
AcDbCircle
 10
360.0
 20
-15.95454545454539
 30
0.0
 40
12.04545454545455
100
AcDbArc
 50
184.9791058439987
 51
355.0208941560013
  0
LINE
  5
BE
330
145
100
AcDbEntity
  8
contours
100
AcDbLine
 10
348.0
 20
0.0
 30
0.0
 11
348.0
 21
-17.0
 31
0.0
  0
LINE
  5
BF
330
145
100
AcDbEntity
  8
contours
100
AcDbLine
 10
372.0
 20
0.0
 30
0.0
 11
372.0
 21
-17.00000000000005
 31
0.0
  0
LINE
  5
C0
330
145
100
AcDbEntity
  8
contours
100
AcDbLine
 10
360.0
 20
8.0
 30
0.0
 11
356.0
 21
8.0
 31
0.0
  0
LINE
  5
C1
330
145
100
AcDbEntity
  8
contours
100
AcDbLine
 10
356.0
 20
8.0
 30
0.0
 11
364.0
 21
8.0
 31
0.0
  0
LINE
  5
C2
330
145
100
AcDbEntity
  8
contours
100
AcDbLine
 10
364.0
 20
8.0
 30
0.0
 11
372.0
 21
0.0
 31
0.0
  0
LINE
  5
C3
330
145
100
AcDbEntity
  8
contours
100
AcDbLine
 10
356.0
 20
8.0
 30
0.0
 11
348.0
 21
0.0
 31
0.0
  0
LINE
  5
C4
330
145
100
AcDbEntity
  8
axes
100
AcDbLine
 10
100.0
 20
-20.0
 30
0.0
 11
100.0
 21
20.0
 31
0.0
  0
LINE
  5
C5
330
145
100
AcDbEntity
  8
axes
100
AcDbLine
 10
79.99999999999994
 20
0.0
 30
0.0
 11
119.9999999999999
 21
0.0
 31
0.0
  0
LINE
  5
C6
330
145
100
AcDbEntity
  8
Epure
100
AcDbLine
 10
63.0
 20
-20.05310563797883
 30
0.0
 11
63.0
 21
19.94689436202117
 31
0.0
  0
LINE
  5
C7
330
145
100
AcDbEntity
  8
Epure
100
AcDbLine
 10
37.0
 20
-20.05310563797883
 30
0.0
 11
37.0
 21
19.94689436202117
 31
0.0
  0
LINE
  5
C8
330
145
100
AcDbEntity
  8
Epure
100
AcDbLine
 10
29.99999999999994
 20
17.94689436202117
 30
0.0
 11
69.99999999999994
 21
17.94689436202117
 31
0.0
  0
LINE
  5
C9
330
145
100
AcDbEntity
  8
Epure
100
AcDbLine
 10
29.99999999999994
 20
-18.05310563797883
 30
0.0
 11
69.99999999999994
 21
-18.05310563797883
 31
0.0
  0
ELLIPSE
  5
CA
330
145
100
AcDbEntity
  8
contours
100
AcDbEllipse
 10
100.0
 20
0.0
 30
0.0
 11
0.0
 21
18.5
 31
0.0
210
0.0
220
0.0
230
1.0
 40
0.7222222222222222
 41
0.0
 42
6.283185307179586
  0
LINE
  5
CB
330
145
100
AcDbEntity
  8
axes
100
AcDbLine
 10
15.66334298114132
 20
-34.23077648323809
 30
0.0
 11
1110.999989374414
 21
-35.02915556120636
 31
0.0
  0
ARC
  5
CC
330
145
100
AcDbEntity
  8
contours
100
AcDbCircle
 10
1033.503071342245
 20
94.98876456439405
 30
0.0
 40
138.2908950375636
100
AcDbArc
 50
272.5150670263237
 51
280.0662952279699
  0
LINE
  5
CD
330
145
100
AcDbEntity
  8
axes
100
AcDbLine
 10
1064.164157216803
 20
-29.03816916533602
 30
0.0
 11
1064.164157216803
 21
10.96183083466397
 31
0.0
  0
LINE
  5
CE
330
145
100
AcDbEntity
  8
axes
100
AcDbLine
 10
1044.164157216803
 20
1.014936472642802
 30
0.0
 11
1084.164157216803
 21
1.014936472642802
 31
0.0
  0
LWPOLYLINE
  5
D5
330
145
100
AcDbEntity
  8
contours
100
AcDbPolyline
 90
        5
 70
     0
 43
0.0
 10
1064.164157216803
 20
-19.98506352735719
 42
0.301041460087116
 10
1069.687836351541
 20
-16.32791837058811
 10
1074.164157216803
 20
1.014936472642809
 10
1065.664157216803
 20
8.014936472642802
 10
1064.164157216803
 20
8.014936472642802
  0
LWPOLYLINE
  5
D6
330
145
100
AcDbEntity
  8
contours
100
AcDbPolyline
 90
        5
 70
     0
 43
0.0
 10
1064.164157216803
 20
-19.98506352735719
 42
-0.301041460087116
 10
1058.640478082064
 20
-16.32791837058811
 10
1054.164157216803
 20
1.014936472642809
 10
1062.664157216803
 20
8.014936472642802
 10
1064.164157216803
 20
8.014936472642802
  0
LINE
  5
D7
330
145
100
AcDbEntity
  8
axes
100
AcDbLine
 10
300.0
 20
-30.0
 30
0.0
 11
300.0
 21
10.0
 31
0.0
  0
LINE
  5
D8
330
145
100
AcDbEntity
  8
axes
100
AcDbLine
 10
279.9999999999999
 20
-10.0
 30
0.0
 11
319.9999999999999
 21
-10.0
 31
0.0
  0
ELLIPSE
  5
D9
330
145
100
AcDbEntity
  8
contours
100
AcDbEllipse
 10
300.0
 20
-10.0
 30
0.0
 11
0.0
 21
18.5
 31
0.0
210
0.0
220
0.0
230
1.0
 40
0.7222222222222222
 41
0.0
 42
6.283185307179586
  0
LINE
  5
DA
330
145
100
AcDbEntity
  8
axes
100
AcDbLine
 10
15.59045407812993
 20
-134.2307499192736
 30
0.0
 11
1110.927100471403
 21
-135.0291289972419
 31
0.0
  0
LINE
  5
DE
330
145
100
AcDbEntity
  8
Epure
100
AcDbLine
 10
323.0754128888888
 20
-249.2982983777777
 30
0.0
 11
323.0754128888888
 21
-49.29829837777775
 31
0.0
  0
LINE
  5
DF
330
145
100
AcDbEntity
  8
Epure
100
AcDbLine
 10
155.6633323555556
 20
-234.2599320444444
 30
0.0
 11
155.6633323555556
 21
-34.25993204444445
 31
0.0
  0
LINE
  5
E0
330
145
100
AcDbEntity
  8
Epure
100
AcDbLine
 10
255.6633323555556
 20
-234.2599320444444
 30
0.0
 11
255.6633323555556
 21
-34.25993204444445
 31
0.0
  0
LINE
  5
E1
330
145
100
AcDbEntity
  8
Epure
100
AcDbLine
 10
355.6633323555556
 20
-234.2599320444444
 30
0.0
 11
355.6633323555556
 21
-34.25993204444445
 31
0.0
  0
LINE
  5
E2
330
145
100
AcDbEntity
  8
Epure
100
AcDbLine
 10
455.6633323555556
 20
-234.2599320444444
 30
0.0
 11
455.6633323555556
 21
-34.25993204444445
 31
0.0
  0
LINE
  5
E3
330
145
100
AcDbEntity
  8
Epure
100
AcDbLine
 10
555.6633323555556
 20
-234.2599320444444
 30
0.0
 11
555.6633323555556
 21
-34.25993204444445
 31
0.0
  0
LINE
  5
E4
330
145
100
AcDbEntity
  8
Epure
100
AcDbLine
 10
555.6633323555556
 20
-234.2599320444444
 30
0.0
 11
555.6633323555556
 21
-34.25993204444445
 31
0.0
  0
LINE
  5
E5
330
145
100
AcDbEntity
  8
Epure
100
AcDbLine
 10
655.6633323555556
 20
-234.2599320444444
 30
0.0
 11
655.6633323555556
 21
-34.25993204444445
 31
0.0
  0
LINE
  5
E6
330
145
100
AcDbEntity
  8
Epure
100
AcDbLine
 10
755.6633323555556
 20
-234.2599320444444
 30
0.0
 11
755.6633323555556
 21
-34.25993204444445
 31
0.0
  0
LINE
  5
E7
330
145
100
AcDbEntity
  8
Epure
100
AcDbLine
 10
855.6633323555556
 20
-234.2599320444444
 30
0.0
 11
855.6633323555556
 21
-34.25993204444445
 31
0.0
  0
LINE
  5
E8
330
145
100
AcDbEntity
  8
Epure
100
AcDbLine
 10
955.6633323555556
 20
-234.2599320444444
 30
0.0
 11
955.6633323555556
 21
-34.25993204444445
 31
0.0
  0
LINE
  5
E9
330
145
100
AcDbEntity
  8
Epure
100
AcDbLine
 10
1055.663332355556
 20
-234.2599320444444
 30
0.0
 11
1055.663332355556
 21
-34.25993204444445
 31
0.0
  0
LINE
  5
EB
330
145
100
AcDbEntity
  8
contours
100
AcDbLine
 10
55.62162302091522
 20
-35.2590618315111
 30
0.0
 11
56.66143739228174
 21
-34.32146525224166
 31
0.0
  0
LINE
  5
EC
330
145
100
AcDbEntity
  8
contours
100
AcDbLine
 10
54.13706300130706
 20
-70.82108047960001
 30
0.0
 11
55.09359379325949
 21
-71.87951161285758
 31
0.0
  0
LINE
  5
ED
330
145
100
AcDbEntity
  8
contours
100
AcDbLine
 10
56.66143739228175
 20
-34.32146525224165
 30
0.0
 11
55.09359379325949
 21
-71.87951161285758
 31
0.0
  0
LINE
  5
EE
330
145
100
AcDbEntity
  8
contours
100
AcDbLine
 10
322.0980112278987
 20
-48.41674626890653
 30
0.0
 11
323.0711507812798
 21
-49.46386465395761
 31
0.0
  0
LINE
  5
EF
330
145
100
AcDbEntity
  8
contours
100
AcDbLine
 10
321.1324294081192
 20
-85.92014973324751
 30
0.0
 11
322.1573979417282
 21
-84.95960264756428
 31
0.0
  0
LINE
  5
F0
330
145
100
AcDbEntity
  8
contours
100
AcDbLine
 10
321.1324294081192
 20
-85.92014973324751
 30
0.0
 11
322.0980112278987
 21
-48.41674626890652
 31
0.0
  0
LINE
  5
F1
330
145
100
AcDbEntity
  8
contours
100
AcDbLine
 10
54.90019767806045
 20
-121.2594023677759
 30
0.0
 11
322.0754131545285
 21
-121.4541435031953
 31
0.0
  0
LINE
  5
F2
330
145
100
AcDbEntity
  8
contours
100
AcDbLine
 10
54.90019767822955
 20
-147.2594023677708
 30
0.0
 11
322.0754131545285
 21
-147.4541435031953
 31
0.0
  0
LINE
  5
F4
330
145
100
AcDbEntity
  8
contours
100
AcDbLine
 10
323.0754128888888
 20
-122.4548723922255
 30
0.0
 11
323.0754128888888
 21
-146.4548723922255
 31
0.0
  0
LINE
  5
F5
330
145
100
AcDbEntity
  8
Epure
100
AcDbLine
 10
318.0754128888888
 20
-122.4548723922255
 30
0.0
 11
328.0754128888888
 21
-122.4548723922255
 31
0.0
  0
LINE
  5
F6
330
145
100
AcDbEntity
  8
Epure
100
AcDbLine
 10
318.0754128888695
 20
-138.4548723922255
 30
0.0
 11
328.0754128888695
 21
-138.4548723922255
 31
0.0
  0
LINE
  5
F7
330
145
100
AcDbEntity
  8
Epure
100
AcDbLine
 10
1050.663332355556
 20
-124.9888478321967
 30
0.0
 11
1060.663332355556
 21
-124.9888478321967
 31
0.0
  0
LINE
  5
F8
330
145
100
AcDbEntity
  8
Epure
100
AcDbLine
 10
1050.663332355556
 20
-133.4888478321967
 30
0.0
 11
1060.663332355556
 21
-133.4888478321967
 31
0.0
  0
LINE
  5
F9
330
145
100
AcDbEntity
  8
contours
100
AcDbLine
 10
1055.663332355556
 20
-144.9888478321967
 30
0.0
 11
323.0754128888889
 21
-146.4548723922255
 31
0.0
  0
LINE
  5
FA
330
145
100
AcDbEntity
  8
contours
100
AcDbLine
 10
323.0754128888889
 20
-122.4548723922255
 30
0.0
 11
1055.663332355556
 21
-124.9888478321967
 31
0.0
  0
ARC
  5
FB
330
145
100
AcDbEntity
  8
contours
100
AcDbCircle
 10
1057.11303463122
 20
-143.6157018551839
 30
0.0
 40
18.6831830125854
100
AcDbArc
 50
31.09183439959176
 51
94.45028015975461
  0
ARC
  5
FC
330
145
100
AcDbEntity
  8
contours
100
AcDbCircle
 10
1057.125609126007
 20
-126.3641163193496
 30
0.0
 40
18.6831830125854
100
AcDbArc
 50
265.4661953025493
 51
328.8246410627118
  0
ARC
  5
FD
330
145
100
AcDbEntity
  8
contours
100
AcDbCircle
 10
1071.399523091698
 20
-135.0003177720416
 30
0.0
 40
2.0
100
AcDbArc
 50
328.8246410627114
 51
31.09183439959033
  0
LINE
  5
FE
330
145
100
AcDbEntity
  8
Epure
100
AcDbLine
 10
318.0754128888695
 20
-130.4548723922255
 30
0.0
 11
328.0754128888695
 21
-130.4548723922255
 31
0.0
  0
LINE
  5
FF
330
145
100
AcDbEntity
  8
Epure
100
AcDbLine
 10
1050.663332355556
 20
-136.4888478321967
 30
0.0
 11
1060.663332355556
 21
-136.4888478321967
 31
0.0
  0
LINE
  5
104
330
145
100
AcDbEntity
  8
Epure
100
AcDbLine
 10
1073.692095972222
 20
-239.5511136416667
 30
0.0
 11
1073.692095972222
 21
-135.001988803715
 31
0.0
  0
LINE
  5
105
330
145
100
AcDbEntity
  8
Epure
100
AcDbLine
 10
1073.692095972222
 20
-133.5635130356113
 30
0.0
 11
1073.692095972222
 21
-39.55111364166667
 31
0.0
  0
LINE
  5
106
330
145
100
AcDbEntity
  8
contours
100
AcDbLine
 10
1072.857213470205
 20
-136.4427051213283
 30
0.0
 11
323.0754128888889
 21
-138.4548723922255
 31
0.0
  0
LINE
  5
107
330
145
100
AcDbEntity
  8
contours
100
AcDbLine
 10
323.0754128888889
 20
-130.4548723922255
 30
0.0
 11
1072.8593191925
 21
-133.5600641331253
 31
0.0
  0
LINE
  5
108
330
145
100
AcDbEntity
  8
contours
100
AcDbLine
 10
322.0754131545285
 20
-121.4541435031955
 30
0.0
 11
323.0754128888888
 21
-122.4548723922255
 31
0.0
  0
LINE
  5
109
330
145
100
AcDbEntity
  8
contours
100
AcDbLine
 10
323.0754128888888
 20
-146.4548723922255
 30
0.0
 11
322.0754131545285
 21
-147.4541435031955
 31
0.0
  0
LINE
  5
10A
330
145
100
AcDbEntity
  8
contours
100
AcDbLine
 10
322.0754131545282
 20
-121.4541435031953
 30
0.0
 11
322.0754131545287
 21
-147.4541435031953
 31
0.0
  0
LINE
  5
10B
330
145
100
AcDbEntity
  8
Epure
100
AcDbLine
 10
54.13706300130703
 20
-270.8210804796
 30
0.0
 11
54.13706300130705
 21
-70.82108047960001
 31
0.0
  0
ELLIPSE
  5
10D
330
145
100
AcDbEntity
  8
contours
100
AcDbEllipse
 10
54.90019767843131
 20
-134.2594023677735
 30
0.0
 11
-3.276572032712694E-5
 21
13.00000001189733
 31
0.0
210
0.0
220
0.0
230
1.0
 40
0.0587026673631743
 41
0.0
 42
6.283185307179586
  0
LINE
  5
10F
330
145
100
AcDbEntity
  8
Epure
100
AcDbLine
 10
55.66333235555555
 20
-121.2599586084159
 30
0.0
 11
55.66333235555556
 21
-34.25993204444445
 31
0.0
  0
LINE
  5
111
330
145
100
AcDbEntity
  8
Epure
100
AcDbLine
 10
55.66333235555555
 20
-234.2599320444444
 30
0.0
 11
55.66333235555555
 21
-147.2599586084159
 31
0.0
  0
DIMENSION
  5
113
330
145
100
AcDbEntity
  8
Cotation
100
AcDbDimension
280
     0
  2
*D1
 10
313.0
 20
20.0
 30
0.0
 11
300.0
 21
20.0
 31
0.0
 70
    32
 71
     5
 42
26.0
 73
     0
 74
     0
 75
     0
  3
QCADDimStyle
100
AcDbAlignedDimension
 13
287.0
 23
-9.999999999999998
 33
0.0
 14
313.0
 24
-10.0
 34
0.0
100
AcDbRotatedDimension
1001
ACAD
1000
DSTYLE
1002
{
1070
    41
1040
0.18
1070
    44
1040
0.18
1070
    42
1040
0.0625
1070
   147
1040
0.09
1070
    77
1070
     0
1070
    73
1070
     1
1070
   340
1005
0
1070
   140
1040
0.18
1002
}
  0
DIMENSION
  5
114
330
145
100
AcDbEntity
  8
Cotation
100
AcDbDimension
280
     0
  2
*D2
 10
372.0
 20
25.59845051724264
 30
0.0
 11
360.0
 21
25.59845051724264
 31
0.0
 70
    32
 71
     5
 42
24.0
 73
     0
 74
     0
 75
     0
  3
QCADDimStyle
100
AcDbAlignedDimension
 13
348.0
 23
0.0
 33
0.0
 14
372.0
 24
0.0
 34
0.0
100
AcDbRotatedDimension
1001
ACAD
1000
DSTYLE
1002
{
1070
    41
1040
0.18
1070
    44
1040
0.18
1070
    42
1040
0.0625
1070
   147
1040
0.09
1070
    77
1070
     0
1070
    73
1070
     1
1070
   340
1005
0
1070
   140
1040
0.18
1002
}
  0
DIMENSION
  5
115
330
145
100
AcDbEntity
  8
Cotation
100
AcDbDimension
280
     0
  2
*D3
 10
364.0
 20
17.55322321182352
 30
0.0
 11
360.0
 21
17.55322321182352
 31
0.0
 70
    32
 71
     5
 42
8.0
 73
     0
 74
     0
 75
     0
  3
QCADDimStyle
100
AcDbAlignedDimension
 13
356.0
 23
8.0
 33
0.0
 14
364.0
 24
8.0
 34
0.0
100
AcDbRotatedDimension
1001
ACAD
1000
DSTYLE
1002
{
1070
    41
1040
0.18
1070
    44
1040
0.18
1070
    42
1040
0.0625
1070
   147
1040
0.09
1070
    77
1070
     0
1070
    73
1070
     1
1070
   340
1005
0
1070
   140
1040
0.18
1002
}
  0
DIMENSION
  5
117
330
145
100
AcDbEntity
  8
Cotation
100
AcDbDimension
280
     0
  2
*D4
 10
113.0
 20
30.0
 30
0.0
 11
100.0
 21
30.0
 31
0.0
 70
    32
 71
     5
 42
26.0
 73
     0
 74
     0
 75
     0
  3
QCADDimStyle
100
AcDbAlignedDimension
 13
87.0
 23
0.0000000000000016
 33
0.0
 14
113.0
 24
-0.0000000000000032
 34
0.0
100
AcDbRotatedDimension
1001
ACAD
1000
DSTYLE
1002
{
1070
    41
1040
0.18
1070
    44
1040
0.18
1070
    42
1040
0.0625
1070
   147
1040
0.09
1070
    77
1070
     0
1070
    73
1070
     1
1070
   340
1005
0
1070
   140
1040
0.18
1002
}
  0
DIMENSION
  5
118
330
145
100
AcDbEntity
  8
Cotation
100
AcDbDimension
280
     0
  2
*D5
 10
1074.164157216803
 20
22.0
 30
0.0
 11
1064.164157216803
 21
22.0
 31
0.0
 70
    32
 71
     5
 42
20.0
 73
     0
 74
     0
 75
     0
  3
QCADDimStyle
100
AcDbAlignedDimension
 13
1054.164157216803
 23
1.014936472642802
 33
0.0
 14
1074.164157216803
 24
1.014936472642802
 34
0.0
100
AcDbRotatedDimension
1001
ACAD
1000
DSTYLE
1002
{
1070
    41
1040
0.18
1070
    44
1040
0.18
1070
    42
1040
0.0625
1070
   147
1040
0.09
1070
    77
1070
     0
1070
    73
1070
     1
1070
   340
1005
0
1070
   140
1040
0.18
1002
}
  0
DIMENSION
  5
119
330
145
100
AcDbEntity
  8
Cotation
100
AcDbDimension
280
     0
  2
*D6
 10
1065.664157216803
 20
18.0
 30
0.0
 11
1064.164157216803
 21
18.0
 31
0.0
 70
    32
 71
     5
 42
3.0
 73
     0
 74
     0
 75
     0
  3
QCADDimStyle
100
AcDbAlignedDimension
 13
1062.664157216803
 23
8.014936472642802
 33
0.0
 14
1065.664157216803
 24
8.014936472642802
 34
0.0
100
AcDbRotatedDimension
1001
ACAD
1000
DSTYLE
1002
{
1070
    41
1040
0.18
1070
    44
1040
0.18
1070
    42
1040
0.0625
1070
   147
1040
0.09
1070
    77
1070
     0
1070
    73
1070
     1
1070
   340
1005
0
1070
   140
1040
0.18
1002
}
  0
DIMENSION
  5
11A
330
145
100
AcDbEntity
  8
Cotation
100
AcDbDimension
280
     0
  2
*D7
 10
1048.0
 20
1.0
 30
0.0
 11
1048.0
 21
4.500000000000001
 31
0.0
 70
    32
 71
     5
 42
7.000000000000001
 73
     0
 74
     0
 75
     0
  3
QCADDimStyle
100
AcDbAlignedDimension
 13
1066.0
 23
8.0
 33
0.0
 14
1055.0
 24
1.0
 34
0.0
 50
90.0
100
AcDbRotatedDimension
1001
ACAD
1000
DSTYLE
1002
{
1070
    41
1040
0.18
1070
    44
1040
0.18
1070
    42
1040
0.0625
1070
   147
1040
0.09
1070
    77
1070
     0
1070
    73
1070
     1
1070
   340
1005
0
1070
   140
1040
0.18
1002
}
  0
DIMENSION
  5
11B
330
145
100
AcDbEntity
  8
Cotation
100
AcDbDimension
280
     0
  2
*D8
 10
1035.662817669561
 20
-19.98506352735719
 30
0.0
 11
1035.662817669561
 21
-5.992531763678596
 31
0.0
 70
    32
 71
     5
 42
27.98506352735719
 73
     0
 74
     0
 75
     0
  3
QCADDimStyle
100
AcDbAlignedDimension
 13
1062.646020071451
 23
8.0
 33
0.0
 14
1064.164157216803
 24
-19.98506352735719
 34
0.0
 50
90.0
100
AcDbRotatedDimension
1001
ACAD
1000
DSTYLE
1002
{
1070
    41
1040
0.18
1070
    44
1040
0.18
1070
    42
1040
0.0625
1070
   147
1040
0.09
1070
    77
1070
     0
1070
    73
1070
     1
1070
   340
1005
0
1070
   140
1040
0.18
1002
}
  0
DIMENSION
  5
11C
330
145
100
AcDbEntity
  8
Cotation
100
AcDbDimension
280
     0
  2
*D9
 10
268.1062810721394
 20
-28.5
 30
0.0
 11
268.1062810721394
 21
-10.0
 31
0.0
 70
    32
 71
     5
 42
37.0
 73
     0
 74
     0
 75
     0
  3
QCADDimStyle
100
AcDbAlignedDimension
 13
300.0
 23
8.5
 33
0.0
 14
300.0
 24
-28.5
 34
0.0
 50
90.0
100
AcDbRotatedDimension
1001
ACAD
1000
DSTYLE
1002
{
1070
    41
1040
0.18
1070
    44
1040
0.18
1070
    42
1040
0.0625
1070
   147
1040
0.09
1070
    77
1070
     0
1070
    73
1070
     1
1070
   340
1005
0
1070
   140
1040
0.18
1002
}
  0
DIMENSION
  5
11D
330
145
100
AcDbEntity
  8
Cotation
100
AcDbDimension
280
     0
  2
*D10
 10
339.9999999999999
 20
0.0000000000000005
 30
0.0
 11
339.9999999999999
 21
4.0
 31
0.0
 70
    32
 71
     5
 42
8.0
 73
     0
 74
     0
 75
     0
  3
QCADDimStyle
100
AcDbAlignedDimension
 13
360.0
 23
8.0
 33
0.0
 14
348.0
 24
0.0
 34
0.0
 50
90.0
100
AcDbRotatedDimension
1001
ACAD
1000
DSTYLE
1002
{
1070
    41
1040
0.18
1070
    44
1040
0.18
1070
    42
1040
0.0625
1070
   147
1040
0.09
1070
    77
1070
     0
1070
    73
1070
     1
1070
   340
1005
0
1070
   140
1040
0.18
1002
}
  0
DIMENSION
  5
11E
330
145
100
AcDbEntity
  8
Cotation
100
AcDbDimension
280
     0
  2
*D11
 10
330.4636993192186
 20
-27.99999999999994
 30
0.0
 11
330.4636993192186
 21
-9.999999999999968
 31
0.0
 70
    32
 71
     5
 42
35.99999999999994
 73
     0
 74
     0
 75
     0
  3
QCADDimStyle
100
AcDbAlignedDimension
 13
360.0
 23
8.0
 33
0.0
 14
360.0
 24
-27.99999999999994
 34
0.0
 50
90.0
100
AcDbRotatedDimension
1001
ACAD
1000
DSTYLE
1002
{
1070
    41
1040
0.18
1070
    44
1040
0.18
1070
    42
1040
0.0625
1070
   147
1040
0.09
1070
    77
1070
     0
1070
    73
1070
     1
1070
   340
1005
0
1070
   140
1040
0.18
1002
}
  0
DIMENSION
  5
11F
330
145
100
AcDbEntity
  8
Cotation
100
AcDbDimension
280
     0
  2
*D12
 10
320.3328485265689
 20
-101.070427440256
 30
0.0
 11
187.3134307191391
 21
-94.05010838006098
 31
0.0
 70
    33
 71
     5
 42
266.4090868835709
 73
     0
 74
     0
 75
     0
  3
QCADDimStyle
100
AcDbAlignedDimension
 13
55.09359379325951
 23
-71.87951161285758
 33
0.0
 14
321.1324294081191
 24
-85.92014973324763
 34
0.0
1001
ACAD
1000
DSTYLE
1002
{
1070
    41
1040
0.18
1070
    44
1040
0.18
1070
    42
1040
0.0625
1070
   147
1040
0.09
1070
    77
1070
     0
1070
    73
1070
     1
1070
   340
1005
0
1070
   140
1040
0.18
1002
}
  0
MTEXT
  5
120
330
145
100
AcDbEntity
  8
Cotation
100
AcDbMText
 10
420.0
 20
-110.0
 30
0.0
 40
1.0
 41
0.0
 46
0.0
 71
     5
 72
     1
  1
\H6;Bokken taille adulte , C.Mineau 2014\P\H3;www.labellenote.fr
  7
textstyle0
 73
     1
 44
1.0
  0
DIMENSION
  5
121
330
145
100
AcDbEntity
  8
Cotation
100
AcDbDimension
280
     0
  2
*D13
 10
1073.399522560322
 20
-152.509009004195
 30
0.0
 11
563.768292780815
 21
-152.509009004195
 31
0.0
 70
    32
 71
     5
 42
1019.262459559014
 73
     0
 74
     0
 75
     0
  3
QCADDimStyle
100
AcDbAlignedDimension
 13
54.13706300130801
 23
-134.2588461271311
 33
0.0
 14
1073.399522560322
 24
-135.0017755501079
 34
0.0
100
AcDbRotatedDimension
1001
ACAD
1000
DSTYLE
1002
{
1070
    41
1040
0.18
1070
    44
1040
0.18
1070
    42
1040
0.0625
1070
   147
1040
0.09
1070
    77
1070
     0
1070
    73
1070
     1
1070
   340
1005
0
1070
   140
1040
0.18
1002
}
  0
DIMENSION
  5
122
330
145
100
AcDbEntity
  8
Cotation
100
AcDbDimension
280
     0
  2
*D14
 10
71.28167457573163
 20
-18.5
 30
0.0
 11
71.28167457573163
 21
0.0000000000000036
 31
0.0
 70
    32
 71
     5
 42
37.0
 73
     0
 74
     0
 75
     0
  3
QCADDimStyle
100
AcDbAlignedDimension
 13
100.0
 23
18.5
 33
0.0
 14
100.0
 24
-18.5
 34
0.0
 50
90.0
100
AcDbRotatedDimension
1001
ACAD
1000
DSTYLE
1002
{
1070
    41
1040
0.18
1070
    44
1040
0.18
1070
    42
1040
0.0625
1070
   147
1040
0.09
1070
    77
1070
     0
1070
    73
1070
     1
1070
   340
1005
0
1070
   140
1040
0.18
1002
}
  0
MTEXT
  5
125
330
145
100
AcDbEntity
  8
Textes
100
AcDbMText
 10
580.0
 20
-10.0
 30
0.0
 40
1.0
 41
0.0
 46
0.0
 71
     5
 72
     1
  1
\c0;\H10;Bokken (102 cm)
  7
textstyle1
 73
     1
 44
1.0
  0
MTEXT
  5
126
330
145
100
AcDbEntity
  8
Textes
100
AcDbMText
 10
830.0
 20
-20.0
 30
0.0
 40
1.0
 41
0.0
 46
0.0
 71
     5
 72
     1
  1
\c0;\H6;Auteur : Cristophe Mineau Janvier 2014\P\fArial|b0|i1|c0|p0;www.labellenote.fr\P\fArial|b0|i0|c0|p0;Licence : Creative Commons \fArial|b0|i1|c0|p0;Creative Commons BY-NC-SA\P
  7
textstyle2
 73
     1
 44
1.0
  0
ENDSEC
  0
SECTION
  2
OBJECTS
  0
DICTIONARY
  5
133
330
0
100
AcDbDictionary
281
     1
  3
ACAD_DETAILVIEWSTYLE
350
295
  3
ACAD_GROUP
350
134
  3
ACAD_LAYOUT
350
140
  3
ACAD_MATERIAL
350
169
  3
ACAD_MLEADERSTYLE
350
294
  3
ACAD_MLINESTYLE
350
13D
  3
ACAD_PLOTSETTINGS
350
13F
  3
ACAD_PLOTSTYLENAME
350
135
  3
ACAD_SCALELIST
350
16D
  3
ACAD_SECTIONVIEWSTYLE
350
296
  3
ACAD_TABLESTYLE
350
293
  3
ACAD_VISUALSTYLE
350
150
  3
AcDbVariableDictionary
350
291
  3
QCAD_OBJECTS
350
191
  0
SUN
  5
18F
330
14F
100
AcDbSun
 90
        1
290
     0
 63
     7
421
 16777215
 40
1.0
291
     1
 91
  2455826
 92
 54000000
292
     0
 70
     2
 71
   256
280
     1
  0
DICTIONARY
  5
295
102
{ACAD_REACTORS
330
133
102
}
330
133
100
AcDbDictionary
281
     1
  0
DICTIONARY
  5
134
102
{ACAD_REACTORS
330
133
102
}
330
133
100
AcDbDictionary
281
     1
  0
DICTIONARY
  5
140
102
{ACAD_REACTORS
330
133
102
}
330
133
100
AcDbDictionary
281
     1
  3
Layout1
350
144
  3
Layout2
350
14C
  3
Model
350
148
  0
DICTIONARY
  5
169
102
{ACAD_REACTORS
330
133
102
}
330
133
100
AcDbDictionary
281
     1
  3
ByBlock
350
16B
  3
ByLayer
350
16A
  3
Global
350
16C
  0
DICTIONARY
  5
294
102
{ACAD_REACTORS
330
133
102
}
330
133
100
AcDbDictionary
281
     1
  0
DICTIONARY
  5
13D
102
{ACAD_REACTORS
330
133
102
}
330
133
100
AcDbDictionary
281
     1
  3
Standard
350
13E
  0
DICTIONARY
  5
13F
102
{ACAD_REACTORS
330
133
102
}
330
133
100
AcDbDictionary
281
     1
  0
ACDBDICTIONARYWDFLT
  5
135
102
{ACAD_REACTORS
330
133
102
}
330
133
100
AcDbDictionary
281
     1
  3
Normal
350
136
100
AcDbDictionaryWithDefault
340
136
  0
DICTIONARY
  5
16D
102
{ACAD_REACTORS
330
133
102
}
330
133
100
AcDbDictionary
281
     1
  3
A0
350
16E
  3
A1
350
16F
  3
A2
350
170
  3
A3
350
171
  3
A4
350
172
  3
A5
350
173
  3
A6
350
174
  3
A7
350
175
  3
A8
350
176
  3
A9
350
177
  3
B0
350
178
  3
B1
350
179
  3
B2
350
17A
  3
B3
350
17B
  3
B4
350
17C
  3
B5
350
17D
  3
B6
350
17E
  3
B7
350
17F
  3
B8
350
180
  3
B9
350
181
  3
C0
350
182
  3
C1
350
183
  3
C2
350
184
  3
C3
350
185
  3
C4
350
186
  3
C5
350
187
  3
C6
350
188
  3
C7
350
189
  3
C8
350
18A
  3
C9
350
18B
  3
D0
350
18C
  3
D1
350
18D
  3
D2
350
18E
  0
DICTIONARY
  5
296
102
{ACAD_REACTORS
330
133
102
}
330
133
100
AcDbDictionary
281
     1
  0
DICTIONARY
  5
293
102
{ACAD_REACTORS
330
133
102
}
330
133
100
AcDbDictionary
281
     1
  0
DICTIONARY
  5
150
102
{ACAD_REACTORS
330
133
102
}
330
133
100
AcDbDictionary
281
     1
  3
2dWireframe
350
155
  3
Basic
350
158
  3
Brighten
350
15C
  3
ColorChange
350
160
  3
Conceptual
350
15A
  3
Dim
350
15B
  3
EdgeColorOff
350
163
  3
Facepattern
350
15F
  3
Flat
350
151
  3
FlatWithEdges
350
152
  3
Gouraud
350
153
  3
GouraudWithEdges
350
154
  3
Hidden
350
157
  3
JitterOff
350
161
  3
Linepattern
350
15E
  3
OverhangOff
350
162
  3
Realistic
350
159
  3
Shaded
350
168
  3
Shaded with edges
350
167
  3
Shades of Gray
350
164
  3
Sketchy
350
165
  3
Thicken
350
15D
  3
Wireframe
350
156
  3
X-Ray
350
166
  0
DICTIONARY
  5
291
102
{ACAD_REACTORS
330
133
102
}
330
133
100
AcDbDictionary
281
     1
  3
CANNOSCALE
350
292
  0
DICTIONARY
  5
191
102
{ACAD_REACTORS
330
133
102
}
330
133
100
AcDbDictionary
281
     1
  3
Grid/DisplayGrid00
350
192
  3
Grid/DisplayGrid01
350
193
  3
Grid/DisplayGrid02
350
194
  3
Grid/DisplayGrid03
350
195
  3
Grid/GridSpacingX00
350
196
  3
Grid/GridSpacingX01
350
197
  3
Grid/GridSpacingX02
350
198
  3
Grid/GridSpacingX03
350
199
  3
Grid/GridSpacingY00
350
19A
  3
Grid/GridSpacingY01
350
19B
  3
Grid/GridSpacingY02
350
19C
  3
Grid/GridSpacingY03
350
19D
  3
Grid/IsometricGrid00
350
19E
  3
Grid/IsometricGrid01
350
19F
  3
Grid/IsometricGrid02
350
1A0
  3
Grid/IsometricGrid03
350
1A1
  3
Grid/IsometricProjection00
350
1A2
  3
Grid/IsometricProjection01
350
1A3
  3
Grid/IsometricProjection02
350
1A4
  3
Grid/IsometricProjection03
350
1A5
  3
Grid/MetaGridSpacingX00
350
1A6
  3
Grid/MetaGridSpacingX01
350
1A7
  3
Grid/MetaGridSpacingX02
350
1A8
  3
Grid/MetaGridSpacingX03
350
1A9
  3
Grid/MetaGridSpacingY00
350
1AA
  3
Grid/MetaGridSpacingY01
350
1AB
  3
Grid/MetaGridSpacingY02
350
1AC
  3
Grid/MetaGridSpacingY03
350
1AD
  3
MultiPageSettings/Columns
350
1AE
  3
MultiPageSettings/GlueMarginsBottom
350
1AF
  3
MultiPageSettings/GlueMarginsLeft
350
1B0
  3
MultiPageSettings/GlueMarginsRight
350
1B1
  3
MultiPageSettings/GlueMarginsTop
350
1B2
  3
MultiPageSettings/PrintCropMarks
350
1B3
  3
MultiPageSettings/Rows
350
1B4
  3
PageSettings/OffsetX
350
1B5
  3
PageSettings/OffsetY
350
1B6
  3
PageSettings/PageOrientation
350
1B7
  3
PageSettings/PaperHeight
350
1B8
  3
PageSettings/PaperWidth
350
1B9
  3
PageSettings/Scale
350
1BA
  3
PageSettings/ShowPaperBorders
350
1BB
  3
UnitSettings/PaperUnit
350
1BC
  0
LAYOUT
  5
144
102
{ACAD_REACTORS
330
140
102
}
330
140
100
AcDbPlotSettings
  1

  2
none_device
  4

  6

 40
0.0
 41
0.0
 42
0.0
 43
0.0
 44
0.0
 45
0.0
 46
0.0
 47
0.0
 48
0.0
 49
0.0
140
0.0
141
0.0
142
1.0
143
1.0
 70
   688
 72
     0
 73
     0
 74
     5
  7

 75
    16
 76
     0
 77
     2
 78
   300
147
1.0
148
0.0
149
0.0
100
AcDbLayout
  1
Layout1
 70
     1
 71
     1
 10
0.0
 20
0.0
 11
12.0
 21
9.0
 12
0.0
 22
0.0
 32
0.0
 14
1.000000000000000E+20
 24
1.000000000000000E+20
 34
1.000000000000000E+20
 15
-1.000000000000000E+20
 25
-1.000000000000000E+20
 35
-1.000000000000000E+20
146
0.0
 13
0.0
 23
0.0
 33
0.0
 16
1.0
 26
0.0
 36
0.0
 17
0.0
 27
1.0
 37
0.0
 76
     0
330
141
  0
LAYOUT
  5
14C
102
{ACAD_REACTORS
330
140
102
}
330
140
100
AcDbPlotSettings
  1

  2
none_device
  4

  6

 40
0.0
 41
0.0
 42
0.0
 43
0.0
 44
0.0
 45
0.0
 46
0.0
 47
0.0
 48
0.0
 49
0.0
140
0.0
141
0.0
142
1.0
143
1.0
 70
   688
 72
     0
 73
     0
 74
     5
  7

 75
    16
 76
     0
 77
     2
 78
   300
147
1.0
148
0.0
149
0.0
100
AcDbLayout
  1
Layout2
 70
     1
 71
     2
 10
0.0
 20
0.0
 11
0.0
 21
0.0
 12
0.0
 22
0.0
 32
0.0
 14
0.0
 24
0.0
 34
0.0
 15
0.0
 25
0.0
 35
0.0
146
0.0
 13
0.0
 23
0.0
 33
0.0
 16
1.0
 26
0.0
 36
0.0
 17
0.0
 27
1.0
 37
0.0
 76
     0
330
149
  0
LAYOUT
  5
148
102
{ACAD_REACTORS
330
140
102
}
330
140
100
AcDbPlotSettings
  1

  2
none_device
  4
Letter_(8.50_x_11.00_Inches)
  6

 40
6.35
 41
6.35
 42
6.35000508
 43
6.35000508
 44
215.9
 45
279.4
 46
0.0
 47
0.0
 48
0.0
 49
0.0
140
0.0
141
0.0
142
1.0
143
1.0
 70
  1712
 72
     0
 73
     0
 74
     0
  7

 75
     0
 76
     0
 77
     2
 78
   300
147
1.0
148
0.0
149
0.0
100
AcDbLayout
  1
Model
 70
     1
 71
     0
 10
0.0
 20
0.0
 11
12.0
 21
9.0
 12
0.0
 22
0.0
 32
0.0
 14
1.000000000000000E+20
 24
1.000000000000000E+20
 34
1.000000000000000E+20
 15
-1.000000000000000E+20
 25
-1.000000000000000E+20
 35
-1.000000000000000E+20
146
0.0
 13
0.0
 23
0.0
 33
0.0
 16
1.0
 26
0.0
 36
0.0
 17
0.0
 27
1.0
 37
0.0
 76
     0
330
145
331
14F
  0
MATERIAL
  5
16B
102
{ACAD_REACTORS
330
169
102
}
330
169
100
AcDbMaterial
  1
ByBlock
 72
     1
 94
      127
  0
MATERIAL
  5
16A
102
{ACAD_REACTORS
330
169
102
}
330
169
100
AcDbMaterial
  1
ByLayer
 72
     1
 94
      127
  0
MATERIAL
  5
16C
102
{ACAD_REACTORS
330
169
102
}
330
169
100
AcDbMaterial
  1
Global
 72
     1
 94
      127
  0
MLINESTYLE
  5
13E
102
{ACAD_REACTORS
330
13D
102
}
330
13D
100
AcDbMlineStyle
  2
Standard
 70
     0
  3

 62
   256
 51
90.0
 52
90.0
 71
     2
 49
0.5
 62
   256
  6
BYLAYER
 49
-0.5
 62
   256
  6
BYLAYER
  0
ACDBPLACEHOLDER
  5
136
102
{ACAD_REACTORS
330
135
102
}
330
135
  0
SCALE
  5
16E
102
{ACAD_REACTORS
330
16D
102
}
330
16D
100
AcDbScale
 70
     0
300
1:1
140
1.0
141
1.0
290
     1
  0
SCALE
  5
16F
102
{ACAD_REACTORS
330
16D
102
}
330
16D
100
AcDbScale
 70
     0
300
1:2
140
1.0
141
2.0
290
     0
  0
SCALE
  5
170
102
{ACAD_REACTORS
330
16D
102
}
330
16D
100
AcDbScale
 70
     0
300
1:4
140
1.0
141
4.0
290
     0
  0
SCALE
  5
171
102
{ACAD_REACTORS
330
16D
102
}
330
16D
100
AcDbScale
 70
     0
300
1:5
140
1.0
141
5.0
290
     0
  0
SCALE
  5
172
102
{ACAD_REACTORS
330
16D
102
}
330
16D
100
AcDbScale
 70
     0
300
1:8
140
1.0
141
8.0
290
     0
  0
SCALE
  5
173
102
{ACAD_REACTORS
330
16D
102
}
330
16D
100
AcDbScale
 70
     0
300
1:10
140
1.0
141
10.0
290
     0
  0
SCALE
  5
174
102
{ACAD_REACTORS
330
16D
102
}
330
16D
100
AcDbScale
 70
     0
300
1:16
140
1.0
141
16.0
290
     0
  0
SCALE
  5
175
102
{ACAD_REACTORS
330
16D
102
}
330
16D
100
AcDbScale
 70
     0
300
1:20
140
1.0
141
20.0
290
     0
  0
SCALE
  5
176
102
{ACAD_REACTORS
330
16D
102
}
330
16D
100
AcDbScale
 70
     0
300
1:30
140
1.0
141
30.0
290
     0
  0
SCALE
  5
177
102
{ACAD_REACTORS
330
16D
102
}
330
16D
100
AcDbScale
 70
     0
300
1:40
140
1.0
141
40.0
290
     0
  0
SCALE
  5
178
102
{ACAD_REACTORS
330
16D
102
}
330
16D
100
AcDbScale
 70
     0
300
1:50
140
1.0
141
50.0
290
     0
  0
SCALE
  5
179
102
{ACAD_REACTORS
330
16D
102
}
330
16D
100
AcDbScale
 70
     0
300
1:100
140
1.0
141
100.0
290
     0
  0
SCALE
  5
17A
102
{ACAD_REACTORS
330
16D
102
}
330
16D
100
AcDbScale
 70
     0
300
2:1
140
2.0
141
1.0
290
     0
  0
SCALE
  5
17B
102
{ACAD_REACTORS
330
16D
102
}
330
16D
100
AcDbScale
 70
     0
300
4:1
140
4.0
141
1.0
290
     0
  0
SCALE
  5
17C
102
{ACAD_REACTORS
330
16D
102
}
330
16D
100
AcDbScale
 70
     0
300
8:1
140
8.0
141
1.0
290
     0
  0
SCALE
  5
17D
102
{ACAD_REACTORS
330
16D
102
}
330
16D
100
AcDbScale
 70
     0
300
10:1
140
10.0
141
1.0
290
     0
  0
SCALE
  5
17E
102
{ACAD_REACTORS
330
16D
102
}
330
16D
100
AcDbScale
 70
     0
300
100:1
140
100.0
141
1.0
290
     0
  0
SCALE
  5
17F
102
{ACAD_REACTORS
330
16D
102
}
330
16D
100
AcDbScale
 70
     0
300
1/128" = 1'-0"
140
0.0078125
141
12.0
290
     0
  0
SCALE
  5
180
102
{ACAD_REACTORS
330
16D
102
}
330
16D
100
AcDbScale
 70
     0
300
1/64" = 1'-0"
140
0.015625
141
12.0
290
     0
  0
SCALE
  5
181
102
{ACAD_REACTORS
330
16D
102
}
330
16D
100
AcDbScale
 70
     0
300
1/32" = 1'-0"
140
0.03125
141
12.0
290
     0
  0
SCALE
  5
182
102
{ACAD_REACTORS
330
16D
102
}
330
16D
100
AcDbScale
 70
     0
300
1/16" = 1'-0"
140
0.0625
141
12.0
290
     0
  0
SCALE
  5
183
102
{ACAD_REACTORS
330
16D
102
}
330
16D
100
AcDbScale
 70
     0
300
3/32" = 1'-0"
140
0.09375
141
12.0
290
     0
  0
SCALE
  5
184
102
{ACAD_REACTORS
330
16D
102
}
330
16D
100
AcDbScale
 70
     0
300
1/8" = 1'-0"
140
0.125
141
12.0
290
     0
  0
SCALE
  5
185
102
{ACAD_REACTORS
330
16D
102
}
330
16D
100
AcDbScale
 70
     0
300
3/16" = 1'-0"
140
0.1875
141
12.0
290
     0
  0
SCALE
  5
186
102
{ACAD_REACTORS
330
16D
102
}
330
16D
100
AcDbScale
 70
     0
300
1/4" = 1'-0"
140
0.25
141
12.0
290
     0
  0
SCALE
  5
187
102
{ACAD_REACTORS
330
16D
102
}
330
16D
100
AcDbScale
 70
     0
300
3/8" = 1'-0"
140
0.375
141
12.0
290
     0
  0
SCALE
  5
188
102
{ACAD_REACTORS
330
16D
102
}
330
16D
100
AcDbScale
 70
     0
300
1/2" = 1'-0"
140
0.5
141
12.0
290
     0
  0
SCALE
  5
189
102
{ACAD_REACTORS
330
16D
102
}
330
16D
100
AcDbScale
 70
     0
300
3/4" = 1'-0"
140
0.75
141
12.0
290
     0
  0
SCALE
  5
18A
102
{ACAD_REACTORS
330
16D
102
}
330
16D
100
AcDbScale
 70
     0
300
1" = 1'-0"
140
1.0
141
12.0
290
     0
  0
SCALE
  5
18B
102
{ACAD_REACTORS
330
16D
102
}
330
16D
100
AcDbScale
 70
     0
300
1-1/2" = 1'-0"
140
1.5
141
12.0
290
     0
  0
SCALE
  5
18C
102
{ACAD_REACTORS
330
16D
102
}
330
16D
100
AcDbScale
 70
     0
300
3" = 1'-0"
140
3.0
141
12.0
290
     0
  0
SCALE
  5
18D
102
{ACAD_REACTORS
330
16D
102
}
330
16D
100
AcDbScale
 70
     0
300
6" = 1'-0"
140
6.0
141
12.0
290
     0
  0
SCALE
  5
18E
102
{ACAD_REACTORS
330
16D
102
}
330
16D
100
AcDbScale
 70
     0
300
1'-0" = 1'-0"
140
12.0
141
12.0
290
     0
  0
VISUALSTYLE
  5
155
102
{ACAD_REACTORS
330
150
102
}
330
150
100
AcDbVisualStyle
  2
2dWireframe
 70
     4
177
     3
291
     0
 70
    58
 90
        0
176
     1
 90
        2
176
     1
 90
        0
176
     1
 90
        0
176
     1
 40
0.6
176
     1
 40
30.0
176
     1
 62
     7
420
 16777215
176
     1
 90
        1
176
     1
 90
        4
176
     1
 62
     7
176
     1
 62
   257
176
     1
 90
        1
176
     1
 90
        1
176
     1
 40
1.0
176
     1
 90
        0
176
     1
 62
   257
176
     1
 40
1.0
176
     1
 90
        1
176
     1
 90
        6
176
     1
 90
        2
176
     1
 62
     7
176
     1
 90
        5
176
     1
 90
        0
176
     1
 90
        0
176
     1
290
     0
176
     1
 90
        1
176
     1
 40
0.0
176
     1
 90
        0
176
     1
290
     1
176
     1
290
     1
176
     1
290
     0
176
     1
290
     0
176
     1
290
     0
176
     1
290
     0
176
     1
290
     0
176
     1
290
     0
176
     1
290
     0
176
     1
 90
       50
176
     1
 40
0.0
176
     1
 40
1.0
176
     1
 90
        0
176
     1
 62
    18
420
        0
176
     1
 90
       50
176
     1
 90
        3
176
     1
 62
     5
420
      255
176
     1
290
     0
176
     1
 90
       50
176
     1
 90
       50
176
     1
 90
       50
176
     1
290
     0
176
     1
 90
       50
176
     1
 62
   256
176
     0
 40
1.0
176
     0
 90
        2
176
     1
  1
strokes_ogs.tif
176
     1
290
     0
176
     1
 40
1.0
176
     1
 40
1.0
176
     1
  0
VISUALSTYLE
  5
158
102
{ACAD_REACTORS
330
150
102
}
330
150
100
AcDbVisualStyle
  2
Basic
 70
     7
177
     3
291
     1
 70
    58
 90
        1
176
     1
 90
        0
176
     1
 90
        1
176
     1
 90
        0
176
     1
 40
0.6
176
     1
 40
30.0
176
     1
 62
     7
420
 16777215
176
     1
 90
        0
176
     1
 90
        4
176
     1
 62
     7
176
     1
 62
   257
176
     1
 90
        1
176
     1
 90
        1
176
     1
 40
1.0
176
     1
 90
        8
176
     1
 62
     7
176
     1
 40
1.0
176
     1
 90
        1
176
     1
 90
        6
176
     1
 90
        2
176
     1
 62
     7
176
     1
 90
        5
176
     1
 90
        0
176
     1
 90
        0
176
     1
290
     0
176
     1
 90
        1
176
     1
 40
0.0
176
     1
 90
        0
176
     1
290
     0
176
     1
290
     1
176
     1
290
     1
176
     1
290
     0
176
     1
290
     0
176
     1
290
     0
176
     1
290
     0
176
     1
290
     0
176
     1
290
     0
176
     1
 90
       50
176
     1
 40
0.0
176
     1
 40
1.0
176
     1
 90
        0
176
     1
 62
    18
420
        0
176
     1
 90
       50
176
     1
 90
        3
176
     1
 62
     5
420
      255
176
     1
290
     0
176
     1
 90
       50
176
     1
 90
       50
176
     1
 90
       50
176
     1
290
     0
176
     1
 90
       50
176
     1
 62
   256
176
     0
 40
1.0
176
     0
 90
        2
176
     1
  1
strokes_ogs.tif
176
     1
290
     0
176
     1
 40
1.0
176
     1
 40
1.0
176
     1
  0
VISUALSTYLE
  5
15C
102
{ACAD_REACTORS
330
150
102
}
330
150
100
AcDbVisualStyle
  2
Brighten
 70
    12
177
     3
291
     1
 70
    58
 90
        2
176
     1
 90
        2
176
     1
 90
        0
176
     1
 90
        0
176
     1
 40
0.6
176
     1
 40
30.0
176
     1
 62
     7
420
 16777215
176
     1
 90
        1
176
     1
 90
        4
176
     1
 62
     7
176
     1
 62
   257
176
     1
 90
        1
176
     1
 90
        1
176
     1
 40
1.0
176
     1
 90
        8
176
     1
 62
     7
176
     1
 40
1.0
176
     1
 90
        1
176
     1
 90
        6
176
     1
 90
        2
176
     1
 62
     7
176
     1
 90
        5
176
     1
 90
        0
176
     1
 90
        0
176
     1
290
     0
176
     1
 90
        1
176
     1
 40
50.0
176
     1
 90
        0
176
     1
290
     0
176
     1
290
     1
176
     1
290
     1
176
     1
290
     0
176
     1
290
     0
176
     1
290
     0
176
     1
290
     0
176
     1
290
     0
176
     1
290
     0
176
     1
 90
       50
176
     1
 40
0.0
176
     1
 40
1.0
176
     1
 90
        0
176
     1
 62
    18
420
        0
176
     1
 90
       50
176
     1
 90
        3
176
     1
 62
     5
420
      255
176
     1
290
     0
176
     1
 90
       50
176
     1
 90
       50
176
     1
 90
       50
176
     1
290
     0
176
     1
 90
       50
176
     1
 62
   256
176
     0
 40
1.0
176
     0
 90
        2
176
     1
  1
strokes_ogs.tif
176
     1
290
     0
176
     1
 40
1.0
176
     1
 40
1.0
176
     1
  0
VISUALSTYLE
  5
160
102
{ACAD_REACTORS
330
150
102
}
330
150
100
AcDbVisualStyle
  2
ColorChange
 70
    16
177
     3
291
     1
 70
    58
 90
        2
176
     1
 90
        2
176
     1
 90
        3
176
     1
 90
        0
176
     1
 40
0.6
176
     1
 40
30.0
176
     1
 62
     8
420
  8421504
176
     1
 90
        1
176
     1
 90
        4
176
     1
 62
     7
176
     1
 62
   257
176
     1
 90
        1
176
     1
 90
        1
176
     1
 40
1.0
176
     1
 90
        8
176
     1
 62
     8
420
  8421504
176
     1
 40
1.0
176
     1
 90
        1
176
     1
 90
        6
176
     1
 90
        2
176
     1
 62
     7
176
     1
 90
        5
176
     1
 90
        0
176
     1
 90
        0
176
     1
290
     0
176
     1
 90
        1
176
     1
 40
0.0
176
     1
 90
        0
176
     1
290
     0
176
     1
290
     1
176
     1
290
     1
176
     1
290
     0
176
     1
290
     0
176
     1
290
     0
176
     1
290
     0
176
     1
290
     0
176
     1
290
     0
176
     1
 90
       50
176
     1
 40
0.0
176
     1
 40
1.0
176
     1
 90
        0
176
     1
 62
    18
420
        0
176
     1
 90
       50
176
     1
 90
        3
176
     1
 62
     5
420
      255
176
     1
290
     0
176
     1
 90
       50
176
     1
 90
       50
176
     1
 90
       50
176
     1
290
     0
176
     1
 90
       50
176
     1
 62
   256
176
     0
 40
1.0
176
     0
 90
        2
176
     1
  1
strokes_ogs.tif
176
     1
290
     0
176
     1
 40
1.0
176
     1
 40
1.0
176
     1
  0
VISUALSTYLE
  5
15A
102
{ACAD_REACTORS
330
150
102
}
330
150
100
AcDbVisualStyle
  2
Conceptual
 70
     9
177
     3
291
     0
 70
    58
 90
        3
176
     1
 90
        2
176
     1
 90
        0
176
     1
 90
        0
176
     1
 40
0.6
176
     1
 40
30.0
176
     1
 62
     7
420
 16777215
176
     1
 90
        2
176
     1
 90
        2
176
     1
 62
     7
176
     1
 62
   257
176
     1
 90
        1
176
     1
 90
        1
176
     1
 40
179.0
176
     1
 90
        8
176
     1
 62
     7
176
     1
 40
1.0
176
     1
 90
        1
176
     1
 90
        6
176
     1
 90
        2
176
     1
 62
     7
176
     1
 90
        3
176
     1
 90
        0
176
     1
 90
        0
176
     1
290
     0
176
     1
 90
        1
176
     1
 40
0.0
176
     1
 90
        0
176
     1
290
     0
176
     1
290
     1
176
     1
290
     1
176
     1
290
     0
176
     1
290
     0
176
     1
290
     0
176
     1
290
     0
176
     1
290
     0
176
     1
290
     0
176
     1
 90
       50
176
     1
 40
0.0
176
     1
 40
1.0
176
     1
 90
        0
176
     1
 62
    18
420
        0
176
     1
 90
       50
176
     1
 90
        3
176
     1
 62
     5
420
      255
176
     1
290
     0
176
     1
 90
       50
176
     1
 90
       50
176
     1
 90
       50
176
     1
290
     0
176
     1
 90
       50
176
     1
 62
   256
176
     0
 40
1.0
176
     0
 90
        2
176
     1
  1
strokes_ogs.tif
176
     1
290
     0
176
     1
 40
1.0
176
     1
 40
1.0
176
     1
  0
VISUALSTYLE
  5
15B
102
{ACAD_REACTORS
330
150
102
}
330
150
100
AcDbVisualStyle
  2
Dim
 70
    11
177
     3
291
     1
 70
    58
 90
        2
176
     1
 90
        2
176
     1
 90
        0
176
     1
 90
        0
176
     1
 40
0.6
176
     1
 40
30.0
176
     1
 62
     7
420
 16777215
176
     1
 90
        1
176
     1
 90
        4
176
     1
 62
     7
176
     1
 62
   257
176
     1
 90
        1
176
     1
 90
        1
176
     1
 40
1.0
176
     1
 90
        8
176
     1
 62
     7
176
     1
 40
1.0
176
     1
 90
        1
176
     1
 90
        6
176
     1
 90
        2
176
     1
 62
     7
176
     1
 90
        5
176
     1
 90
        0
176
     1
 90
        0
176
     1
290
     0
176
     1
 90
        1
176
     1
 40
-50.0
176
     1
 90
        0
176
     1
290
     0
176
     1
290
     1
176
     1
290
     1
176
     1
290
     0
176
     1
290
     0
176
     1
290
     0
176
     1
290
     0
176
     1
290
     0
176
     1
290
     0
176
     1
 90
       50
176
     1
 40
0.0
176
     1
 40
1.0
176
     1
 90
        0
176
     1
 62
    18
420
        0
176
     1
 90
       50
176
     1
 90
        3
176
     1
 62
     5
420
      255
176
     1
290
     0
176
     1
 90
       50
176
     1
 90
       50
176
     1
 90
       50
176
     1
290
     0
176
     1
 90
       50
176
     1
 62
   256
176
     0
 40
1.0
176
     0
 90
        2
176
     1
  1
strokes_ogs.tif
176
     1
290
     0
176
     1
 40
1.0
176
     1
 40
1.0
176
     1
  0
VISUALSTYLE
  5
163
102
{ACAD_REACTORS
330
150
102
}
330
150
100
AcDbVisualStyle
  2
EdgeColorOff
 70
    22
177
     3
291
     1
 70
    58
 90
        2
176
     0
 90
        2
176
     0
 90
        0
176
     0
 90
        0
176
     0
 40
0.6
176
     0
 40
30.0
176
     0
 62
     7
420
 16777215
176
     0
 90
        1
176
     0
 90
        4
176
     0
 62
     7
176
     0
 62
   257
176
     0
 90
        1
176
     0
 90
        1
176
     0
 40
1.0
176
     0
 90
        8
176
     2
 62
     7
176
     0
 40
1.0
176
     0
 90
        1
176
     0
 90
        6
176
     0
 90
        2
176
     0
 62
     7
176
     0
 90
        5
176
     0
 90
        0
176
     0
 90
        0
176
     0
290
     0
176
     0
 90
        1
176
     0
 40
0.0
176
     0
 90
        0
176
     0
290
     0
176
     0
290
     1
176
     0
290
     1
176
     0
290
     0
176
     0
290
     0
176
     0
290
     0
176
     0
290
     0
176
     0
290
     0
176
     0
290
     0
176
     0
 90
       50
176
     0
 40
0.0
176
     0
 40
1.0
176
     0
 90
        0
176
     0
 62
    18
420
        0
176
     0
 90
       50
176
     0
 90
        3
176
     0
 62
     5
420
      255
176
     0
290
     0
176
     0
 90
       50
176
     0
 90
       50
176
     0
 90
       50
176
     0
290
     0
176
     0
 90
       50
176
     0
 62
   256
176
     0
 40
1.0
176
     0
 90
        2
176
     0
  1
strokes_ogs.tif
176
     0
290
     0
176
     0
 40
1.0
176
     0
 40
1.0
176
     0
  0
VISUALSTYLE
  5
15F
102
{ACAD_REACTORS
330
150
102
}
330
150
100
AcDbVisualStyle
  2
Facepattern
 70
    15
177
     3
291
     1
 70
    58
 90
        2
176
     1
 90
        2
176
     1
 90
        0
176
     1
 90
        0
176
     1
 40
0.6
176
     1
 40
30.0
176
     1
 62
     7
420
 16777215
176
     1
 90
        1
176
     1
 90
        4
176
     1
 62
     7
176
     1
 62
   257
176
     1
 90
        1
176
     1
 90
        1
176
     1
 40
1.0
176
     1
 90
        8
176
     1
 62
     7
176
     1
 40
1.0
176
     1
 90
        1
176
     1
 90
        6
176
     1
 90
        2
176
     1
 62
     7
176
     1
 90
        5
176
     1
 90
        0
176
     1
 90
        0
176
     1
290
     0
176
     1
 90
        1
176
     1
 40
0.0
176
     1
 90
        0
176
     1
290
     0
176
     1
290
     1
176
     1
290
     1
176
     1
290
     0
176
     1
290
     0
176
     1
290
     0
176
     1
290
     0
176
     1
290
     0
176
     1
290
     0
176
     1
 90
       50
176
     1
 40
0.0
176
     1
 40
1.0
176
     1
 90
        0
176
     1
 62
    18
420
        0
176
     1
 90
       50
176
     1
 90
        3
176
     1
 62
     5
420
      255
176
     1
290
     0
176
     1
 90
       50
176
     1
 90
       50
176
     1
 90
       50
176
     1
290
     0
176
     1
 90
       50
176
     1
 62
   256
176
     0
 40
1.0
176
     0
 90
        2
176
     1
  1
strokes_ogs.tif
176
     1
290
     0
176
     1
 40
1.0
176
     1
 40
1.0
176
     1
  0
VISUALSTYLE
  5
151
102
{ACAD_REACTORS
330
150
102
}
330
150
100
AcDbVisualStyle
  2
Flat
 70
     0
177
     3
291
     1
 70
    58
 90
        2
176
     1
 90
        1
176
     1
 90
        1
176
     1
 90
        2
176
     1
 40
0.6
176
     1
 40
30.0
176
     1
 62
     7
420
 16777215
176
     1
 90
        0
176
     1
 90
        0
176
     1
 62
     7
176
     1
 62
   257
176
     1
 90
        1
176
     1
 90
        1
176
     1
 40
1.0
176
     1
 90
        8
176
     1
 62
     7
176
     1
 40
1.0
176
     1
 90
        1
176
     1
 90
        6
176
     1
 90
        2
176
     1
 62
     7
176
     1
 90
        5
176
     1
 90
        0
176
     1
 90
        0
176
     1
290
     0
176
     1
 90
       13
176
     1
 40
0.0
176
     1
 90
        0
176
     1
290
     0
176
     1
290
     1
176
     1
290
     1
176
     1
290
     0
176
     1
290
     0
176
     1
290
     0
176
     1
290
     0
176
     1
290
     0
176
     1
290
     0
176
     1
 90
       50
176
     1
 40
0.0
176
     1
 40
1.0
176
     1
 90
        0
176
     1
 62
    18
420
        0
176
     1
 90
       50
176
     1
 90
        3
176
     1
 62
     5
420
      255
176
     1
290
     0
176
     1
 90
       50
176
     1
 90
       50
176
     1
 90
       50
176
     1
290
     0
176
     1
 90
       50
176
     1
 62
   256
176
     0
 40
1.0
176
     0
 90
        2
176
     1
  1
strokes_ogs.tif
176
     1
290
     0
176
     1
 40
1.0
176
     1
 40
1.0
176
     1
  0
VISUALSTYLE
  5
152
102
{ACAD_REACTORS
330
150
102
}
330
150
100
AcDbVisualStyle
  2
FlatWithEdges
 70
     1
177
     3
291
     1
 70
    58
 90
        2
176
     1
 90
        1
176
     1
 90
        1
176
     1
 90
        2
176
     1
 40
0.6
176
     1
 40
30.0
176
     1
 62
     7
420
 16777215
176
     1
 90
        1
176
     1
 90
        0
176
     1
 62
     7
176
     1
 62
   257
176
     1
 90
        1
176
     1
 90
        1
176
     1
 40
1.0
176
     1
 90
        0
176
     1
 62
   257
176
     1
 40
1.0
176
     1
 90
        1
176
     1
 90
        6
176
     1
 90
        2
176
     1
 62
     7
176
     1
 90
        5
176
     1
 90
        0
176
     1
 90
        0
176
     1
290
     0
176
     1
 90
       13
176
     1
 40
0.0
176
     1
 90
        0
176
     1
290
     0
176
     1
290
     1
176
     1
290
     1
176
     1
290
     0
176
     1
290
     0
176
     1
290
     0
176
     1
290
     0
176
     1
290
     0
176
     1
290
     0
176
     1
 90
       50
176
     1
 40
0.0
176
     1
 40
1.0
176
     1
 90
        0
176
     1
 62
    18
420
        0
176
     1
 90
       50
176
     1
 90
        3
176
     1
 62
     5
420
      255
176
     1
290
     0
176
     1
 90
       50
176
     1
 90
       50
176
     1
 90
       50
176
     1
290
     0
176
     1
 90
       50
176
     1
 62
   256
176
     0
 40
1.0
176
     0
 90
        2
176
     1
  1
strokes_ogs.tif
176
     1
290
     0
176
     1
 40
1.0
176
     1
 40
1.0
176
     1
  0
VISUALSTYLE
  5
153
102
{ACAD_REACTORS
330
150
102
}
330
150
100
AcDbVisualStyle
  2
Gouraud
 70
     2
177
     3
291
     1
 70
    58
 90
        2
176
     1
 90
        2
176
     1
 90
        1
176
     1
 90
        2
176
     1
 40
0.6
176
     1
 40
30.0
176
     1
 62
     7
420
 16777215
176
     1
 90
        0
176
     1
 90
        0
176
     1
 62
     7
176
     1
 62
   257
176
     1
 90
        1
176
     1
 90
        1
176
     1
 40
1.0
176
     1
 90
        0
176
     1
 62
     7
176
     1
 40
1.0
176
     1
 90
        1
176
     1
 90
        6
176
     1
 90
        2
176
     1
 62
     7
176
     1
 90
        5
176
     1
 90
        0
176
     1
 90
        0
176
     1
290
     0
176
     1
 90
       13
176
     1
 40
0.0
176
     1
 90
        0
176
     1
290
     0
176
     1
290
     1
176
     1
290
     1
176
     1
290
     0
176
     1
290
     0
176
     1
290
     0
176
     1
290
     0
176
     1
290
     0
176
     1
290
     0
176
     1
 90
       50
176
     1
 40
0.0
176
     1
 40
1.0
176
     1
 90
        0
176
     1
 62
    18
420
        0
176
     1
 90
       50
176
     1
 90
        3
176
     1
 62
     5
420
      255
176
     1
290
     0
176
     1
 90
       50
176
     1
 90
       50
176
     1
 90
       50
176
     1
290
     0
176
     1
 90
       50
176
     1
 62
   256
176
     0
 40
1.0
176
     0
 90
        2
176
     1
  1
strokes_ogs.tif
176
     1
290
     0
176
     1
 40
1.0
176
     1
 40
1.0
176
     1
  0
VISUALSTYLE
  5
154
102
{ACAD_REACTORS
330
150
102
}
330
150
100
AcDbVisualStyle
  2
GouraudWithEdges
 70
     3
177
     3
291
     1
 70
    58
 90
        2
176
     1
 90
        2
176
     1
 90
        1
176
     1
 90
        2
176
     1
 40
0.6
176
     1
 40
30.0
176
     1
 62
     7
420
 16777215
176
     1
 90
        1
176
     1
 90
        0
176
     1
 62
     7
176
     1
 62
   257
176
     1
 90
        1
176
     1
 90
        1
176
     1
 40
1.0
176
     1
 90
        0
176
     1
 62
   257
176
     1
 40
1.0
176
     1
 90
        1
176
     1
 90
        6
176
     1
 90
        2
176
     1
 62
     7
176
     1
 90
        5
176
     1
 90
        0
176
     1
 90
        0
176
     1
290
     0
176
     1
 90
       13
176
     1
 40
0.0
176
     1
 90
        0
176
     1
290
     0
176
     1
290
     1
176
     1
290
     1
176
     1
290
     0
176
     1
290
     0
176
     1
290
     0
176
     1
290
     0
176
     1
290
     0
176
     1
290
     0
176
     1
 90
       50
176
     1
 40
0.0
176
     1
 40
1.0
176
     1
 90
        0
176
     1
 62
    18
420
        0
176
     1
 90
       50
176
     1
 90
        3
176
     1
 62
     5
420
      255
176
     1
290
     0
176
     1
 90
       50
176
     1
 90
       50
176
     1
 90
       50
176
     1
290
     0
176
     1
 90
       50
176
     1
 62
   256
176
     0
 40
1.0
176
     0
 90
        2
176
     1
  1
strokes_ogs.tif
176
     1
290
     0
176
     1
 40
1.0
176
     1
 40
1.0
176
     1
  0
VISUALSTYLE
  5
157
102
{ACAD_REACTORS
330
150
102
}
330
150
100
AcDbVisualStyle
  2
Hidden
 70
     6
177
     3
291
     0
 70
    58
 90
        1
176
     1
 90
        2
176
     1
 90
        2
176
     1
 90
        0
176
     1
 40
0.6
176
     1
 40
30.0
176
     1
 62
     7
420
 16777215
176
     1
 90
        2
176
     1
 90
        2
176
     1
 62
     7
176
     1
 62
   257
176
     1
 90
        2
176
     1
 90
        1
176
     1
 40
40.0
176
     1
 90
        0
176
     1
 62
   257
176
     1
 40
1.0
176
     1
 90
        1
176
     1
 90
        6
176
     1
 90
        2
176
     1
 62
     7
176
     1
 90
        3
176
     1
 90
        0
176
     1
 90
        0
176
     1
290
     0
176
     1
 90
        1
176
     1
 40
0.0
176
     1
 90
        0
176
     1
290
     0
176
     1
290
     1
176
     1
290
     1
176
     1
290
     0
176
     1
290
     0
176
     1
290
     0
176
     1
290
     0
176
     1
290
     0
176
     1
290
     0
176
     1
 90
       50
176
     1
 40
0.0
176
     1
 40
1.0
176
     1
 90
        0
176
     1
 62
    18
420
        0
176
     1
 90
       50
176
     1
 90
        3
176
     1
 62
     5
420
      255
176
     1
290
     0
176
     1
 90
       50
176
     1
 90
       50
176
     1
 90
       50
176
     1
290
     0
176
     1
 90
       50
176
     1
 62
   256
176
     0
 40
1.0
176
     0
 90
        2
176
     1
  1
strokes_ogs.tif
176
     1
290
     0
176
     1
 40
1.0
176
     1
 40
1.0
176
     1
  0
VISUALSTYLE
  5
161
102
{ACAD_REACTORS
330
150
102
}
330
150
100
AcDbVisualStyle
  2
JitterOff
 70
    20
177
     3
291
     1
 70
    58
 90
        2
176
     0
 90
        2
176
     0
 90
        0
176
     0
 90
        0
176
     0
 40
0.6
176
     0
 40
30.0
176
     0
 62
     7
420
 16777215
176
     0
 90
        1
176
     0
 90
        4
176
     0
 62
     7
176
     0
 62
   257
176
     0
 90
        1
176
     0
 90
        1
176
     0
 40
1.0
176
     0
 90
       10
176
     2
 62
     7
176
     0
 40
1.0
176
     0
 90
        1
176
     0
 90
        6
176
     0
 90
        2
176
     0
 62
     7
176
     0
 90
        5
176
     0
 90
        0
176
     0
 90
        0
176
     0
290
     0
176
     0
 90
        1
176
     0
 40
0.0
176
     0
 90
        0
176
     0
290
     0
176
     0
290
     1
176
     0
290
     1
176
     0
290
     0
176
     0
290
     0
176
     0
290
     0
176
     0
290
     0
176
     0
290
     0
176
     0
290
     0
176
     0
 90
       50
176
     0
 40
0.0
176
     0
 40
1.0
176
     0
 90
        0
176
     0
 62
    18
420
        0
176
     0
 90
       50
176
     0
 90
        3
176
     0
 62
     5
420
      255
176
     0
290
     0
176
     0
 90
       50
176
     0
 90
       50
176
     0
 90
       50
176
     0
290
     0
176
     0
 90
       50
176
     0
 62
   256
176
     0
 40
1.0
176
     0
 90
        2
176
     0
  1
strokes_ogs.tif
176
     0
290
     0
176
     0
 40
1.0
176
     0
 40
1.0
176
     0
  0
VISUALSTYLE
  5
15E
102
{ACAD_REACTORS
330
150
102
}
330
150
100
AcDbVisualStyle
  2
Linepattern
 70
    14
177
     3
291
     1
 70
    58
 90
        2
176
     1
 90
        2
176
     1
 90
        0
176
     1
 90
        0
176
     1
 40
0.6
176
     1
 40
30.0
176
     1
 62
     7
420
 16777215
176
     1
 90
        1
176
     1
 90
        4
176
     1
 62
     7
176
     1
 62
   257
176
     1
 90
        7
176
     1
 90
        7
176
     1
 40
1.0
176
     1
 90
        8
176
     1
 62
     7
176
     1
 40
1.0
176
     1
 90
        1
176
     1
 90
        6
176
     1
 90
        2
176
     1
 62
     7
176
     1
 90
        5
176
     1
 90
        0
176
     1
 90
        0
176
     1
290
     0
176
     1
 90
        1
176
     1
 40
0.0
176
     1
 90
        0
176
     1
290
     0
176
     1
290
     1
176
     1
290
     1
176
     1
290
     0
176
     1
290
     0
176
     1
290
     0
176
     1
290
     0
176
     1
290
     0
176
     1
290
     0
176
     1
 90
       50
176
     1
 40
0.0
176
     1
 40
1.0
176
     1
 90
        0
176
     1
 62
    18
420
        0
176
     1
 90
       50
176
     1
 90
        3
176
     1
 62
     5
420
      255
176
     1
290
     0
176
     1
 90
       50
176
     1
 90
       50
176
     1
 90
       50
176
     1
290
     0
176
     1
 90
       50
176
     1
 62
   256
176
     0
 40
1.0
176
     0
 90
        2
176
     1
  1
strokes_ogs.tif
176
     1
290
     0
176
     1
 40
1.0
176
     1
 40
1.0
176
     1
  0
VISUALSTYLE
  5
162
102
{ACAD_REACTORS
330
150
102
}
330
150
100
AcDbVisualStyle
  2
OverhangOff
 70
    21
177
     3
291
     1
 70
    58
 90
        2
176
     0
 90
        2
176
     0
 90
        0
176
     0
 90
        0
176
     0
 40
0.6
176
     0
 40
30.0
176
     0
 62
     7
420
 16777215
176
     0
 90
        1
176
     0
 90
        4
176
     0
 62
     7
176
     0
 62
   257
176
     0
 90
        1
176
     0
 90
        1
176
     0
 40
1.0
176
     0
 90
        9
176
     2
 62
     7
176
     0
 40
1.0
176
     0
 90
        1
176
     0
 90
        6
176
     0
 90
        2
176
     0
 62
     7
176
     0
 90
        5
176
     0
 90
        0
176
     0
 90
        0
176
     0
290
     0
176
     0
 90
        1
176
     0
 40
0.0
176
     0
 90
        0
176
     0
290
     0
176
     0
290
     1
176
     0
290
     1
176
     0
290
     0
176
     0
290
     0
176
     0
290
     0
176
     0
290
     0
176
     0
290
     0
176
     0
290
     0
176
     0
 90
       50
176
     0
 40
0.0
176
     0
 40
1.0
176
     0
 90
        0
176
     0
 62
    18
420
        0
176
     0
 90
       50
176
     0
 90
        3
176
     0
 62
     5
420
      255
176
     0
290
     0
176
     0
 90
       50
176
     0
 90
       50
176
     0
 90
       50
176
     0
290
     0
176
     0
 90
       50
176
     0
 62
   256
176
     0
 40
1.0
176
     0
 90
        2
176
     0
  1
strokes_ogs.tif
176
     0
290
     0
176
     0
 40
1.0
176
     0
 40
1.0
176
     0
  0
VISUALSTYLE
  5
159
102
{ACAD_REACTORS
330
150
102
}
330
150
100
AcDbVisualStyle
  2
Realistic
 70
     8
177
     3
291
     0
 70
    58
 90
        2
176
     1
 90
        3
176
     1
 90
        0
176
     1
 90
        2
176
     1
 40
0.6
176
     1
 40
30.0
176
     1
 62
     7
420
 16777215
176
     1
 90
        0
176
     1
 90
        0
176
     1
 62
     7
176
     1
 62
   257
176
     1
 90
        1
176
     1
 90
        1
176
     1
 40
1.0
176
     1
 90
        8
176
     1
 62
   257
176
     1
 40
1.0
176
     1
 90
        1
176
     1
 90
        6
176
     1
 90
        2
176
     1
 62
     7
176
     1
 90
        3
176
     1
 90
        0
176
     1
 90
        0
176
     1
290
     0
176
     1
 90
       13
176
     1
 40
0.0
176
     1
 90
        0
176
     1
290
     0
176
     1
290
     1
176
     1
290
     1
176
     1
290
     0
176
     1
290
     0
176
     1
290
     0
176
     1
290
     0
176
     1
290
     0
176
     1
290
     0
176
     1
 90
       50
176
     1
 40
0.0
176
     1
 40
1.0
176
     1
 90
        0
176
     1
 62
    18
420
        0
176
     1
 90
       50
176
     1
 90
        3
176
     1
 62
     5
420
      255
176
     1
290
     0
176
     1
 90
       50
176
     1
 90
       50
176
     1
 90
       50
176
     1
290
     0
176
     1
 90
       50
176
     1
 62
   256
176
     0
 40
1.0
176
     0
 90
        2
176
     1
  1
strokes_ogs.tif
176
     1
290
     0
176
     1
 40
1.0
176
     1
 40
1.0
176
     1
  0
VISUALSTYLE
  5
168
102
{ACAD_REACTORS
330
150
102
}
330
150
100
AcDbVisualStyle
  2
Shaded
 70
    27
177
     3
291
     0
 70
    58
 90
        2
176
     1
 90
        2
176
     1
 90
        1
176
     1
 90
        2
176
     1
 40
0.6
176
     1
 40
30.0
176
     1
 62
     7
420
 16777215
176
     1
 90
        0
176
     1
 90
        4
176
     1
 62
     7
176
     1
 62
   257
176
     1
 90
        1
176
     1
 90
        1
176
     1
 40
1.0
176
     1
 90
        8
176
     1
 62
   257
176
     1
 40
1.0
176
     1
 90
        1
176
     1
 90
        6
176
     1
 90
        2
176
     1
 62
     8
420
  7895160
176
     1
 90
        3
176
     1
 90
        0
176
     1
 90
        0
176
     1
290
     0
176
     1
 90
        5
176
     1
 40
0.0
176
     1
 90
        0
176
     1
290
     0
176
     1
290
     1
176
     1
290
     1
176
     1
290
     0
176
     1
290
     0
176
     1
290
     0
176
     1
290
     0
176
     1
290
     0
176
     1
290
     0
176
     1
 90
       50
176
     1
 40
0.0
176
     1
 40
1.0
176
     1
 90
        0
176
     1
 62
    18
420
        0
176
     1
 90
       50
176
     1
 90
        3
176
     1
 62
     5
420
      255
176
     1
290
     0
176
     1
 90
       50
176
     1
 90
       50
176
     1
 90
       50
176
     1
290
     0
176
     1
 90
       50
176
     1
 62
   256
176
     0
 40
1.0
176
     0
 90
        2
176
     1
  1
strokes_ogs.tif
176
     1
290
     0
176
     1
 40
1.0
176
     1
 40
1.0
176
     1
  0
VISUALSTYLE
  5
167
102
{ACAD_REACTORS
330
150
102
}
330
150
100
AcDbVisualStyle
  2
Shaded with edges
 70
    26
177
     3
291
     0
 70
    58
 90
        2
176
     1
 90
        2
176
     1
 90
        1
176
     1
 90
        2
176
     1
 40
0.6
176
     1
 40
30.0
176
     1
 62
     7
420
 16777215
176
     1
 90
        1
176
     1
 90
       10
176
     1
 62
     7
176
     1
 62
   257
176
     1
 90
        2
176
     1
 90
        1
176
     1
 40
1.0
176
     1
 90
        8
176
     1
 62
   257
176
     1
 40
1.0
176
     1
 90
        1
176
     1
 90
        6
176
     1
 90
        2
176
     1
 62
     7
176
     1
 90
        3
176
     1
 90
        0
176
     1
 90
        0
176
     1
290
     0
176
     1
 90
        5
176
     1
 40
0.0
176
     1
 90
        0
176
     1
290
     0
176
     1
290
     1
176
     1
290
     1
176
     1
290
     0
176
     1
290
     0
176
     1
290
     0
176
     1
290
     0
176
     1
290
     0
176
     1
290
     0
176
     1
 90
       50
176
     1
 40
0.0
176
     1
 40
1.0
176
     1
 90
        0
176
     1
 62
    18
420
        0
176
     1
 90
       50
176
     1
 90
        3
176
     1
 62
     5
420
      255
176
     1
290
     0
176
     1
 90
       50
176
     1
 90
       50
176
     1
 90
       50
176
     1
290
     0
176
     1
 90
       50
176
     1
 62
   256
176
     0
 40
1.0
176
     0
 90
        2
176
     1
  1
strokes_ogs.tif
176
     1
290
     0
176
     1
 40
1.0
176
     1
 40
1.0
176
     1
  0
VISUALSTYLE
  5
164
102
{ACAD_REACTORS
330
150
102
}
330
150
100
AcDbVisualStyle
  2
Shades of Gray
 70
    23
177
     3
291
     0
 70
    58
 90
        2
176
     1
 90
        2
176
     1
 90
        3
176
     1
 90
        0
176
     1
 40
0.6
176
     1
 40
30.0
176
     1
 62
     7
420
 16777215
176
     1
 90
        2
176
     1
 90
        2
176
     1
 62
     7
176
     1
 62
     7
176
     1
 90
        1
176
     1
 90
        1
176
     1
 40
40.0
176
     1
 90
        8
176
     1
 62
     7
176
     1
 40
1.0
176
     1
 90
        1
176
     1
 90
        6
176
     1
 90
        2
176
     1
 62
     7
176
     1
 90
        3
176
     1
 90
        0
176
     1
 90
        0
176
     1
290
     0
176
     1
 90
        1
176
     1
 40
0.0
176
     1
 90
        0
176
     1
290
     0
176
     1
290
     1
176
     1
290
     1
176
     1
290
     0
176
     1
290
     0
176
     1
290
     0
176
     1
290
     0
176
     1
290
     0
176
     1
290
     0
176
     1
 90
       50
176
     1
 40
0.0
176
     1
 40
1.0
176
     1
 90
        0
176
     1
 62
    18
420
        0
176
     1
 90
       50
176
     1
 90
        3
176
     1
 62
     5
420
      255
176
     1
290
     0
176
     1
 90
       50
176
     1
 90
       50
176
     1
 90
       50
176
     1
290
     0
176
     1
 90
       50
176
     1
 62
   256
176
     0
 40
1.0
176
     0
 90
        2
176
     1
  1
strokes_ogs.tif
176
     1
290
     0
176
     1
 40
1.0
176
     1
 40
1.0
176
     1
  0
VISUALSTYLE
  5
165
102
{ACAD_REACTORS
330
150
102
}
330
150
100
AcDbVisualStyle
  2
Sketchy
 70
    24
177
     3
291
     0
 70
    58
 90
        1
176
     1
 90
        2
176
     1
 90
        2
176
     1
 90
        0
176
     1
 40
0.6
176
     1
 40
30.0
176
     1
 62
     7
420
 16777215
176
     1
 90
        2
176
     1
 90
        2
176
     1
 62
     7
176
     1
 62
     7
176
     1
 90
        1
176
     1
 90
        1
176
     1
 40
40.0
176
     1
 90
       11
176
     1
 62
     7
176
     1
 40
1.0
176
     1
 90
        1
176
     1
 90
        6
176
     1
 90
        2
176
     1
 62
     7
176
     1
 90
        6
176
     1
 90
        0
176
     1
 90
        0
176
     1
290
     0
176
     1
 90
        1
176
     1
 40
0.0
176
     1
 90
        0
176
     1
290
     0
176
     1
290
     1
176
     1
290
     1
176
     1
290
     0
176
     1
290
     0
176
     1
290
     0
176
     1
290
     0
176
     1
290
     0
176
     1
290
     0
176
     1
 90
       50
176
     1
 40
0.0
176
     1
 40
1.0
176
     1
 90
        0
176
     1
 62
    18
420
        0
176
     1
 90
       50
176
     1
 90
        3
176
     1
 62
     5
420
      255
176
     1
290
     0
176
     1
 90
       50
176
     1
 90
       50
176
     1
 90
       50
176
     1
290
     0
176
     1
 90
       50
176
     1
 62
   256
176
     0
 40
1.0
176
     0
 90
        2
176
     1
  1
strokes_ogs.tif
176
     1
290
     0
176
     1
 40
1.0
176
     1
 40
1.0
176
     1
  0
VISUALSTYLE
  5
15D
102
{ACAD_REACTORS
330
150
102
}
330
150
100
AcDbVisualStyle
  2
Thicken
 70
    13
177
     3
291
     1
 70
    58
 90
        2
176
     1
 90
        2
176
     1
 90
        0
176
     1
 90
        0
176
     1
 40
0.6
176
     1
 40
30.0
176
     1
 62
     7
420
 16777215
176
     1
 90
        1
176
     1
 90
        4
176
     1
 62
     7
176
     1
 62
   257
176
     1
 90
        1
176
     1
 90
        1
176
     1
 40
1.0
176
     1
 90
       12
176
     1
 62
     7
176
     1
 40
1.0
176
     1
 90
        1
176
     1
 90
        6
176
     1
 90
        2
176
     1
 62
     7
176
     1
 90
        5
176
     1
 90
        0
176
     1
 90
        0
176
     1
290
     0
176
     1
 90
        1
176
     1
 40
0.0
176
     1
 90
        0
176
     1
290
     0
176
     1
290
     1
176
     1
290
     1
176
     1
290
     0
176
     1
290
     0
176
     1
290
     0
176
     1
290
     0
176
     1
290
     0
176
     1
290
     0
176
     1
 90
       50
176
     1
 40
0.0
176
     1
 40
1.0
176
     1
 90
        0
176
     1
 62
    18
420
        0
176
     1
 90
       50
176
     1
 90
        3
176
     1
 62
     5
420
      255
176
     1
290
     0
176
     1
 90
       50
176
     1
 90
       50
176
     1
 90
       50
176
     1
290
     0
176
     1
 90
       50
176
     1
 62
   256
176
     0
 40
1.0
176
     0
 90
        2
176
     1
  1
strokes_ogs.tif
176
     1
290
     0
176
     1
 40
1.0
176
     1
 40
1.0
176
     1
  0
VISUALSTYLE
  5
156
102
{ACAD_REACTORS
330
150
102
}
330
150
100
AcDbVisualStyle
  2
Wireframe
 70
     5
177
     3
291
     0
 70
    58
 90
        0
176
     1
 90
        2
176
     1
 90
        0
176
     1
 90
        0
176
     1
 40
0.6
176
     1
 40
30.0
176
     1
 62
     7
420
 16777215
176
     1
 90
        1
176
     1
 90
        4
176
     1
 62
     7
176
     1
 62
   257
176
     1
 90
        1
176
     1
 90
        1
176
     1
 40
1.0
176
     1
 90
        0
176
     1
 62
   257
176
     1
 40
1.0
176
     1
 90
        1
176
     1
 90
        6
176
     1
 90
        2
176
     1
 62
     7
176
     1
 90
        3
176
     1
 90
        0
176
     1
 90
        0
176
     1
290
     0
176
     1
 90
        1
176
     1
 40
0.0
176
     1
 90
        0
176
     1
290
     0
176
     1
290
     1
176
     1
290
     1
176
     1
290
     0
176
     1
290
     0
176
     1
290
     0
176
     1
290
     0
176
     1
290
     0
176
     1
290
     0
176
     1
 90
       50
176
     1
 40
0.0
176
     1
 40
1.0
176
     1
 90
        0
176
     1
 62
    18
420
        0
176
     1
 90
       50
176
     1
 90
        3
176
     1
 62
     5
420
      255
176
     1
290
     0
176
     1
 90
       50
176
     1
 90
       50
176
     1
 90
       50
176
     1
290
     0
176
     1
 90
       50
176
     1
 62
   256
176
     0
 40
1.0
176
     0
 90
        2
176
     1
  1
strokes_ogs.tif
176
     1
290
     0
176
     1
 40
1.0
176
     1
 40
1.0
176
     1
  0
VISUALSTYLE
  5
166
102
{ACAD_REACTORS
330
150
102
}
330
150
100
AcDbVisualStyle
  2
X-Ray
 70
    25
177
     3
291
     0
 70
    58
 90
        2
176
     1
 90
        2
176
     1
 90
        1
176
     1
 90
        1
176
     1
 40
0.5
176
     1
 40
30.0
176
     1
 62
     7
420
 16777215
176
     1
 90
        1
176
     1
 90
        0
176
     1
 62
     7
176
     1
 62
   257
176
     1
 90
        1
176
     1
 90
        1
176
     1
 40
1.0
176
     1
 90
        8
176
     1
 62
     7
176
     1
 40
1.0
176
     1
 90
        1
176
     1
 90
        6
176
     1
 90
        2
176
     1
 62
     7
176
     1
 90
        3
176
     1
 90
        0
176
     1
 90
        0
176
     1
290
     0
176
     1
 90
       13
176
     1
 40
0.0
176
     1
 90
        0
176
     1
290
     0
176
     1
290
     1
176
     1
290
     1
176
     1
290
     0
176
     1
290
     0
176
     1
290
     0
176
     1
290
     0
176
     1
290
     0
176
     1
290
     0
176
     1
 90
       50
176
     1
 40
0.0
176
     1
 40
1.0
176
     1
 90
        0
176
     1
 62
    18
420
        0
176
     1
 90
       50
176
     1
 90
        3
176
     1
 62
     5
420
      255
176
     1
290
     0
176
     1
 90
       50
176
     1
 90
       50
176
     1
 90
       50
176
     1
290
     0
176
     1
 90
       50
176
     1
 62
   256
176
     0
 40
1.0
176
     0
 90
        2
176
     1
  1
strokes_ogs.tif
176
     1
290
     0
176
     1
 40
1.0
176
     1
 40
1.0
176
     1
  0
DICTIONARYVAR
  5
292
102
{ACAD_REACTORS
330
291
102
}
330
291
100
DictionaryVariables
280
     0
  1
1:1
  0
XRECORD
  5
192
102
{ACAD_REACTORS
330
191
102
}
330
191
100
AcDbXrecord
280
     1
290
     1
  0
XRECORD
  5
193
102
{ACAD_REACTORS
330
191
102
}
330
191
100
AcDbXrecord
280
     1
290
     1
  0
XRECORD
  5
194
102
{ACAD_REACTORS
330
191
102
}
330
191
100
AcDbXrecord
280
     1
290
     1
  0
XRECORD
  5
195
102
{ACAD_REACTORS
330
191
102
}
330
191
100
AcDbXrecord
280
     1
290
     1
  0
XRECORD
  5
196
102
{ACAD_REACTORS
330
191
102
}
330
191
100
AcDbXrecord
280
     1
1000
auto
  0
XRECORD
  5
197
102
{ACAD_REACTORS
330
191
102
}
330
191
100
AcDbXrecord
280
     1
1000
auto
  0
XRECORD
  5
198
102
{ACAD_REACTORS
330
191
102
}
330
191
100
AcDbXrecord
280
     1
1000
auto
  0
XRECORD
  5
199
102
{ACAD_REACTORS
330
191
102
}
330
191
100
AcDbXrecord
280
     1
1000
auto
  0
XRECORD
  5
19A
102
{ACAD_REACTORS
330
191
102
}
330
191
100
AcDbXrecord
280
     1
1000
auto
  0
XRECORD
  5
19B
102
{ACAD_REACTORS
330
191
102
}
330
191
100
AcDbXrecord
280
     1
1000
auto
  0
XRECORD
  5
19C
102
{ACAD_REACTORS
330
191
102
}
330
191
100
AcDbXrecord
280
     1
1000
auto
  0
XRECORD
  5
19D
102
{ACAD_REACTORS
330
191
102
}
330
191
100
AcDbXrecord
280
     1
1000
auto
  0
XRECORD
  5
19E
102
{ACAD_REACTORS
330
191
102
}
330
191
100
AcDbXrecord
280
     1
290
     0
  0
XRECORD
  5
19F
102
{ACAD_REACTORS
330
191
102
}
330
191
100
AcDbXrecord
280
     1
290
     0
  0
XRECORD
  5
1A0
102
{ACAD_REACTORS
330
191
102
}
330
191
100
AcDbXrecord
280
     1
290
     0
  0
XRECORD
  5
1A1
102
{ACAD_REACTORS
330
191
102
}
330
191
100
AcDbXrecord
280
     1
290
     0
  0
XRECORD
  5
1A2
102
{ACAD_REACTORS
330
191
102
}
330
191
100
AcDbXrecord
280
     1
 90
        0
  0
XRECORD
  5
1A3
102
{ACAD_REACTORS
330
191
102
}
330
191
100
AcDbXrecord
280
     1
 90
        0
  0
XRECORD
  5
1A4
102
{ACAD_REACTORS
330
191
102
}
330
191
100
AcDbXrecord
280
     1
 90
        0
  0
XRECORD
  5
1A5
102
{ACAD_REACTORS
330
191
102
}
330
191
100
AcDbXrecord
280
     1
 90
        0
  0
XRECORD
  5
1A6
102
{ACAD_REACTORS
330
191
102
}
330
191
100
AcDbXrecord
280
     1
1000
auto
  0
XRECORD
  5
1A7
102
{ACAD_REACTORS
330
191
102
}
330
191
100
AcDbXrecord
280
     1
1000
auto
  0
XRECORD
  5
1A8
102
{ACAD_REACTORS
330
191
102
}
330
191
100
AcDbXrecord
280
     1
1000
auto
  0
XRECORD
  5
1A9
102
{ACAD_REACTORS
330
191
102
}
330
191
100
AcDbXrecord
280
     1
1000
auto
  0
XRECORD
  5
1AA
102
{ACAD_REACTORS
330
191
102
}
330
191
100
AcDbXrecord
280
     1
1000
auto
  0
XRECORD
  5
1AB
102
{ACAD_REACTORS
330
191
102
}
330
191
100
AcDbXrecord
280
     1
1000
auto
  0
XRECORD
  5
1AC
102
{ACAD_REACTORS
330
191
102
}
330
191
100
AcDbXrecord
280
     1
1000
auto
  0
XRECORD
  5
1AD
102
{ACAD_REACTORS
330
191
102
}
330
191
100
AcDbXrecord
280
     1
1000
auto
  0
XRECORD
  5
1AE
102
{ACAD_REACTORS
330
191
102
}
330
191
100
AcDbXrecord
280
     1
 40
4.0
  0
XRECORD
  5
1AF
102
{ACAD_REACTORS
330
191
102
}
330
191
100
AcDbXrecord
280
     1
 40
10.0
  0
XRECORD
  5
1B0
102
{ACAD_REACTORS
330
191
102
}
330
191
100
AcDbXrecord
280
     1
 40
10.0
  0
XRECORD
  5
1B1
102
{ACAD_REACTORS
330
191
102
}
330
191
100
AcDbXrecord
280
     1
 40
10.0
  0
XRECORD
  5
1B2
102
{ACAD_REACTORS
330
191
102
}
330
191
100
AcDbXrecord
280
     1
 40
10.0
  0
XRECORD
  5
1B3
102
{ACAD_REACTORS
330
191
102
}
330
191
100
AcDbXrecord
280
     1
290
     1
  0
XRECORD
  5
1B4
102
{ACAD_REACTORS
330
191
102
}
330
191
100
AcDbXrecord
280
     1
 90
        1
  0
XRECORD
  5
1B5
102
{ACAD_REACTORS
330
191
102
}
330
191
100
AcDbXrecord
280
     1
 40
6.3256926403996
  0
XRECORD
  5
1B6
102
{ACAD_REACTORS
330
191
102
}
330
191
100
AcDbXrecord
280
     1
 40
-169.0986719753195
  0
XRECORD
  5
1B7
102
{ACAD_REACTORS
330
191
102
}
330
191
100
AcDbXrecord
280
     1
1000
Landscape
  0
XRECORD
  5
1B8
102
{ACAD_REACTORS
330
191
102
}
330
191
100
AcDbXrecord
280
     1
 40
297.0
  0
XRECORD
  5
1B9
102
{ACAD_REACTORS
330
191
102
}
330
191
100
AcDbXrecord
280
     1
 40
210.0
  0
XRECORD
  5
1BA
102
{ACAD_REACTORS
330
191
102
}
330
191
100
AcDbXrecord
280
     1
1000
1:1
  0
XRECORD
  5
1BB
102
{ACAD_REACTORS
330
191
102
}
330
191
100
AcDbXrecord
280
     1
290
     1
  0
XRECORD
  5
1BC
102
{ACAD_REACTORS
330
191
102
}
330
191
100
AcDbXrecord
280
     1
 90
        4
  0
ENDSEC
  0
EOF
